  0
SECTION
  2
HEADER
  9
$ACADVER
  1
AC1015
  9
$ACADMAINTVER
 70
           6
  9
$DWGCODEPAGE
  3
ANSI_1252
  9
$INSBASE
 10
0.0
 20
0.0
 30
0.0
  9
$EXTMIN
 10
-1.587608186861
 20
-1.711951730987
 30
0.0
  9
$EXTMAX
 10
2.1842
 20
1.626140685894
 30
0.0
  9
$LIMMIN
 10
-1.5876081869
 20
-1.711951731
  9
$LIMMAX
 10
2.1842
 20
1.6261406859
  9
$ORTHOMODE
 70
           0
  9
$REGENMODE
 70
           1
  9
$FILLMODE
 70
           1
  9
$QTEXTMODE
 70
           0
  9
$MIRRTEXT
 70
           1
  9
$LTSCALE
 40
1.0
  9
$ATTMODE
 70
           1
  9
$TEXTSIZE
 40
0.25
  9
$TRACEWID
 40
1.0
  9
$TEXTSTYLE
  7
STANDARD
  9
$CLAYER
  8
0
  9
$CELTYPE
  6
Continuous
  9
$CECOLOR
 62
           7
  9
$CELTSCALE
 40
1.0
  9
$DISPSILH
 70
           0
  9
$DIMSCALE
 40
1.0
  9
$DIMASZ
 40
0.25
  9
$DIMEXO
 40
0.0625
  9
$DIMDLI
 40
0.375
  9
$DIMRND
 40
0.01
  9
$DIMDLE
 40
0.0
  9
$DIMEXE
 40
0.125
  9
$DIMTP
 40
0.0
  9
$DIMTM
 40
0.0
  9
$DIMTXT
 40
0.15
  9
$DIMCEN
 40
0.09
  9
$DIMTSZ
 40
0.0
  9
$DIMTOL
 70
           0
  9
$DIMLIM
 70
           0
  9
$DIMTIH
 70
           1
  9
$DIMTOH
 70
           1
  9
$DIMSE1
 70
           0
  9
$DIMSE2
 70
           0
  9
$DIMTAD
 70
           1
  9
$DIMZIN
 70
           0
  9
$DIMBLK
  1

  9
$DIMASO
 70
           0
  9
$DIMSHO
 70
           1
  9
$DIMPOST
  1

  9
$DIMAPOST
  1

  9
$DIMALT
 70
           0
  9
$DIMALTD
 70
           2
  9
$DIMALTF
 40
1.0
  9
$DIMLFAC
 40
1.0
  9
$DIMTOFL
 70
           1
  9
$DIMTVP
 40
0.0
  9
$DIMTIX
 70
           0
  9
$DIMSOXD
 70
           0
  9
$DIMSAH
 70
           0
  9
$DIMBLK1
  1

  9
$DIMBLK2
  1

  9
$DIMSTYLE
  2
STANDARD
  9
$DIMCLRD
 70
           7
  9
$DIMCLRE
 70
           7
  9
$DIMCLRT
 70
           7
  9
$DIMTFAC
 40
1.0
  9
$DIMGAP
 40
0.0625
  9
$DIMJUST
 70
           0
  9
$DIMSD1
 70
           0
  9
$DIMSD2
 70
           0
  9
$DIMTOLJ
 70
           1
  9
$DIMTZIN
 70
           0
  9
$DIMALTZ
 70
           8
  9
$DIMALTTZ
 70
           0
  9
$DIMUPT
 70
           0
  9
$DIMDEC
 70
           2
  9
$DIMTDEC
 70
           2
  9
$DIMALTU
 70
           2
  9
$DIMALTTD
 70
           2
  9
$DIMTXSTY
  7
STANDARD
  9
$DIMAUNIT
 70
           0
  9
$DIMADEC
 70
           0
  9
$DIMALTRND
 40
0.0
  9
$DIMAZIN
 70
           0
  9
$DIMDSEP
 70
           0
  9
$DIMATFIT
 70
           0
  9
$DIMFRAC
 70
           0
  9
$DIMLDRBLK
  1

  9
$DIMLUNIT
 70
           2
  9
$DIMLWD
 70
           0
  9
$DIMLWE
 70
           0
  9
$DIMTMOVE
 70
           0
  9
$LUNITS
 70
           2
  9
$LUPREC
 70
           4
  9
$SKETCHINC
 40
1.0
  9
$FILLETRAD
 40
1.0
  9
$AUNITS
 70
           0
  9
$AUPREC
 70
           2
  9
$MENU
  1
acad
  9
$ELEVATION
 40
0.0
  9
$PELEVATION
 40
0.0
  9
$THICKNESS
 40
0.0
  9
$LIMCHECK
 70
           0
  9
$CHAMFERA
 40
0.0
  9
$CHAMFERB
 40
0.0
  9
$CHAMFERC
 40
0.0
  9
$CHAMFERD
 40
0.0
  9
$SKPOLY
 70
           0
  9
$TDCREATE
 40
0.000000000
  9
$TDUCREATE
 40
0.000000000
  9
$TDUPDATE
 40
2449702.667959363
  9
$TDUUPDATE
 40
0.000000000
  9
$TDINDWG
 40
0.0000000000
  9
$TDUSRTIMER
 40
0.0000000000
  9
$USRTIMER
 70
           1
  9
$ANGBASE
 50
0.0
  9
$ANGDIR
 70
           0
  9
$PDMODE
 70
           0
  9
$PDSIZE
 40
0.0
  9
$PLINEWID
 40
0.0
  9
$SPLFRAME
 70
           0
  9
$SPLINETYPE
 70
           5
  9
$SPLINESEGS
 70
          20
  9
$HANDSEED
  5
27B
  9
$SURFTAB1
 70
           6
  9
$SURFTAB2
 70
           6
  9
$SURFTYPE
 70
           6
  9
$SURFU
 70
           6
  9
$SURFV
 70
           6
  9
$UCSBASE
  2

  9
$UCSNAME
  2

  9
$UCSORG
 10
0.0
 20
0.0
 30
0.0
  9
$UCSXDIR
 10
1.0
 20
0.0
 30
0.0
  9
$UCSYDIR
 10
0.0
 20
1.0
 30
0.0
  9
$UCSORTHOREF
  2

  9
$UCSORTHOVIEW
 70
           0
  9
$UCSORGTOP
 10
0.0
 20
0.0
 30
0.0
  9
$UCSORGBOTTOM
 10
0.0
 20
0.0
 30
0.0
  9
$UCSORGLEFT
 10
0.0
 20
0.0
 30
0.0
  9
$UCSORGRIGHT
 10
0.0
 20
0.0
 30
0.0
  9
$UCSORGFRONT
 10
0.0
 20
0.0
 30
0.0
  9
$UCSORGBACK
 10
0.0
 20
0.0
 30
0.0
  9
$PUCSBASE
  2

  9
$PUCSNAME
  2

  9
$PUCSORG
 10
0.0
 20
0.0
 30
0.0
  9
$PUCSXDIR
 10
1.0
 20
0.0
 30
0.0
  9
$PUCSYDIR
 10
0.0
 20
1.0
 30
0.0
  9
$PUCSORTHOREF
  2

  9
$PUCSORTHOVIEW
 70
           0
  9
$PUCSORGTOP
 10
0.0
 20
0.0
 30
0.0
  9
$PUCSORGBOTTOM
 10
0.0
 20
0.0
 30
0.0
  9
$PUCSORGLEFT
 10
0.0
 20
0.0
 30
0.0
  9
$PUCSORGRIGHT
 10
0.0
 20
0.0
 30
0.0
  9
$PUCSORGFRONT
 10
0.0
 20
0.0
 30
0.0
  9
$PUCSORGBACK
 10
0.0
 20
0.0
 30
0.0
  9
$USERI1
 70
           0
  9
$USERI2
 70
           0
  9
$USERI3
 70
           0
  9
$USERI4
 70
           0
  9
$USERI5
 70
           0
  9
$USERR1
 40
0.0
  9
$USERR2
 40
0.0
  9
$USERR3
 40
0.0
  9
$USERR4
 40
0.0
  9
$USERR5
 40
0.0
  9
$WORLDVIEW
 70
           1
  9
$SHADEDGE
 70
           3
  9
$SHADEDIF
 70
          70
  9
$TILEMODE
 70
           1
  9
$MAXACTVP
 70
          16
  9
$PINSBASE
 10
0.0
 20
0.0
 30
0.0
  9
$PLIMCHECK
 70
           0
  9
$PEXTMIN
 10
0.0
 20
0.0
 30
0.0
  9
$PEXTMAX
 10
0.0
 20
0.0
 30
0.0
  9
$PLIMMIN
 10
0.0
 20
0.0
  9
$PLIMMAX
 10
0.0
 20
0.0
  9
$UNITMODE
 70
           0
  9
$VISRETAIN
 70
           0
  9
$PLINEGEN
 70
           1
  9
$PSLTSCALE
 70
           1
  9
$TREEDEPTH
 70
        3020
  9
$CMLSTYLE
  2
STANDARD
  9
$CMLJUST
 70
           0
  9
$CMLSCALE
 40
1.0
  9
$PROXYGRAPHICS
 70
           0
  9
$MEASUREMENT
 70
           0
  9
$CELWEIGHT
370
           0
  9
$ENDCAPS
280
           0
  9
$JOINSTYLE
280
           0
  9
$LWDISPLAY
290
           0
  9
$INSUNITS
 70
           0
  9
$HYPERLINKBASE
  1

  9
$STYLESHEET
  1

  9
$XEDIT
290
           1
  9
$CEPSNTYPE
380
           0
  9
$PSTYLEMODE
290
           1
  9
$FINGERPRINTGUID
  2

  9
$VERSIONGUID
  2

  9
$EXTNAMES
290
           1
  9
$PSVPSCALE
 40
0.0
  0
ENDSEC
  0
SECTION
  2
CLASSES
  0
CLASS
  1
LWPOLYLINE
  2
AcDbPolyline
  3
AutoCAD 2000
 90
        0
280
           0
281
           1
  0
CLASS
  1
IMAGE
  2
AcDbRasterImage
  3
ISM
 90
    32895
280
           0
281
           1
  0
CLASS
  1
OLE2FRAME
  2
AcDbOle2Frame
  3
AutoCAD 2000
 90
    32768
280
           0
281
           1
  0
CLASS
  1
HATCH
  2
AcDbHatch
  3
AutoCAD 2000
 90
        0
280
           0
281
           1
  0
CLASS
  1
DICTIONARYVAR
  2
AcDbDictionaryVar
  3
AutoCAD 2000
 90
    32768
280
           0
281
           0
  0
CLASS
  1
RASTERVARIABLES
  2
AcDbRasterVariables
  3
ISM
 90
    32768
280
           0
281
           0
  0
CLASS
  1
IMAGEDEF
  2
AcDbRasterImageDef
  3
ISM
 90
    32768
280
           0
281
           0
  0
CLASS
  1
IMAGEDEF_REACTOR
  2
AcDbRasterImageDefReactor
  3
ISM
 90
    32769
280
           0
281
           0
  0
CLASS
  1
IDBUFFER
  2
AcDbIdBuffer
  3
AutoCAD 2000
 90
    32768
280
           0
281
           0
  0
CLASS
  1
SPATIAL_FILTER
  2
AcDbSpatialFilter
  3
AutoCAD 2000
 90
    32768
280
           0
281
           0
  0
CLASS
  1
XRECORD
  2
AcDbXrecord
  3
AutoCAD 2000
 90
    32768
280
           0
281
           0
  0
CLASS
  1
SORTENTSTABLE
  2
AcDbSortentsTable
  3
AutoCAD 2000
 90
    32768
280
           0
281
           0
  0
CLASS
  1
LAYER_INDEX
  2
AcDbLayerIndex
  3
AutoCAD 2000
 90
    32768
280
           0
281
           0
  0
CLASS
  1
SPATIAL_INDEX
  2
AcDbSpatialIndex
  3
AutoCAD 2000
 90
    32768
280
           0
281
           0
  0
CLASS
  1
OBJECT_PTR
  2
CAseDLPNTableRecord
  3
"ASE-LPNTableRecord"
 90
    32769
280
           0
281
           0
  0
CLASS
  1
LAYOUT
  2
AcDbLayout
  3
AutoCAD 2000
 90
        0
280
           0
281
           0
  0
CLASS
  1
PLOTSETTINGS
  2
AcDbPlotSettings
  3
AutoCAD 2000
 90
    32768
280
           0
281
           0
  0
CLASS
  1
ACDBDICTIONARYWDFLT
  2
AcDbDictionaryWithDefault
  3
AutoCAD 2000
 90
        0
280
           0
281
           0
  0
CLASS
  1
ACDBPLACEHOLDER
  2
AcDbPlaceHolder
  3
AutoCAD 2000
 90
        0
280
           0
281
           0
  0
ENDSEC
  0
SECTION
  2
TABLES
  0
TABLE
  2
VPORT
  5
7
100
AcDbSymbolTable
 70
           1
  0
VPORT
  5
15
100
AcDbSymbolTableRecord
100
AcDbViewportTableRecord
  2
*ACTIVE
 70
           0
 10
0.0
 20
0.0
 11
1.0
 21
1.0
 12
0.0
 22
0.0
 13
0.0
 23
0.0
 14
0.5
 24
0.5
 15
0.5
 25
0.5
 16
0.0
 26
0.0
 36
1.0
 17
0.29829590657
 27
-0.042905522547
 37
0.0
 40
3.748807394933
 41
1.026258205689
 42
50.0
 43
0.0
 44
0.0
 50
0.0
 51
0.0
 71
           0
 72
         100
 73
           1
 74
           1
 75
           0
 76
           0
 77
           0
 78
           0
281
           0
 65
           0
110
0.0
120
0.0
130
0.0
111
1.0
121
0.0
131
0.0
112
0.0
122
1.0
132
0.0
345
0
346
0
 79
           0
146
0.0
  0
ENDTAB
  0
TABLE
  2
LTYPE
  5
4
100
AcDbSymbolTable
 70
          14
  0
LTYPE
  5
11
100
AcDbSymbolTableRecord
100
AcDbLinetypeTableRecord
  2
ByBlock
 70
          64
  3

 72
          65
 73
           0
 40
0.0
  0
LTYPE
  5
12
100
AcDbSymbolTableRecord
100
AcDbLinetypeTableRecord
  2
ByLayer
 70
          64
  3

 72
          65
 73
           0
 40
0.0
  0
LTYPE
  5
13
100
AcDbSymbolTableRecord
100
AcDbLinetypeTableRecord
  2
Continuous
 70
          64
  3
Solid line
 72
          65
 73
           0
 40
0.0
  0
LTYPE
  5
24
100
AcDbSymbolTableRecord
100
AcDbLinetypeTableRecord
  2
BORDER
 70
           0
  3
BORDER
 72
          65
 73
           6
 40
1.75
 49
0.5
 74
           0
 49
-0.25
 74
           0
 49
0.5
 74
           0
 49
-0.25
 74
           0
 49
0.0
 74
           0
 49
-0.25
 74
           0
  0
LTYPE
  5
25
100
AcDbSymbolTableRecord
100
AcDbLinetypeTableRecord
  2
CENTER
 70
           0
  3
CENTER
 72
          65
 73
           4
 40
2.0
 49
1.25
 74
           0
 49
-0.25
 74
           0
 49
0.25
 74
           0
 49
-0.25
 74
           0
  0
LTYPE
  5
26
100
AcDbSymbolTableRecord
100
AcDbLinetypeTableRecord
  2
DASHDOT
 70
           0
  3
DASHDOT
 72
          65
 73
           4
 40
1.0
 49
0.5
 74
           0
 49
-0.25
 74
           0
 49
0.0
 74
           0
 49
-0.25
 74
           0
  0
LTYPE
  5
27
100
AcDbSymbolTableRecord
100
AcDbLinetypeTableRecord
  2
DASHED
 70
           0
  3
DASHED
 72
          65
 73
           2
 40
0.75
 49
0.5
 74
           0
 49
-0.25
 74
           0
  0
LTYPE
  5
28
100
AcDbSymbolTableRecord
100
AcDbLinetypeTableRecord
  2
DIVIDE
 70
           0
  3
DIVIDE
 72
          65
 73
           6
 40
1.25
 49
0.5
 74
           0
 49
-0.25
 74
           0
 49
0.0
 74
           0
 49
-0.25
 74
           0
 49
0.0
 74
           0
 49
-0.25
 74
           0
  0
LTYPE
  5
29
100
AcDbSymbolTableRecord
100
AcDbLinetypeTableRecord
  2
DOT
 70
           0
  3
DOT
 72
          65
 73
           2
 40
0.25
 49
0.0
 74
           0
 49
-0.25
 74
           0
  0
LTYPE
  5
2A
100
AcDbSymbolTableRecord
100
AcDbLinetypeTableRecord
  2
HIDDEN
 70
           0
  3
HIDDEN
 72
          65
 73
           2
 40
0.375
 49
0.25
 74
           0
 49
-0.125
 74
           0
  0
LTYPE
  5
2B
100
AcDbSymbolTableRecord
100
AcDbLinetypeTableRecord
  2
PHANTOM
 70
           0
  3
PHANTOM
 72
          65
 73
           6
 40
2.5
 49
1.25
 74
           0
 49
-0.25
 74
           0
 49
0.25
 74
           0
 49
-0.25
 74
           0
 49
0.25
 74
           0
 49
-0.25
 74
           0
  0
LTYPE
  5
2C
100
AcDbSymbolTableRecord
100
AcDbLinetypeTableRecord
  2
$INVISIBLE
 70
           0
  3
$INVISIBLE
 72
          65
 73
           2
 40
200.0
 49
-100.0
 74
           0
 49
-100.0
 74
           0
  0
LTYPE
  5
2D
100
AcDbSymbolTableRecord
100
AcDbLinetypeTableRecord
  2
$CONSTRUCTION
 70
           0
  3
$CONSTRUCTION
 72
          65
 73
           4
 40
0.3
 49
0.2
 74
           0
 49
-0.05
 74
           0
 49
0.0
 74
           0
 49
-0.05
 74
           0
  0
LTYPE
  5
2E
100
AcDbSymbolTableRecord
100
AcDbLinetypeTableRecord
  2
$SNAPEXT
 70
           0
  3
$SNAPEXT
 72
          65
 73
           2
 40
0.04
 49
0.02
 74
           0
 49
-0.02
 74
           0
  0
ENDTAB
  0
TABLE
  2
LAYER
  5
2
100
AcDbSymbolTable
 70
           3
  0
LAYER
  5
14
100
AcDbSymbolTableRecord
100
AcDbLayerTableRecord
  2
0
 70
           0
 62
           7
  6
Continuous
290
           1
370
           0
390
0
1001
TCAD
1000
TCW_LAYER_ORDER
1002
{
1071
        0
1002
}
  0
LAYER
  5
2F
100
AcDbSymbolTableRecord
100
AcDbLayerTableRecord
  2
$CONSTRUCTION
 70
           0
 62
           1
  6
$CONSTRUCTION
290
           1
370
           0
390
0
1001
TCAD
1000
TCW_LAYER_ORDER
1002
{
1071
        0
1002
}
  0
LAYER
  5
32
100
AcDbSymbolTableRecord
100
AcDbLayerTableRecord
  2
ASHADE
 70
           0
 62
           7
  6
Continuous
290
           1
370
          -3
390
0
  0
ENDTAB
  0
TABLE
  2
STYLE
  5
3
100
AcDbSymbolTable
 70
           2
  0
STYLE
  5
17
100
AcDbSymbolTableRecord
100
AcDbTextStyleTableRecord
  2
STANDARD
 70
           0
 40
0.0
 41
1.0
 50
0.0
 71
           0
 42
0.15000000596
  3
TIMES.TTF
  4

1001
ACAD
1000
Times New Roman
1071
      290
  0
STYLE
  5
31
100
AcDbSymbolTableRecord
100
AcDbTextStyleTableRecord
  2
ASHADE
 70
           0
 40
0.2
 41
1.0
 50
0.0
 71
           0
 42
2.5
  3
simplex.shx
  4

  0
ENDTAB
  0
TABLE
  2
VIEW
  5
5
100
AcDbSymbolTable
 70
           1
  0
VIEW
  5
30
100
AcDbSymbolTableRecord
100
AcDbViewTableRecord
  2
View_0
 70
           0
 40
8.267716535433
 10
5.846456692913
 20
4.133858267717
 41
11.692913385827
 11
0.0
 21
0.0
 31
1.0
 12
0.0
 22
0.0
 32
0.0
 42
45.247172312671
 43
0.0
 44
0.0
 50
0.0
 71
           0
281
           0
 72
           0
110
0.0
120
0.0
130
0.0
111
1.0
121
0.0
131
0.0
112
0.0
122
1.0
132
0.0
  0
ENDTAB
  0
TABLE
  2
UCS
  5
6
100
AcDbSymbolTable
 70
           0
  0
ENDTAB
  0
TABLE
  2
APPID
  5
8
100
AcDbSymbolTable
 70
           3
  0
APPID
  5
16
100
AcDbSymbolTableRecord
100
AcDbRegAppTableRecord
  2
ACAD
 70
           0
  0
APPID
  5
23
100
AcDbSymbolTableRecord
100
AcDbRegAppTableRecord
  2
TCAD
 70
           0
  0
APPID
  5
50
100
AcDbSymbolTableRecord
100
AcDbRegAppTableRecord
  2
AVE_RENDER
 70
           0
  0
ENDTAB
  0
TABLE
  2
DIMSTYLE
  5
9
100
AcDbSymbolTable
 70
           1
100
AcDbDimStyleTable
 71
           0
  0
DIMSTYLE
105
18
100
AcDbSymbolTableRecord
100
AcDbDimStyleTableRecord
  2
STANDARD
 70
           0
  3

  4

 40
1.0
 41
0.25
 42
0.0625
 43
0.375
 44
0.125
 45
0.01
 46
0.0
 47
0.0
 48
0.0
 71
           0
 72
           0
 73
           1
 74
           1
 75
           0
 76
           0
 77
           1
 78
           0
 79
           0
140
0.15
141
0.09
142
0.0
143
1.0
144
1.0
145
0.0
146
1.0
147
0.0625
148
0.01
170
           0
171
           2
172
           1
173
           0
174
           0
175
           0
176
           7
177
           7
178
           7
179
           0
271
           2
272
           2
273
           2
274
           2
275
           0
276
           0
277
           2
278
          46
279
           0
280
           0
281
           0
282
           0
283
           1
284
           0
285
           8
286
           0
288
           0
340
17
341
0
342
0
343
0
344
0
371
          -2
372
          -2
  0
ENDTAB
  0
TABLE
  2
BLOCK_RECORD
  5
1
100
AcDbSymbolTable
 70
          19
  0
BLOCK_RECORD
  5
A
100
AcDbSymbolTableRecord
100
AcDbBlockTableRecord
  2
*MODEL_SPACE
340
277
  0
BLOCK_RECORD
  5
B
100
AcDbSymbolTableRecord
100
AcDbBlockTableRecord
  2
*PAPER_SPACE
340
27A
  0
BLOCK_RECORD
  5
33
100
AcDbSymbolTableRecord
100
AcDbBlockTableRecord
  2
OVERHEAD
340
0
102
{BLKREFS
331
51
331
5D
331
69
331
75
331
A1
331
AD
102
}
  0
BLOCK_RECORD
  5
81
100
AcDbSymbolTableRecord
100
AcDbBlockTableRecord
  2
DIRECT
340
0
102
{BLKREFS
331
95
102
}
  0
BLOCK_RECORD
  5
B9
100
AcDbSymbolTableRecord
100
AcDbBlockTableRecord
  2
SH_SPOT
340
0
102
{BLKREFS
331
E1
102
}
  0
BLOCK_RECORD
  5
142
100
AcDbSymbolTableRecord
100
AcDbBlockTableRecord
  2
*D3
340
0
  0
BLOCK_RECORD
  5
152
100
AcDbSymbolTableRecord
100
AcDbBlockTableRecord
  2
*D4
340
0
  0
BLOCK_RECORD
  5
162
100
AcDbSymbolTableRecord
100
AcDbBlockTableRecord
  2
*D5
340
0
  0
BLOCK_RECORD
  5
16D
100
AcDbSymbolTableRecord
100
AcDbBlockTableRecord
  2
*D6
340
0
  0
BLOCK_RECORD
  5
178
100
AcDbSymbolTableRecord
100
AcDbBlockTableRecord
  2
*D7
340
0
  0
BLOCK_RECORD
  5
187
100
AcDbSymbolTableRecord
100
AcDbBlockTableRecord
  2
*D8
340
0
  0
BLOCK_RECORD
  5
199
100
AcDbSymbolTableRecord
100
AcDbBlockTableRecord
  2
*D9
340
0
  0
BLOCK_RECORD
  5
1A8
100
AcDbSymbolTableRecord
100
AcDbBlockTableRecord
  2
*D10
340
0
  0
BLOCK_RECORD
  5
1B7
100
AcDbSymbolTableRecord
100
AcDbBlockTableRecord
  2
*D11
340
0
  0
BLOCK_RECORD
  5
1EE
100
AcDbSymbolTableRecord
100
AcDbBlockTableRecord
  2
*D12
340
0
  0
BLOCK_RECORD
  5
1FF
100
AcDbSymbolTableRecord
100
AcDbBlockTableRecord
  2
*D13
340
0
  0
BLOCK_RECORD
  5
210
100
AcDbSymbolTableRecord
100
AcDbBlockTableRecord
  2
*D14
340
0
  0
BLOCK_RECORD
  5
221
100
AcDbSymbolTableRecord
100
AcDbBlockTableRecord
  2
*D15
340
0
  0
BLOCK_RECORD
  5
232
100
AcDbSymbolTableRecord
100
AcDbBlockTableRecord
  2
*D16
340
0
  0
BLOCK_RECORD
  5
243
100
AcDbSymbolTableRecord
100
AcDbBlockTableRecord
  2
*D17
340
0
  0
BLOCK_RECORD
  5
255
100
AcDbSymbolTableRecord
100
AcDbBlockTableRecord
  2
*D18
340
0
  0
ENDTAB
  0
ENDSEC
  0
SECTION
  2
BLOCKS
  0
BLOCK
  5
D
100
AcDbEntity
  8
0
100
AcDbBlockBegin
  2
*MODEL_SPACE
 70
           0
 10
0.0
 20
0.0
 30
0.0
  3
*MODEL_SPACE
  1

  0
ENDBLK
  5
E
100
AcDbEntity
  8
0
100
AcDbBlockEnd
  0
BLOCK
  5
F
100
AcDbEntity
 67
           1
  8
0
100
AcDbBlockBegin
  2
*PAPER_SPACE
 70
           0
 10
0.0
 20
0.0
 30
0.0
  3
*PAPER_SPACE
  1

  0
ENDBLK
  5
10
100
AcDbEntity
 67
           1
  8
0
100
AcDbBlockEnd
  0
BLOCK
  5
34
100
AcDbEntity
  8
0
100
AcDbBlockBegin
  2
OVERHEAD
 70
           2
 10
0.0
 20
0.0
 30
0.0
  3
OVERHEAD
  1

  0
ATTDEF
  5
35
100
AcDbEntity
  8
ASHADE
  6
Continuous
 62
           1
100
AcDbText
 10
0.0
 20
-0.1
 30
0.0
 40
0.2
  1

  7
ASHADE
 72
           1
 11
0.0
 21
-0.1
 31
0.0
100
AcDbAttributeDefinition
  3
Light Name
  2
SNAME
 70
           0
  0
ATTDEF
  5
36
100
AcDbEntity
  8
ASHADE
  6
Continuous
 62
           7
100
AcDbText
 10
0.0
 20
0.28
 30
0.0
 40
0.01
  1

100
AcDbAttributeDefinition
  3

  2
GNAME
 70
           1
  0
ATTDEF
  5
37
100
AcDbEntity
  8
ASHADE
  6
Continuous
 62
           7
100
AcDbText
 10
0.0
 20
0.265
 30
0.0
 40
0.01
  1

100
AcDbAttributeDefinition
  3
Look-at X
  2
LAX
 70
           1
  0
ATTDEF
  5
38
100
AcDbEntity
  8
ASHADE
  6
Continuous
 62
           7
100
AcDbText
 10
0.0
 20
0.25
 30
0.0
 40
0.01
  1

100
AcDbAttributeDefinition
  3
Look-at Y
  2
LAY
 70
           1
  0
ATTDEF
  5
39
100
AcDbEntity
  8
ASHADE
  6
Continuous
 62
           7
100
AcDbText
 10
0.0
 20
0.235
 30
0.0
 40
0.01
  1

100
AcDbAttributeDefinition
  3
Look-at Z
  2
LAZ
 70
           1
  0
ATTDEF
  5
3A
100
AcDbEntity
  8
ASHADE
  6
Continuous
 62
           7
100
AcDbText
 10
0.0
 20
0.22
 30
0.0
 40
0.01
  1
1
100
AcDbAttributeDefinition
  3
Light Intensity
  2
INTENSITY
 70
           1
  0
ATTDEF
  5
3B
100
AcDbEntity
  8
ASHADE
  6
Continuous
 62
           7
100
AcDbText
 10
0.0
 20
0.205
 30
0.0
 40
0.01
  1
1,1,1
100
AcDbAttributeDefinition
  3
Light Color (RGB)
  2
COLOR
 70
           1
  0
ATTDEF
  5
3C
100
AcDbEntity
  8
ASHADE
  6
Continuous
 62
           7
100
AcDbText
 10
0.0
 20
0.19
 30
0.0
 40
0.01
  1
0
100
AcDbAttributeDefinition
  3
Depth Map Size
  2
CONEA
 70
           1
  0
ATTDEF
  5
3D
100
AcDbEntity
  8
ASHADE
  6
Continuous
 62
           7
100
AcDbText
 10
0.0
 20
0.175
 30
0.0
 40
0.01
  1
-1
100
AcDbAttributeDefinition
  3
*not used*
  2
CONED
 70
           1
  0
ATTDEF
  5
3E
100
AcDbEntity
  8
ASHADE
  6
Continuous
 62
           7
100
AcDbText
 10
0.0
 20
0.16
 30
0.0
 40
0.01
  1
-1
100
AcDbAttributeDefinition
  3
*not used*
  2
BEAMD
 70
           1
  0
ARC
  5
3F
100
AcDbEntity
  8
ASHADE
  6
Continuous
 62
           7
100
AcDbCircle
 10
0.0
 20
0.0
 30
0.0
 40
0.3
100
AcDbArc
 50
205.679289
 51
334.320711
  0
ARC
  5
40
100
AcDbEntity
  8
ASHADE
  6
Continuous
 62
           7
100
AcDbCircle
 10
0.0
 20
0.0
 30
0.0
 40
0.3
100
AcDbArc
 50
25.679289
 51
154.320711
  0
LINE
  5
41
100
AcDbEntity
  8
ASHADE
  6
Continuous
 62
           7
100
AcDbLine
 10
-0.27037
 20
-0.13
 30
0.0
 11
-0.315432
 21
-0.151667
 31
0.0
  0
LINE
  5
42
100
AcDbEntity
  8
ASHADE
  6
Continuous
 62
           7
100
AcDbLine
 10
-0.204141
 20
-0.219832
 30
0.0
 11
-0.272188
 21
-0.29311
 31
0.0
  0
LINE
  5
43
100
AcDbEntity
  8
ASHADE
  6
Continuous
 62
           7
100
AcDbLine
 10
-0.109659
 20
-0.27924
 30
0.0
 11
-0.127936
 21
-0.32578
 31
0.0
  0
LINE
  5
44
100
AcDbEntity
  8
ASHADE
  6
Continuous
 62
           7
100
AcDbLine
 10
0.0
 20
-0.3
 30
0.0
 11
0.0
 21
-0.4
 31
0.0
  0
LINE
  5
45
100
AcDbEntity
  8
ASHADE
  6
Continuous
 62
           7
100
AcDbLine
 10
0.109659
 20
-0.27924
 30
0.0
 11
0.127936
 21
-0.32578
 31
0.0
  0
LINE
  5
46
100
AcDbEntity
  8
ASHADE
  6
Continuous
 62
           7
100
AcDbLine
 10
0.204141
 20
-0.219832
 30
0.0
 11
0.272188
 21
-0.29311
 31
0.0
  0
LINE
  5
47
100
AcDbEntity
  8
ASHADE
  6
Continuous
 62
           7
100
AcDbLine
 10
0.27037
 20
-0.13
 30
0.0
 11
0.315432
 21
-0.151667
 31
0.0
  0
LINE
  5
48
100
AcDbEntity
  8
ASHADE
  6
Continuous
 62
           7
100
AcDbLine
 10
-0.109659
 20
0.27924
 30
0.0
 11
-0.127936
 21
0.32578
 31
0.0
  0
LINE
  5
49
100
AcDbEntity
  8
ASHADE
  6
Continuous
 62
           7
100
AcDbLine
 10
-0.204141
 20
0.219832
 30
0.0
 11
-0.272188
 21
0.29311
 31
0.0
  0
LINE
  5
4A
100
AcDbEntity
  8
ASHADE
  6
Continuous
 62
           7
100
AcDbLine
 10
-0.27037
 20
0.13
 30
0.0
 11
-0.315432
 21
0.151667
 31
0.0
  0
LINE
  5
4B
100
AcDbEntity
  8
ASHADE
  6
Continuous
 62
           7
100
AcDbLine
 10
0.27037
 20
0.13
 30
0.0
 11
0.315432
 21
0.151667
 31
0.0
  0
LINE
  5
4C
100
AcDbEntity
  8
ASHADE
  6
Continuous
 62
           7
100
AcDbLine
 10
0.204141
 20
0.219832
 30
0.0
 11
0.272188
 21
0.29311
 31
0.0
  0
LINE
  5
4D
100
AcDbEntity
  8
ASHADE
  6
Continuous
 62
           7
100
AcDbLine
 10
0.109659
 20
0.27924
 30
0.0
 11
0.127936
 21
0.32578
 31
0.0
  0
LINE
  5
4E
100
AcDbEntity
  8
ASHADE
  6
Continuous
 62
           7
100
AcDbLine
 10
0.0
 20
0.3
 30
0.0
 11
0.0
 21
0.4
 31
0.0
  0
ENDBLK
  5
4F
100
AcDbEntity
  8
0
100
AcDbBlockEnd
  0
BLOCK
  5
82
100
AcDbEntity
  8
0
100
AcDbBlockBegin
  2
DIRECT
 70
           2
 10
0.0
 20
0.0
 30
0.0
  3
DIRECT
  1

  0
ATTDEF
  5
83
100
AcDbEntity
  8
ASHADE
  6
Continuous
 62
           1
100
AcDbText
 10
0.0
 20
-0.1
 30
0.0
 40
0.2
  1

  7
ASHADE
 72
           1
 11
0.0
 21
-0.1
 31
0.0
100
AcDbAttributeDefinition
  3
Light Name
  2
SNAME
 70
           0
  0
ATTDEF
  5
84
100
AcDbEntity
  8
ASHADE
  6
Continuous
 62
           7
100
AcDbText
 10
0.0
 20
0.28
 30
0.0
 40
0.01
  1

100
AcDbAttributeDefinition
  3

  2
GNAME
 70
           1
  0
ATTDEF
  5
85
100
AcDbEntity
  8
ASHADE
  6
Continuous
 62
           7
100
AcDbText
 10
0.0
 20
0.265
 30
0.0
 40
0.01
  1

100
AcDbAttributeDefinition
  3
Look-at X
  2
LAX
 70
           1
  0
ATTDEF
  5
86
100
AcDbEntity
  8
ASHADE
  6
Continuous
 62
           7
100
AcDbText
 10
0.0
 20
0.25
 30
0.0
 40
0.01
  1

100
AcDbAttributeDefinition
  3
Look-at Y
  2
LAY
 70
           1
  0
ATTDEF
  5
87
100
AcDbEntity
  8
ASHADE
  6
Continuous
 62
           7
100
AcDbText
 10
0.0
 20
0.235
 30
0.0
 40
0.01
  1

100
AcDbAttributeDefinition
  3
Look-at Z
  2
LAZ
 70
           1
  0
ATTDEF
  5
88
100
AcDbEntity
  8
ASHADE
  6
Continuous
 62
           7
100
AcDbText
 10
0.0
 20
0.22
 30
0.0
 40
0.01
  1
1
100
AcDbAttributeDefinition
  3
Light Intensity
  2
INTENSITY
 70
           1
  0
ATTDEF
  5
89
100
AcDbEntity
  8
ASHADE
  6
Continuous
 62
           7
100
AcDbText
 10
0.0
 20
0.205
 30
0.0
 40
0.01
  1
1,1,1
100
AcDbAttributeDefinition
  3
Light Color (RGB)
  2
COLOR
 70
           1
  0
ATTDEF
  5
8A
100
AcDbEntity
  8
ASHADE
  6
Continuous
 62
           7
100
AcDbText
 10
0.0
 20
0.19
 30
0.0
 40
0.01
  1
0
100
AcDbAttributeDefinition
  3
Depth Map Size
  2
CONEA
 70
           1
  0
ATTDEF
  5
8B
100
AcDbEntity
  8
ASHADE
  6
Continuous
 62
           7
100
AcDbText
 10
0.0
 20
0.175
 30
0.0
 40
0.01
  1
-1
100
AcDbAttributeDefinition
  3
*not used*
  2
CONED
 70
           1
  0
ATTDEF
  5
8C
100
AcDbEntity
  8
ASHADE
  6
Continuous
 62
           7
100
AcDbText
 10
0.0
 20
0.16
 30
0.0
 40
0.01
  1
-1
100
AcDbAttributeDefinition
  3
*not used*
  2
BEAMD
 70
           1
  0
ARC
  5
8D
100
AcDbEntity
  8
ASHADE
  6
Continuous
 62
           7
100
AcDbCircle
 10
0.0
 20
0.0
 30
0.0
 40
0.3
100
AcDbArc
 50
205.679289
 51
334.320711
  0
ARC
  5
8E
100
AcDbEntity
  8
ASHADE
  6
Continuous
 62
           7
100
AcDbCircle
 10
0.0
 20
0.0
 30
0.0
 40
0.3
100
AcDbArc
 50
25.679289
 51
154.320711
  0
LINE
  5
8F
100
AcDbEntity
  8
ASHADE
  6
Continuous
 62
           7
100
AcDbLine
 10
0.21
 20
0.214243
 30
0.0
 11
0.21
 21
0.5
 31
0.0
  0
LINE
  5
90
100
AcDbEntity
  8
ASHADE
  6
Continuous
 62
           7
100
AcDbLine
 10
0.11
 20
0.279106
 30
0.0
 11
0.11
 21
0.5
 31
0.0
  0
LINE
  5
91
100
AcDbEntity
  8
ASHADE
  6
Continuous
 62
           7
100
AcDbLine
 10
0.0
 20
0.3
 30
0.0
 11
0.0
 21
0.5
 31
0.0
  0
LINE
  5
92
100
AcDbEntity
  8
ASHADE
  6
Continuous
 62
           7
100
AcDbLine
 10
-0.11
 20
0.279106
 30
0.0
 11
-0.11
 21
0.5
 31
0.0
  0
LINE
  5
93
100
AcDbEntity
  8
ASHADE
  6
Continuous
 62
           7
100
AcDbLine
 10
-0.21
 20
0.214243
 30
0.0
 11
-0.21
 21
0.5
 31
0.0
  0
ENDBLK
  5
94
100
AcDbEntity
  8
0
100
AcDbBlockEnd
  0
BLOCK
  5
BA
100
AcDbEntity
  8
0
100
AcDbBlockBegin
  2
SH_SPOT
 70
           2
 10
0.0
 20
0.0
 30
0.0
  3
SH_SPOT
  1

  0
ATTDEF
  5
BB
100
AcDbEntity
  8
ASHADE
  6
Continuous
 62
           1
100
AcDbText
 10
0.0
 20
-0.1
 30
0.0
 40
0.2
  1

  7
ASHADE
 72
           1
 11
0.0
 21
-0.1
 31
0.0
100
AcDbAttributeDefinition
  3
Light Name
  2
SNAME
 70
           0
  0
ATTDEF
  5
BC
100
AcDbEntity
  8
ASHADE
  6
Continuous
 62
           7
100
AcDbText
 10
0.0
 20
-0.15
 30
0.0
 40
0.01
  1

100
AcDbAttributeDefinition
  3

  2
GNAME
 70
           1
  0
ATTDEF
  5
BD
100
AcDbEntity
  8
ASHADE
  6
Continuous
 62
           7
100
AcDbText
 10
0.0
 20
-0.165
 30
0.0
 40
0.01
  1

100
AcDbAttributeDefinition
  3
Look-at X
  2
LAX
 70
           1
  0
ATTDEF
  5
BE
100
AcDbEntity
  8
ASHADE
  6
Continuous
 62
           7
100
AcDbText
 10
0.0
 20
-0.18
 30
0.0
 40
0.01
  1

100
AcDbAttributeDefinition
  3
Look-at Y
  2
LAY
 70
           1
  0
ATTDEF
  5
BF
100
AcDbEntity
  8
ASHADE
  6
Continuous
 62
           7
100
AcDbText
 10
0.0
 20
-0.195
 30
0.0
 40
0.01
  1

100
AcDbAttributeDefinition
  3
Look-at Z
  2
LAZ
 70
           1
  0
ATTDEF
  5
C0
100
AcDbEntity
  8
ASHADE
  6
Continuous
 62
           7
100
AcDbText
 10
0.0
 20
-0.21
 30
0.0
 40
0.01
  1
1
100
AcDbAttributeDefinition
  3
Light Intensity
  2
INTENSITY
 70
           1
  0
ATTDEF
  5
C1
100
AcDbEntity
  8
ASHADE
  6
Continuous
 62
           7
100
AcDbText
 10
0.0
 20
-0.225
 30
0.0
 40
0.01
  1
1,1,1
100
AcDbAttributeDefinition
  3
Light Color (RGB)
  2
COLOR
 70
           1
  0
ATTDEF
  5
C2
100
AcDbEntity
  8
ASHADE
  6
Continuous
 62
           7
100
AcDbText
 10
0.0
 20
-0.24
 30
0.0
 40
0.01
  1
0
100
AcDbAttributeDefinition
  3
Depth Map Size
  2
ZSIZE
 70
           1
  0
ATTDEF
  5
C3
100
AcDbEntity
  8
ASHADE
  6
Continuous
 62
           7
100
AcDbText
 10
0.0
 20
-0.255
 30
0.0
 40
0.01
  1
-1
100
AcDbAttributeDefinition
  3
*not used*
  2
BIASMIN
 70
           1
  0
ATTDEF
  5
C4
100
AcDbEntity
  8
ASHADE
  6
Continuous
 62
           7
100
AcDbText
 10
0.0
 20
-0.27
 30
0.0
 40
0.01
  1
-1
100
AcDbAttributeDefinition
  3
*not used*
  2
BIASMAX
 70
           1
  0
ATTDEF
  5
C5
100
AcDbEntity
  8
ASHADE
  6
Continuous
 62
           7
100
AcDbText
 10
0.0
 20
-0.285
 30
0.0
 40
0.01
  1
10.0
100
AcDbAttributeDefinition
  3
Cone Angle
  2
CONEAN
 70
           1
  0
ATTDEF
  5
C6
100
AcDbEntity
  8
ASHADE
  6
Continuous
 62
           7
100
AcDbText
 10
0.0
 20
-0.3
 30
0.0
 40
0.01
  1
0.0
100
AcDbAttributeDefinition
  3
Cone Delta
  2
CONEDE
 70
           1
  0
ATTDEF
  5
C7
100
AcDbEntity
  8
ASHADE
  6
Continuous
 62
           7
100
AcDbText
 10
0.0
 20
-0.315
 30
0.0
 40
0.01
  1
0.0
100
AcDbAttributeDefinition
  3
Beam Distribution
  2
BIAMDI
 70
           1
  0
LINE
  5
C8
100
AcDbEntity
  8
ASHADE
  6
Continuous
 62
           7
100
AcDbLine
 10
-0.25
 20
-0.13
 30
0.0
 11
-0.25
 21
-0.34
 31
0.0
  0
LINE
  5
C9
100
AcDbEntity
  8
ASHADE
  6
Continuous
 62
           7
100
AcDbLine
 10
-0.25
 20
-0.34
 30
0.0
 11
0.25
 21
-0.34
 31
0.0
  0
LINE
  5
CA
100
AcDbEntity
  8
ASHADE
  6
Continuous
 62
           7
100
AcDbLine
 10
0.25
 20
-0.34
 30
0.0
 11
0.25
 21
-0.13
 31
0.0
  0
LINE
  5
CB
100
AcDbEntity
  8
ASHADE
  6
Continuous
 62
           7
100
AcDbLine
 10
0.25
 20
0.13
 30
0.0
 11
0.25
 21
0.26
 31
0.0
  0
LINE
  5
CC
100
AcDbEntity
  8
ASHADE
  6
Continuous
 62
           7
100
AcDbLine
 10
0.25
 20
0.26
 30
0.0
 11
-0.25
 21
0.26
 31
0.0
  0
LINE
  5
CD
100
AcDbEntity
  8
ASHADE
  6
Continuous
 62
           7
100
AcDbLine
 10
-0.25
 20
0.26
 30
0.0
 11
-0.25
 21
0.13
 31
0.0
  0
LINE
  5
CE
100
AcDbEntity
  8
ASHADE
  6
Continuous
 62
           7
100
AcDbLine
 10
-0.21
 20
0.26
 30
0.0
 11
-0.301304
 21
0.46
 31
0.0
  0
LINE
  5
CF
100
AcDbEntity
  8
ASHADE
  6
Continuous
 62
           7
100
AcDbLine
 10
-0.104545
 20
0.26
 30
0.0
 11
-0.15
 21
0.46
 31
0.0
  0
LINE
  5
D0
100
AcDbEntity
  8
ASHADE
  6
Continuous
 62
           7
100
AcDbLine
 10
0.0
 20
0.26
 30
0.0
 11
0.0
 21
0.46
 31
0.0
  0
LINE
  5
D1
100
AcDbEntity
  8
ASHADE
  6
Continuous
 62
           7
100
AcDbLine
 10
0.104545
 20
0.26
 30
0.0
 11
0.15
 21
0.46
 31
0.0
  0
LINE
  5
D2
100
AcDbEntity
  8
ASHADE
  6
Continuous
 62
           7
100
AcDbLine
 10
0.21
 20
0.26
 30
0.0
 11
0.301304
 21
0.46
 31
0.0
  0
LINE
  5
D3
100
AcDbEntity
  8
ASHADE
  6
Continuous
 62
           7
100
AcDbLine
 10
-0.29
 20
-0.18
 30
0.0
 11
-0.29
 21
-0.22
 31
0.0
  0
LINE
  5
D4
100
AcDbEntity
  8
ASHADE
  6
Continuous
 62
           7
100
AcDbLine
 10
0.29
 20
-0.18
 30
0.0
 11
0.29
 21
-0.22
 31
0.0
  0
LINE
  5
D5
100
AcDbEntity
  8
ASHADE
  6
Continuous
 62
           7
100
AcDbLine
 10
0.29
 20
0.22
 30
0.0
 11
0.29
 21
0.18
 31
0.0
  0
LINE
  5
D6
100
AcDbEntity
  8
ASHADE
  6
Continuous
 62
           7
100
AcDbLine
 10
-0.29
 20
0.22
 30
0.0
 11
-0.29
 21
0.18
 31
0.0
  0
LINE
  5
D7
100
AcDbEntity
  8
ASHADE
  6
Continuous
 62
           7
100
AcDbLine
 10
-0.29
 20
-0.22
 30
0.0
 11
-0.25
 21
-0.22
 31
0.0
  0
LINE
  5
D8
100
AcDbEntity
  8
ASHADE
  6
Continuous
 62
           7
100
AcDbLine
 10
-0.25
 20
-0.18
 30
0.0
 11
-0.29
 21
-0.18
 31
0.0
  0
LINE
  5
D9
100
AcDbEntity
  8
ASHADE
  6
Continuous
 62
           7
100
AcDbLine
 10
0.29
 20
-0.22
 30
0.0
 11
0.25
 21
-0.22
 31
0.0
  0
LINE
  5
DA
100
AcDbEntity
  8
ASHADE
  6
Continuous
 62
           7
100
AcDbLine
 10
0.25
 20
-0.18
 30
0.0
 11
0.29
 21
-0.18
 31
0.0
  0
LINE
  5
DB
100
AcDbEntity
  8
ASHADE
  6
Continuous
 62
           7
100
AcDbLine
 10
0.29
 20
0.18
 30
0.0
 11
0.25
 21
0.18
 31
0.0
  0
LINE
  5
DC
100
AcDbEntity
  8
ASHADE
  6
Continuous
 62
           7
100
AcDbLine
 10
0.25
 20
0.22
 30
0.0
 11
0.29
 21
0.22
 31
0.0
  0
LINE
  5
DD
100
AcDbEntity
  8
ASHADE
  6
Continuous
 62
           7
100
AcDbLine
 10
-0.29
 20
0.18
 30
0.0
 11
-0.25
 21
0.18
 31
0.0
  0
LINE
  5
DE
100
AcDbEntity
  8
ASHADE
  6
Continuous
 62
           7
100
AcDbLine
 10
-0.25
 20
0.22
 30
0.0
 11
-0.29
 21
0.22
 31
0.0
  0
ATTDEF
  5
DF
100
AcDbEntity
  8
ASHADE
  6
Continuous
 62
           7
100
AcDbText
 10
0.0
 20
-0.33
 30
0.0
 40
0.01
  1
0,0,0
100
AcDbAttributeDefinition
  3
Look-from XYZ
  2
LFXYZ
 70
           1
  0
ENDBLK
  5
E0
100
AcDbEntity
  8
0
100
AcDbBlockEnd
  0
BLOCK
  5
143
100
AcDbEntity
  8
0
100
AcDbBlockBegin
  2
*D3
 70
           1
 10
0.0
 20
0.0
 30
0.0
  3
*D3
  1

  0
LINE
  5
144
100
AcDbEntity
  8
0
370
           0
  6
Continuous
 62
           7
100
AcDbLine
 10
-0.4921
 20
-0.8068
 30
0.0
 11
-0.4921
 21
-0.029836522559
 31
0.0
1001
TCAD
1000
TCW_ATTRIBUTE
1002
{
1000
<0.9842>
1002
}
  0
LINE
  5
145
100
AcDbEntity
  8
0
370
           0
  6
Continuous
 62
           7
100
AcDbLine
 10
0.4921
 20
-0.8068
 30
0.0
 11
0.4921
 21
-0.029836522559
 31
0.0
1001
TCAD
1000
TCW_ATTRIBUTE
1002
{
1000
<0.9842>
1002
}
  0
LWPOLYLINE
  5
146
100
AcDbEntity
  8
0
370
           0
  6
Continuous
 62
           7
100
AcDbPolyline
 90
        4
 70
           0
 10
-0.3921
 20
-0.154836522559
 10
-0.3921
 20
-0.154836522559
 10
-0.3921
 20
-0.154836522559
 10
0.0
 20
-0.154836522559
1001
TCAD
1000
TCW_ATTRIBUTE
1002
{
1000
<0.9842>
1002
}
  0
LWPOLYLINE
  5
147
100
AcDbEntity
  8
0
370
           0
  6
Continuous
 62
           7
100
AcDbPolyline
 90
        4
 70
           0
 10
0.3921
 20
-0.154836522559
 10
0.3921
 20
-0.154836522559
 10
0.3921
 20
-0.154836522559
 10
0.0
 20
-0.154836522559
1001
TCAD
1000
TCW_ATTRIBUTE
1002
{
1000
<0.9842>
1002
}
  0
LWPOLYLINE
  5
14A
100
AcDbEntity
  8
0
370
           0
  6
Continuous
 62
           7
100
AcDbPolyline
 90
        4
 70
           0
 10
-0.4921
 20
-0.154836522559
 40
0.0
 41
0.0
 10
-0.3921
 20
-0.167836522559
 40
0.0
 41
0.0
 10
-0.3921
 20
-0.141836522559
 40
0.0
 41
0.0
 10
-0.4921
 20
-0.154836522559
 40
0.0
 41
0.0
1001
TCAD
1000
TCW_ATTRIBUTE
1002
{
1000
<0.9842>
1002
}
  0
HATCH
  5
148
100
AcDbEntity
  8
0
  6
Continuous
 62
           7
100
AcDbHatch
 10
0.0
 20
0.0
 30
0.0
210
0.0
220
0.0
230
1.0
  2
SOLID
 70
           1
 71
           1
 91
        1
 92
        3
 72
           0
 73
           1
 93
        3
 10
-0.4920999999999999
 20
-0.1548365225586055
 10
-0.3920999999999999
 20
-0.1678365225586055
 10
-0.3920999999999999
 20
-0.1418365225586055
 97
        1
330
149
 75
           0
 76
           0
 98
        0
1001
TCAD
1000
TCW_ATTRIBUTE
1002
{
1000
<0.9842>
1002
}
  0
LWPOLYLINE
  5
14D
100
AcDbEntity
  8
0
370
           0
  6
Continuous
 62
           7
100
AcDbPolyline
 90
        4
 70
           0
 10
0.4921
 20
-0.154836522559
 40
0.0
 41
0.0
 10
0.3921
 20
-0.141836522559
 40
0.0
 41
0.0
 10
0.3921
 20
-0.167836522559
 40
0.0
 41
0.0
 10
0.4921
 20
-0.154836522559
 40
0.0
 41
0.0
1001
TCAD
1000
TCW_ATTRIBUTE
1002
{
1000
<0.9842>
1002
}
  0
HATCH
  5
14B
100
AcDbEntity
  8
0
  6
Continuous
 62
           7
100
AcDbHatch
 10
0.0
 20
0.0
 30
0.0
210
0.0
220
0.0
230
1.0
  2
SOLID
 70
           1
 71
           1
 91
        1
 92
        3
 72
           0
 73
           1
 93
        3
 10
0.4920999999999999
 20
-0.1548365225586054
 10
0.3920999999999999
 20
-0.1418365225586054
 10
0.3920999999999999
 20
-0.1678365225586054
 97
        1
330
14C
 75
           0
 76
           0
 98
        0
1001
TCAD
1000
TCW_ATTRIBUTE
1002
{
1000
<0.9842>
1002
}
  0
MTEXT
  5
14E
100
AcDbEntity
  8
0
  6
Continuous
 62
           7
100
AcDbMText
 10
0.0
 20
-0.084836523453
 30
0.0
 40
0.047999998927
 41
0.0
 71
           5
 72
           1
  1
\A1;0.9842{}"
 73
           1
 44
1.0
1001
TCAD
1000
TCW_REFPOINT
1002
{
1010
0.0
1020
-0.084836523453
1030
0.0
1002
}
1000
TCW_ATTRIBUTE
1002
{
1000
<0.9842>
1002
}
  0
ENDBLK
  5
14F
100
AcDbEntity
  8
0
100
AcDbBlockEnd
  0
BLOCK
  5
153
100
AcDbEntity
  8
0
100
AcDbBlockBegin
  2
*D4
 70
           1
 10
0.0
 20
0.0
 30
0.0
  3
*D4
  1

  0
LINE
  5
154
100
AcDbEntity
  8
0
370
           0
  6
Continuous
 62
           7
100
AcDbLine
 10
-0.0625
 20
-0.0
 30
0.0
 11
-0.729592939923
 21
-0.0
 31
0.0
1001
TCAD
1000
TCW_ATTRIBUTE
1002
{
1000
<0.32>
1002
}
  0
LINE
  5
155
100
AcDbEntity
  8
0
370
           0
  6
Continuous
 62
           7
100
AcDbLine
 10
-0.0625
 20
0.32
 30
0.0
 11
-0.729592939923
 21
0.32
 31
0.0
1001
TCAD
1000
TCW_ATTRIBUTE
1002
{
1000
<0.32>
1002
}
  0
LWPOLYLINE
  5
156
100
AcDbEntity
  8
0
370
           0
  6
Continuous
 62
           7
100
AcDbPolyline
 90
        2
 70
           0
 10
-0.604592939923
 20
-0.2
 10
-0.604592939923
 20
-0.1
1001
TCAD
1000
TCW_ATTRIBUTE
1002
{
1000
<0.32>
1002
}
  0
LWPOLYLINE
  5
157
100
AcDbEntity
  8
0
370
           0
  6
Continuous
 62
           7
100
AcDbPolyline
 90
        2
 70
           0
 10
-0.604592939923
 20
-0.1
 40
0.0
 41
0.0
 10
-0.604592939923
 20
-0.1
 40
0.0
 41
0.0
1001
TCAD
1000
TCW_ATTRIBUTE
1002
{
1000
<0.32>
1002
}
  0
LWPOLYLINE
  5
158
100
AcDbEntity
  8
0
370
           0
  6
Continuous
 62
           7
100
AcDbPolyline
 90
        4
 70
           0
 10
-0.604592939923
 20
0.52
 10
-0.604592939923
 20
0.52
 10
-0.604592939923
 20
0.42
 10
-0.604592939923
 20
0.42
1001
TCAD
1000
TCW_ATTRIBUTE
1002
{
1000
<0.32>
1002
}
  0
LWPOLYLINE
  5
15B
100
AcDbEntity
  8
0
370
           0
  6
Continuous
 62
           7
100
AcDbPolyline
 90
        4
 70
           0
 10
-0.604592939923
 20
0.32
 40
0.0
 41
0.0
 10
-0.591592939923
 20
0.42
 40
0.0
 41
0.0
 10
-0.617592939923
 20
0.42
 40
0.0
 41
0.0
 10
-0.604592939923
 20
0.32
 40
0.0
 41
0.0
1001
TCAD
1000
TCW_ATTRIBUTE
1002
{
1000
<0.32>
1002
}
  0
HATCH
  5
159
100
AcDbEntity
  8
0
  6
Continuous
 62
           7
100
AcDbHatch
 10
0.0
 20
0.0
 30
0.0
210
0.0
220
0.0
230
1.0
  2
SOLID
 70
           1
 71
           1
 91
        1
 92
        3
 72
           0
 73
           1
 93
        3
 10
-0.604592939923419
 20
0.3200000000000003
 10
-0.591592939923419
 20
0.4200000000000003
 10
-0.617592939923419
 20
0.4200000000000003
 97
        1
330
15A
 75
           0
 76
           0
 98
        0
1001
TCAD
1000
TCW_ATTRIBUTE
1002
{
1000
<0.32>
1002
}
  0
LWPOLYLINE
  5
15E
100
AcDbEntity
  8
0
370
           0
  6
Continuous
 62
           7
100
AcDbPolyline
 90
        4
 70
           0
 10
-0.604592939923
 20
-0.0
 40
0.0
 41
0.0
 10
-0.617592939923
 20
-0.1
 40
0.0
 41
0.0
 10
-0.591592939923
 20
-0.1
 40
0.0
 41
0.0
 10
-0.604592939923
 20
-0.0
 40
0.0
 41
0.0
1001
TCAD
1000
TCW_ATTRIBUTE
1002
{
1000
<0.32>
1002
}
  0
HATCH
  5
15C
100
AcDbEntity
  8
0
  6
Continuous
 62
           7
100
AcDbHatch
 10
0.0
 20
0.0
 30
0.0
210
0.0
220
0.0
230
1.0
  2
SOLID
 70
           1
 71
           1
 91
        1
 92
        3
 72
           0
 73
           1
 93
        3
 10
-0.604592939923419
 20
-0.0000000000000038
 10
-0.617592939923419
 20
-0.1000000000000038
 10
-0.591592939923419
 20
-0.1000000000000038
 97
        1
330
15D
 75
           0
 76
           0
 98
        0
1001
TCAD
1000
TCW_ATTRIBUTE
1002
{
1000
<0.32>
1002
}
  0
MTEXT
  5
15F
100
AcDbEntity
  8
0
  6
Continuous
 62
           7
100
AcDbMText
 10
-0.604592939923
 20
0.16
 30
0.0
 40
0.047999998927
 41
0.0
 71
           5
 72
           1
  1
\A1;0.32{}"
 73
           1
 44
1.0
1001
TCAD
1000
TCW_REFPOINT
1002
{
1010
-0.604592939923
1020
0.16
1030
0.0
1002
}
1000
TCW_ATTRIBUTE
1002
{
1000
<0.32>
1002
}
  0
ENDBLK
  5
160
100
AcDbEntity
  8
0
100
AcDbBlockEnd
  0
BLOCK
  5
163
100
AcDbEntity
  8
0
100
AcDbBlockBegin
  2
*D5
 70
           1
 10
0.0
 20
0.0
 30
0.0
  3
*D5
  1

  0
MTEXT
  5
164
100
AcDbEntity
  8
0
  6
Continuous
 62
           7
100
AcDbMText
 10
0.641943928254
 20
0.458143346026
 30
0.0
 40
0.047999998927
 41
0.0
 71
           5
 72
           1
  1
\A1;R0.0984{}"
 73
           1
 44
1.0
1001
TCAD
1000
TCW_REFPOINT
1002
{
1010
0.641943928254
1020
0.458143346026
1030
0.0
1002
}
1000
TCW_ATTRIBUTE
1002
{
1000
<R0.0984>
1002
}
  0
LWPOLYLINE
  5
165
100
AcDbEntity
  8
0
370
           0
  6
Continuous
 62
           7
100
AcDbPolyline
 90
        3
 70
           0
 10
0.15376601649
 20
0.125373729995
 40
0.0
 41
0.0
 10
0.46377814651
 20
0.37814334692
 40
0.0
 41
0.0
 10
0.780109709998
 20
0.37814334692
 40
0.0
 41
0.0
1001
TCAD
1000
TCW_ATTRIBUTE
1002
{
1000
<R0.0984>
1002
}
  0
LWPOLYLINE
  5
168
100
AcDbEntity
  8
0
370
           0
  6
Continuous
 62
           7
100
AcDbPolyline
 90
        4
 70
           0
 10
0.076262983985
 20
0.062181325764
 40
0.0
 41
0.0
 10
0.16198102904
 20
0.115298335769
 40
0.0
 41
0.0
 10
0.14555100394
 20
0.135449124221
 40
0.0
 41
0.0
 10
0.076262983985
 20
0.062181325764
 40
0.0
 41
0.0
1001
TCAD
1000
TCW_ATTRIBUTE
1002
{
1000
<R0.0984>
1002
}
  0
HATCH
  5
166
100
AcDbEntity
  8
0
  6
Continuous
 62
           7
100
AcDbHatch
 10
0.0
 20
0.0
 30
0.0
210
0.0
220
0.0
230
1.0
  2
SOLID
 70
           1
 71
           1
 91
        1
 92
        3
 72
           0
 73
           1
 93
        3
 10
0.0762629839849123
 20
0.0621813257635843
 10
0.1619810290399716
 20
0.1152983357692202
 10
0.1455510039398375
 20
0.1354491242205181
 97
        1
330
167
 75
           0
 76
           0
 98
        0
1001
TCAD
1000
TCW_ATTRIBUTE
1002
{
1000
<R0.0984>
1002
}
  0
LWPOLYLINE
  5
169
100
AcDbEntity
  8
0
370
           0
  6
Continuous
 62
           7
100
AcDbPolyline
 90
        2
 70
           0
 10
-0.05
 20
0.0
 10
0.05
 20
0.0
1001
TCAD
1000
TCW_ATTRIBUTE
1002
{
1000
<R0.0984>
1002
}
  0
LWPOLYLINE
  5
16A
100
AcDbEntity
  8
0
370
           0
  6
Continuous
 62
           7
100
AcDbPolyline
 90
        2
 70
           0
 10
0.0
 20
-0.05
 40
0.0
 41
0.0
 10
0.0
 20
0.05
 40
0.0
 41
0.0
1001
TCAD
1000
TCW_ATTRIBUTE
1002
{
1000
<R0.0984>
1002
}
  0
ENDBLK
  5
16B
100
AcDbEntity
  8
0
100
AcDbBlockEnd
  0
BLOCK
  5
16E
100
AcDbEntity
  8
0
100
AcDbBlockBegin
  2
*D6
 70
           1
 10
0.0
 20
0.0
 30
0.0
  3
*D6
  1

  0
MTEXT
  5
16F
100
AcDbEntity
  8
0
  6
Continuous
 62
           7
100
AcDbMText
 10
1.151585918236
 20
1.242061552518
 30
0.0
 40
0.047999998927
 41
0.0
 71
           5
 72
           1
  1
\A1;R0.9842{}"
 73
           1
 44
1.0
1001
TCAD
1000
TCW_REFPOINT
1002
{
1010
1.151585918236
1020
1.242061552518
1030
0.0
1002
}
1000
TCW_ATTRIBUTE
1002
{
1000
<R0.9842>
1002
}
  0
LWPOLYLINE
  5
170
100
AcDbEntity
  8
0
370
           0
  6
Continuous
 62
           7
100
AcDbPolyline
 90
        3
 70
           0
 10
0.694641970075
 20
0.832443495626
 40
0.0
 41
0.0
 10
0.950920136492
 20
1.139561553412
 40
0.0
 41
0.0
 10
1.289751699981
 20
1.139561553412
 40
0.0
 41
0.0
1001
TCAD
1000
TCW_ATTRIBUTE
1002
{
1000
<R0.9842>
1002
}
  0
LWPOLYLINE
  5
173
100
AcDbEntity
  8
0
370
           0
  6
Continuous
 62
           7
100
AcDbPolyline
 90
        4
 70
           0
 10
0.63057242847
 20
0.75566398118
 40
0.0
 41
0.0
 10
0.704623306953
 20
0.824114455218
 40
0.0
 41
0.0
 10
0.684660633197
 20
0.840772536035
 40
0.0
 41
0.0
 10
0.63057242847
 20
0.75566398118
 40
0.0
 41
0.0
1001
TCAD
1000
TCW_ATTRIBUTE
1002
{
1000
<R0.9842>
1002
}
  0
HATCH
  5
171
100
AcDbEntity
  8
0
  6
Continuous
 62
           7
100
AcDbHatch
 10
0.0
 20
0.0
 30
0.0
210
0.0
220
0.0
230
1.0
  2
SOLID
 70
           1
 71
           1
 91
        1
 92
        3
 72
           0
 73
           1
 93
        3
 10
0.6305724284702405
 20
0.755663981180223
 10
0.7046233069526291
 20
0.8241144552179279
 10
0.6846606331965981
 20
0.840772536035065
 97
        1
330
172
 75
           0
 76
           0
 98
        0
1001
TCAD
1000
TCW_ATTRIBUTE
1002
{
1000
<R0.9842>
1002
}
  0
LWPOLYLINE
  5
174
100
AcDbEntity
  8
0
370
           0
  6
Continuous
 62
           7
100
AcDbPolyline
 90
        2
 70
           0
 10
-0.05
 20
0.0
 10
0.05
 20
0.0
1001
TCAD
1000
TCW_ATTRIBUTE
1002
{
1000
<R0.9842>
1002
}
  0
LWPOLYLINE
  5
175
100
AcDbEntity
  8
0
370
           0
  6
Continuous
 62
           7
100
AcDbPolyline
 90
        2
 70
           0
 10
0.0
 20
-0.05
 40
0.0
 41
0.0
 10
0.0
 20
0.05
 40
0.0
 41
0.0
1001
TCAD
1000
TCW_ATTRIBUTE
1002
{
1000
<R0.9842>
1002
}
  0
ENDBLK
  5
176
100
AcDbEntity
  8
0
100
AcDbBlockEnd
  0
BLOCK
  5
179
100
AcDbEntity
  8
0
100
AcDbBlockBegin
  2
*D7
 70
           1
 10
0.0
 20
0.0
 30
0.0
  3
*D7
  1

  0
LINE
  5
17A
100
AcDbEntity
  8
0
370
           0
  6
Continuous
 62
           7
100
AcDbLine
 10
-0.52335
 20
0.906468790141
 30
0.0
 11
-0.611232970004
 21
1.058686559308
 31
0.0
1001
TCAD
1000
TCW_ATTRIBUTE
1002
{
1000
<60°>
1002
}
  0
LINE
  5
17B
100
AcDbEntity
  8
0
370
           0
  6
Continuous
 62
           7
100
AcDbLine
 10
0.52335
 20
0.906468790141
 30
0.0
 11
0.611232970004
 21
1.058686559308
 31
0.0
1001
TCAD
1000
TCW_ATTRIBUTE
1002
{
1000
<60°>
1002
}
  0
ARC
  5
17C
100
AcDbEntity
  8
0
370
           0
  6
Continuous
 62
           7
100
AcDbCircle
 10
0.0
 20
0.0
 30
0.0
 40
1.097465940008
100
AcDbArc
 50
92.640766356701
 51
114.777458039411
1001
TCAD
1000
TCW_ATTRIBUTE
1002
{
1000
<60°>
1002
}
  0
ARC
  5
17D
100
AcDbEntity
  8
0
370
           0
  6
Continuous
 62
           7
100
AcDbCircle
 10
0.0
 20
0.0
 30
0.0
 40
1.097465940008
100
AcDbArc
 50
65.222541960589
 51
87.359233643299
1001
TCAD
1000
TCW_ATTRIBUTE
1002
{
1000
<60°>
1002
}
  0
LWPOLYLINE
  5
180
100
AcDbEntity
  8
0
370
           0
  6
Continuous
 62
           7
100
AcDbPolyline
 90
        4
 70
           0
 10
0.548732970004
 20
0.950433383835
 40
0.0
 41
0.0
 10
0.465922707028
 20
1.007978673354
 40
0.0
 41
0.0
 10
0.453962053683
 20
0.984893120045
 40
0.0
 41
0.0
 10
0.548732970004
 20
0.950433383835
 40
0.0
 41
0.0
1001
TCAD
1000
TCW_ATTRIBUTE
1002
{
1000
<60°>
1002
}
  0
HATCH
  5
17E
100
AcDbEntity
  8
0
  6
Continuous
 62
           7
100
AcDbHatch
 10
0.0
 20
0.0
 30
0.0
210
0.0
220
0.0
230
1.0
  2
SOLID
 70
           1
 71
           1
 91
        1
 92
        3
 72
           0
 73
           1
 93
        3
 10
0.5487329700040639
 20
0.950433383835207
 10
0.4659227070275955
 20
1.0079786733537086
 10
0.4539620536829149
 20
0.9848931200450184
 97
        1
330
17F
 75
           0
 76
           0
 98
        0
1001
TCAD
1000
TCW_ATTRIBUTE
1002
{
1000
<60°>
1002
}
  0
LWPOLYLINE
  5
183
100
AcDbEntity
  8
0
370
           0
  6
Continuous
 62
           7
100
AcDbPolyline
 90
        4
 70
           0
 10
-0.548732970004
 20
0.950433383835
 40
0.0
 41
0.0
 10
-0.453962053683
 20
0.984893120045
 40
0.0
 41
0.0
 10
-0.465922707028
 20
1.007978673354
 40
0.0
 41
0.0
 10
-0.548732970004
 20
0.950433383835
 40
0.0
 41
0.0
1001
TCAD
1000
TCW_ATTRIBUTE
1002
{
1000
<60°>
1002
}
  0
HATCH
  5
181
100
AcDbEntity
  8
0
  6
Continuous
 62
           7
100
AcDbHatch
 10
0.0
 20
0.0
 30
0.0
210
0.0
220
0.0
230
1.0
  2
SOLID
 70
           1
 71
           1
 91
        1
 92
        3
 72
           0
 73
           1
 93
        3
 10
-0.548732970004064
 20
0.950433383835207
 10
-0.453962053682915
 20
0.9848931200450184
 10
-0.4659227070275956
 20
1.0079786733537086
 97
        1
330
182
 75
           0
 76
           0
 98
        0
1001
TCAD
1000
TCW_ATTRIBUTE
1002
{
1000
<60°>
1002
}
  0
MTEXT
  5
184
100
AcDbEntity
  8
0
  6
Continuous
 62
           7
100
AcDbMText
 10
0.0
 20
1.097465940008
 30
0.0
 40
0.047999998927
 41
0.0
 71
           5
 72
           1
  1
\A1;60%%d{}
 73
           1
 44
1.0
1001
TCAD
1000
TCW_REFPOINT
1002
{
1010
0.0
1020
1.097465940008
1030
0.0
1002
}
1000
TCW_ATTRIBUTE
1002
{
1000
<60°>
1002
}
  0
ENDBLK
  5
185
100
AcDbEntity
  8
0
100
AcDbBlockEnd
  0
BLOCK
  5
188
100
AcDbEntity
  8
0
100
AcDbBlockBegin
  2
*D8
 70
           1
 10
0.0
 20
0.0
 30
0.0
  3
*D8
  1

  0
LINE
  5
189
100
AcDbEntity
  8
0
370
           0
  6
Continuous
 62
           7
100
AcDbLine
 10
-0.270556796302
 20
1.009731710133
 30
0.0
 11
-0.365231509464
 21
1.363062549844
 31
0.0
1001
TCAD
1000
TCW_ATTRIBUTE
1002
{
1000
<15°>
1002
}
  0
LINE
  5
18A
100
AcDbEntity
  8
0
370
           0
  6
Continuous
 62
           7
100
AcDbLine
 10
-0.52335
 20
0.906468790141
 30
0.0
 11
-0.705573095131
 21
1.222088449221
 31
0.0
1001
TCAD
1000
TCW_ATTRIBUTE
1002
{
1000
<15°>
1002
}
  0
ARC
  5
18B
100
AcDbEntity
  8
0
370
           0
  6
Continuous
 62
           7
100
AcDbCircle
 10
0.0
 20
0.0
 30
0.0
 40
1.286146190262
100
AcDbArc
 50
112.5
 51
115.544035202945
1001
TCAD
1000
TCW_ATTRIBUTE
1002
{
1000
<15°>
1002
}
  0
ARC
  5
18C
100
AcDbEntity
  8
0
370
           0
  6
Continuous
 62
           7
100
AcDbCircle
 10
0.0
 20
0.0
 30
0.0
 40
1.286146190262
100
AcDbArc
 50
109.455964797055
 51
112.5
1001
TCAD
1000
TCW_ATTRIBUTE
1002
{
1000
<15°>
1002
}
  0
LWPOLYLINE
  5
18F
100
AcDbEntity
  8
0
370
           0
  6
Continuous
 62
           7
100
AcDbPolyline
 90
        4
 70
           0
 10
-0.332879128826
 20
1.242321821558
 40
0.0
 41
0.0
 10
-0.432242780968
 20
1.225121105495
 40
0.0
 41
0.0
 10
-0.42454224245
 20
1.200287625946
 40
0.0
 41
0.0
 10
-0.332879128826
 20
1.242321821558
 40
0.0
 41
0.0
1001
TCAD
1000
TCW_ATTRIBUTE
1002
{
1000
<15°>
1002
}
  0
HATCH
  5
18D
100
AcDbEntity
  8
0
  6
Continuous
 62
           7
100
AcDbHatch
 10
0.0
 20
0.0
 30
0.0
210
0.0
220
0.0
230
1.0
  2
SOLID
 70
           1
 71
           1
 91
        1
 92
        3
 72
           0
 73
           1
 93
        3
 10
-0.3328791288259087
 20
1.2423218215575522
 10
-0.4322427809676645
 20
1.2251211054953604
 10
-0.424542242450051
 20
1.2002876259457935
 97
        1
330
18E
 75
           0
 76
           0
 98
        0
1001
TCAD
1000
TCW_ATTRIBUTE
1002
{
1000
<15°>
1002
}
  0
LWPOLYLINE
  5
192
100
AcDbEntity
  8
0
370
           0
  6
Continuous
 62
           7
100
AcDbPolyline
 90
        4
 70
           0
 10
-0.643073095131
 20
1.113835273748
 40
0.0
 41
0.0
 10
-0.548534821144
 20
1.148928218217
 40
0.0
 41
0.0
 10
-0.560649639929
 20
1.171933243012
 40
0.0
 41
0.0
 10
-0.643073095131
 20
1.113835273748
 40
0.0
 41
0.0
1001
TCAD
1000
TCW_ATTRIBUTE
1002
{
1000
<15°>
1002
}
  0
HATCH
  5
190
100
AcDbEntity
  8
0
  6
Continuous
 62
           7
100
AcDbHatch
 10
0.0
 20
0.0
 30
0.0
210
0.0
220
0.0
230
1.0
  2
SOLID
 70
           1
 71
           1
 91
        1
 92
        3
 72
           0
 73
           1
 93
        3
 10
-0.6430730951310968
 20
1.1138352737476409
 10
-0.5485348211439963
 20
1.1489282182171481
 10
-0.5606496399293596
 20
1.1719332430116971
 97
        1
330
191
 75
           0
 76
           0
 98
        0
1001
TCAD
1000
TCW_ATTRIBUTE
1002
{
1000
<15°>
1002
}
  0
MTEXT
  5
193
100
AcDbEntity
  8
0
  6
Continuous
 62
           7
100
AcDbMText
 10
-0.513617110825
 20
1.239981394821
 30
0.0
 40
0.047999998927
 41
0.0
 71
           5
 72
           1
  1
\A1;15%%d{}
 73
           1
 44
1.0
1001
TCAD
1000
TCW_REFPOINT
1002
{
1010
-0.513617110825
1020
1.239981394821
1030
0.0
1002
}
1000
TCW_ATTRIBUTE
1002
{
1000
<15°>
1002
}
  0
ENDBLK
  5
194
100
AcDbEntity
  8
0
100
AcDbBlockEnd
  0
BLOCK
  5
19A
100
AcDbEntity
  8
0
100
AcDbBlockBegin
  2
*D9
 70
           1
 10
0.0
 20
0.0
 30
0.0
  3
*D9
  1

  0
LINE
  5
19B
100
AcDbEntity
  8
0
370
           0
  6
Continuous
 62
           7
100
AcDbLine
 10
1.0
 20
0.0375
 30
0.0
 11
1.0
 21
-0.204022710323
 31
0.0
1001
TCAD
1000
TCW_ATTRIBUTE
1002
{
1000
<0.6693>
1002
}
  0
LINE
  5
19C
100
AcDbEntity
  8
0
370
           0
  6
Continuous
 62
           7
100
AcDbLine
 10
1.6693
 20
0.0375
 30
0.0
 11
1.6693
 21
-0.204022710323
 31
0.0
1001
TCAD
1000
TCW_ATTRIBUTE
1002
{
1000
<0.6693>
1002
}
  0
LWPOLYLINE
  5
19D
100
AcDbEntity
  8
0
370
           0
  6
Continuous
 62
           7
100
AcDbPolyline
 90
        4
 70
           0
 10
1.1
 20
-0.079022710323
 10
1.1
 20
-0.079022710323
 10
1.1
 20
-0.079022710323
 10
1.33465
 20
-0.079022710323
1001
TCAD
1000
TCW_ATTRIBUTE
1002
{
1000
<0.6693>
1002
}
  0
LWPOLYLINE
  5
19E
100
AcDbEntity
  8
0
370
           0
  6
Continuous
 62
           7
100
AcDbPolyline
 90
        4
 70
           0
 10
1.5693
 20
-0.079022710323
 10
1.5693
 20
-0.079022710323
 10
1.5693
 20
-0.079022710323
 10
1.33465
 20
-0.079022710323
1001
TCAD
1000
TCW_ATTRIBUTE
1002
{
1000
<0.6693>
1002
}
  0
LWPOLYLINE
  5
1A1
100
AcDbEntity
  8
0
370
           0
  6
Continuous
 62
           7
100
AcDbPolyline
 90
        4
 70
           0
 10
1.0
 20
-0.079022710323
 40
0.0
 41
0.0
 10
1.1
 20
-0.092022710323
 40
0.0
 41
0.0
 10
1.1
 20
-0.066022710323
 40
0.0
 41
0.0
 10
1.0
 20
-0.079022710323
 40
0.0
 41
0.0
1001
TCAD
1000
TCW_ATTRIBUTE
1002
{
1000
<0.6693>
1002
}
  0
HATCH
  5
19F
100
AcDbEntity
  8
0
  6
Continuous
 62
           7
100
AcDbHatch
 10
0.0
 20
0.0
 30
0.0
210
0.0
220
0.0
230
1.0
  2
SOLID
 70
           1
 71
           1
 91
        1
 92
        3
 72
           0
 73
           1
 93
        3
 10
0.9999999999999997
 20
-0.0790227103226846
 10
1.0999999999999996
 20
-0.0920227103226846
 10
1.0999999999999996
 20
-0.0660227103226846
 97
        1
330
1A0
 75
           0
 76
           0
 98
        0
1001
TCAD
1000
TCW_ATTRIBUTE
1002
{
1000
<0.6693>
1002
}
  0
LWPOLYLINE
  5
1A4
100
AcDbEntity
  8
0
370
           0
  6
Continuous
 62
           7
100
AcDbPolyline
 90
        4
 70
           0
 10
1.6693
 20
-0.079022710323
 40
0.0
 41
0.0
 10
1.5693
 20
-0.066022710323
 40
0.0
 41
0.0
 10
1.5693
 20
-0.092022710323
 40
0.0
 41
0.0
 10
1.6693
 20
-0.079022710323
 40
0.0
 41
0.0
1001
TCAD
1000
TCW_ATTRIBUTE
1002
{
1000
<0.6693>
1002
}
  0
HATCH
  5
1A2
100
AcDbEntity
  8
0
  6
Continuous
 62
           7
100
AcDbHatch
 10
0.0
 20
0.0
 30
0.0
210
0.0
220
0.0
230
1.0
  2
SOLID
 70
           1
 71
           1
 91
        1
 92
        3
 72
           0
 73
           1
 93
        3
 10
1.6693000000000002
 20
-0.0790227103226846
 10
1.5693000000000001
 20
-0.0660227103226846
 10
1.5693000000000001
 20
-0.0920227103226846
 97
        1
330
1A3
 75
           0
 76
           0
 98
        0
1001
TCAD
1000
TCW_ATTRIBUTE
1002
{
1000
<0.6693>
1002
}
  0
MTEXT
  5
1A5
100
AcDbEntity
  8
0
  6
Continuous
 62
           7
100
AcDbMText
 10
1.33465
 20
0.000977288783
 30
0.0
 40
0.047999998927
 41
0.0
 71
           5
 72
           1
  1
\A1;0.6693{}"
 73
           1
 44
1.0
1001
TCAD
1000
TCW_REFPOINT
1002
{
1010
1.33465
1020
0.000977288783
1030
0.0
1002
}
1000
TCW_ATTRIBUTE
1002
{
1000
<0.6693>
1002
}
  0
ENDBLK
  5
1A6
100
AcDbEntity
  8
0
100
AcDbBlockEnd
  0
BLOCK
  5
1A9
100
AcDbEntity
  8
0
100
AcDbBlockBegin
  2
*D10
 70
           1
 10
0.0
 20
0.0
 30
0.0
  3
*D10
  1

  0
LINE
  5
1AA
100
AcDbEntity
  8
0
370
           0
  6
Continuous
 62
           7
100
AcDbLine
 10
1.0
 20
0.022716899732
 30
0.0
 11
1.0
 21
-0.50078207481
 31
0.0
1001
TCAD
1000
TCW_ATTRIBUTE
1002
{
1000
<0.9842>
1002
}
  0
LINE
  5
1AB
100
AcDbEntity
  8
0
370
           0
  6
Continuous
 62
           7
100
AcDbLine
 10
1.9842
 20
0.022716899732
 30
0.0
 11
1.9842
 21
-0.50078207481
 31
0.0
1001
TCAD
1000
TCW_ATTRIBUTE
1002
{
1000
<0.9842>
1002
}
  0
LWPOLYLINE
  5
1AC
100
AcDbEntity
  8
0
370
           0
  6
Continuous
 62
           7
100
AcDbPolyline
 90
        4
 70
           0
 10
1.1
 20
-0.37578207481
 10
1.1
 20
-0.37578207481
 10
1.1
 20
-0.37578207481
 10
1.4921
 20
-0.37578207481
1001
TCAD
1000
TCW_ATTRIBUTE
1002
{
1000
<0.9842>
1002
}
  0
LWPOLYLINE
  5
1AD
100
AcDbEntity
  8
0
370
           0
  6
Continuous
 62
           7
100
AcDbPolyline
 90
        4
 70
           0
 10
1.8842
 20
-0.37578207481
 10
1.8842
 20
-0.37578207481
 10
1.8842
 20
-0.37578207481
 10
1.4921
 20
-0.37578207481
1001
TCAD
1000
TCW_ATTRIBUTE
1002
{
1000
<0.9842>
1002
}
  0
LWPOLYLINE
  5
1B0
100
AcDbEntity
  8
0
370
           0
  6
Continuous
 62
           7
100
AcDbPolyline
 90
        4
 70
           0
 10
1.0
 20
-0.37578207481
 40
0.0
 41
0.0
 10
1.1
 20
-0.38878207481
 40
0.0
 41
0.0
 10
1.1
 20
-0.36278207481
 40
0.0
 41
0.0
 10
1.0
 20
-0.37578207481
 40
0.0
 41
0.0
1001
TCAD
1000
TCW_ATTRIBUTE
1002
{
1000
<0.9842>
1002
}
  0
HATCH
  5
1AE
100
AcDbEntity
  8
0
  6
Continuous
 62
           7
100
AcDbHatch
 10
0.0
 20
0.0
 30
0.0
210
0.0
220
0.0
230
1.0
  2
SOLID
 70
           1
 71
           1
 91
        1
 92
        3
 72
           0
 73
           1
 93
        3
 10
1.0
 20
-0.3757820748102178
 10
1.1000000000000001
 20
-0.3887820748102178
 10
1.1000000000000001
 20
-0.3627820748102178
 97
        1
330
1AF
 75
           0
 76
           0
 98
        0
1001
TCAD
1000
TCW_ATTRIBUTE
1002
{
1000
<0.9842>
1002
}
  0
LWPOLYLINE
  5
1B3
100
AcDbEntity
  8
0
370
           0
  6
Continuous
 62
           7
100
AcDbPolyline
 90
        4
 70
           0
 10
1.9842
 20
-0.37578207481
 40
0.0
 41
0.0
 10
1.8842
 20
-0.36278207481
 40
0.0
 41
0.0
 10
1.8842
 20
-0.38878207481
 40
0.0
 41
0.0
 10
1.9842
 20
-0.37578207481
 40
0.0
 41
0.0
1001
TCAD
1000
TCW_ATTRIBUTE
1002
{
1000
<0.9842>
1002
}
  0
HATCH
  5
1B1
100
AcDbEntity
  8
0
  6
Continuous
 62
           7
100
AcDbHatch
 10
0.0
 20
0.0
 30
0.0
210
0.0
220
0.0
230
1.0
  2
SOLID
 70
           1
 71
           1
 91
        1
 92
        3
 72
           0
 73
           1
 93
        3
 10
1.9842
 20
-0.3757820748102178
 10
1.8841999999999999
 20
-0.3627820748102178
 10
1.8841999999999999
 20
-0.3887820748102178
 97
        1
330
1B2
 75
           0
 76
           0
 98
        0
1001
TCAD
1000
TCW_ATTRIBUTE
1002
{
1000
<0.9842>
1002
}
  0
MTEXT
  5
1B4
100
AcDbEntity
  8
0
  6
Continuous
 62
           7
100
AcDbMText
 10
1.4921
 20
-0.295782075704
 30
0.0
 40
0.047999998927
 41
0.0
 71
           5
 72
           1
  1
\A1;0.9842{}"
 73
           1
 44
1.0
1001
TCAD
1000
TCW_REFPOINT
1002
{
1010
1.4921
1020
-0.295782075704
1030
0.0
1002
}
1000
TCW_ATTRIBUTE
1002
{
1000
<0.9842>
1002
}
  0
ENDBLK
  5
1B5
100
AcDbEntity
  8
0
100
AcDbBlockEnd
  0
BLOCK
  5
1B8
100
AcDbEntity
  8
0
100
AcDbBlockBegin
  2
*D11
 70
           1
 10
0.0
 20
0.0
 30
0.0
  3
*D11
  1

  0
LINE
  5
1B9
100
AcDbEntity
  8
0
370
           0
  6
Continuous
 62
           7
100
AcDbLine
 10
1.6693
 20
1.0467
 30
0.0
 11
1.6693
 21
1.468690003297
 31
0.0
1001
TCAD
1000
TCW_ATTRIBUTE
1002
{
1000
<0.3149>
1002
}
  0
LINE
  5
1BA
100
AcDbEntity
  8
0
370
           0
  6
Continuous
 62
           7
100
AcDbLine
 10
1.9842
 20
1.0467
 30
0.0
 11
1.9842
 21
1.468690003297
 31
0.0
1001
TCAD
1000
TCW_ATTRIBUTE
1002
{
1000
<0.3149>
1002
}
  0
LWPOLYLINE
  5
1BB
100
AcDbEntity
  8
0
370
           0
  6
Continuous
 62
           7
100
AcDbPolyline
 90
        2
 70
           0
 10
1.4693
 20
1.343690003297
 10
1.5693
 20
1.343690003297
1001
TCAD
1000
TCW_ATTRIBUTE
1002
{
1000
<0.3149>
1002
}
  0
LWPOLYLINE
  5
1BC
100
AcDbEntity
  8
0
370
           0
  6
Continuous
 62
           7
100
AcDbPolyline
 90
        2
 70
           0
 10
1.6693
 20
1.343690003297
 40
0.0
 41
0.0
 10
1.82675
 20
1.343690003297
 40
0.0
 41
0.0
1001
TCAD
1000
TCW_ATTRIBUTE
1002
{
1000
<0.3149>
1002
}
  0
LWPOLYLINE
  5
1BD
100
AcDbEntity
  8
0
370
           0
  6
Continuous
 62
           7
100
AcDbPolyline
 90
        2
 70
           0
 10
2.1842
 20
1.343690003297
 10
2.0842
 20
1.343690003297
1001
TCAD
1000
TCW_ATTRIBUTE
1002
{
1000
<0.3149>
1002
}
  0
LWPOLYLINE
  5
1BE
100
AcDbEntity
  8
0
370
           0
  6
Continuous
 62
           7
100
AcDbPolyline
 90
        2
 70
           0
 10
1.9842
 20
1.343690003297
 40
0.0
 41
0.0
 10
1.82675
 20
1.343690003297
 40
0.0
 41
0.0
1001
TCAD
1000
TCW_ATTRIBUTE
1002
{
1000
<0.3149>
1002
}
  0
LWPOLYLINE
  5
1C1
100
AcDbEntity
  8
0
370
           0
  6
Continuous
 62
           7
100
AcDbPolyline
 90
        4
 70
           0
 10
1.9842
 20
1.343690003297
 40
0.0
 41
0.0
 10
2.0842
 20
1.330690003297
 40
0.0
 41
0.0
 10
2.0842
 20
1.356690003297
 40
0.0
 41
0.0
 10
1.9842
 20
1.343690003297
 40
0.0
 41
0.0
1001
TCAD
1000
TCW_ATTRIBUTE
1002
{
1000
<0.3149>
1002
}
  0
HATCH
  5
1BF
100
AcDbEntity
  8
0
  6
Continuous
 62
           7
100
AcDbHatch
 10
0.0
 20
0.0
 30
0.0
210
0.0
220
0.0
230
1.0
  2
SOLID
 70
           1
 71
           1
 91
        1
 92
        3
 72
           0
 73
           1
 93
        3
 10
1.9842000000000002
 20
1.3436900032969561
 10
2.0842000000000001
 20
1.3306900032969562
 10
2.0842000000000001
 20
1.356690003296956
 97
        1
330
1C0
 75
           0
 76
           0
 98
        0
1001
TCAD
1000
TCW_ATTRIBUTE
1002
{
1000
<0.3149>
1002
}
  0
LWPOLYLINE
  5
1C4
100
AcDbEntity
  8
0
370
           0
  6
Continuous
 62
           7
100
AcDbPolyline
 90
        4
 70
           0
 10
1.6693
 20
1.343690003297
 40
0.0
 41
0.0
 10
1.5693
 20
1.356690003297
 40
0.0
 41
0.0
 10
1.5693
 20
1.330690003297
 40
0.0
 41
0.0
 10
1.6693
 20
1.343690003297
 40
0.0
 41
0.0
1001
TCAD
1000
TCW_ATTRIBUTE
1002
{
1000
<0.3149>
1002
}
  0
HATCH
  5
1C2
100
AcDbEntity
  8
0
  6
Continuous
 62
           7
100
AcDbHatch
 10
0.0
 20
0.0
 30
0.0
210
0.0
220
0.0
230
1.0
  2
SOLID
 70
           1
 71
           1
 91
        1
 92
        3
 72
           0
 73
           1
 93
        3
 10
1.6693000000000002
 20
1.3436900032969561
 10
1.5693000000000001
 20
1.356690003296956
 10
1.5693000000000001
 20
1.3306900032969562
 97
        1
330
1C3
 75
           0
 76
           0
 98
        0
1001
TCAD
1000
TCW_ATTRIBUTE
1002
{
1000
<0.3149>
1002
}
  0
MTEXT
  5
1C5
100
AcDbEntity
  8
0
  6
Continuous
 62
           7
100
AcDbMText
 10
1.82675
 20
1.423690002403
 30
0.0
 40
0.047999998927
 41
0.0
 71
           5
 72
           1
  1
\A1;0.3149{}"
 73
           1
 44
1.0
1001
TCAD
1000
TCW_REFPOINT
1002
{
1010
1.82675
1020
1.423690002403
1030
0.0
1002
}
1000
TCW_ATTRIBUTE
1002
{
1000
<0.3149>
1002
}
  0
ENDBLK
  5
1C6
100
AcDbEntity
  8
0
100
AcDbBlockEnd
  0
BLOCK
  5
1EF
100
AcDbEntity
  8
0
100
AcDbBlockBegin
  2
*D12
 70
           1
 10
0.0
 20
0.0
 30
0.0
  3
*D12
  1

  0
LWPOLYLINE
  5
1F0
100
AcDbEntity
  8
0
370
           0
  6
Continuous
 62
           7
100
AcDbPolyline
 90
        2
 70
           0
 10
-0.0492
 20
-1.296204639591
 40
0.0
 41
0.0
 10
-0.0492
 20
-1.451204639591
 40
0.0
 41
0.0
1001
TCAD
1000
TCW_ATTRIBUTE
1002
{
1000
<0.0984>
1002
}
  0
LWPOLYLINE
  5
1F1
100
AcDbEntity
  8
0
370
           0
  6
Continuous
 62
           7
100
AcDbPolyline
 90
        2
 70
           0
 10
0.0492
 20
-1.296204639591
 40
0.0
 41
0.0
 10
0.0492
 20
-1.451204639591
 40
0.0
 41
0.0
1001
TCAD
1000
TCW_ATTRIBUTE
1002
{
1000
<0.0984>
1002
}
  0
LWPOLYLINE
  5
1F2
100
AcDbEntity
  8
0
370
           0
  6
Continuous
 62
           7
100
AcDbPolyline
 90
        2
 70
           0
 10
-0.2492
 20
-1.326204639591
 10
-0.1492
 20
-1.326204639591
1001
TCAD
1000
TCW_ATTRIBUTE
1002
{
1000
<0.0984>
1002
}
  0
LWPOLYLINE
  5
1F3
100
AcDbEntity
  8
0
370
           0
  6
Continuous
 62
           7
100
AcDbPolyline
 90
        2
 70
           0
 10
-0.0492
 20
-1.326204639591
 40
0.0
 41
0.0
 10
-0.0
 20
-1.326204639591
 40
0.0
 41
0.0
1001
TCAD
1000
TCW_ATTRIBUTE
1002
{
1000
<0.0984>
1002
}
  0
LWPOLYLINE
  5
1F4
100
AcDbEntity
  8
0
370
           0
  6
Continuous
 62
           7
100
AcDbPolyline
 90
        2
 70
           0
 10
0.2492
 20
-1.326204639591
 10
0.1492
 20
-1.326204639591
1001
TCAD
1000
TCW_ATTRIBUTE
1002
{
1000
<0.0984>
1002
}
  0
LWPOLYLINE
  5
1F5
100
AcDbEntity
  8
0
370
           0
  6
Continuous
 62
           7
100
AcDbPolyline
 90
        2
 70
           0
 10
0.0492
 20
-1.326204639591
 40
0.0
 41
0.0
 10
-0.0
 20
-1.326204639591
 40
0.0
 41
0.0
1001
TCAD
1000
TCW_ATTRIBUTE
1002
{
1000
<0.0984>
1002
}
  0
LWPOLYLINE
  5
1F8
100
AcDbEntity
  8
0
370
           0
  6
Continuous
 62
           7
100
AcDbPolyline
 90
        4
 70
           0
 10
0.0492
 20
-1.326204639591
 40
0.0
 41
0.0
 10
0.1492
 20
-1.339204639591
 40
0.0
 41
0.0
 10
0.1492
 20
-1.313204639591
 40
0.0
 41
0.0
 10
0.0492
 20
-1.326204639591
 40
0.0
 41
0.0
1001
TCAD
1000
TCW_ATTRIBUTE
1002
{
1000
<0.0984>
1002
}
  0
HATCH
  5
1F6
100
AcDbEntity
  8
0
  6
Continuous
 62
           7
100
AcDbHatch
 10
0.0
 20
0.0
 30
0.0
210
0.0
220
0.0
230
1.0
  2
SOLID
 70
           1
 71
           1
 91
        1
 92
        3
 72
           0
 73
           1
 93
        3
 10
0.0491999999999999
 20
-1.3262046395914493
 10
0.1491999999999999
 20
-1.3392046395914492
 10
0.1491999999999999
 20
-1.3132046395914494
 97
        1
330
1F7
 75
           0
 76
           0
 98
        0
1001
TCAD
1000
TCW_ATTRIBUTE
1002
{
1000
<0.0984>
1002
}
  0
LWPOLYLINE
  5
1FB
100
AcDbEntity
  8
0
370
           0
  6
Continuous
 62
           7
100
AcDbPolyline
 90
        4
 70
           0
 10
-0.0492
 20
-1.326204639591
 40
0.0
 41
0.0
 10
-0.1492
 20
-1.313204639591
 40
0.0
 41
0.0
 10
-0.1492
 20
-1.339204639591
 40
0.0
 41
0.0
 10
-0.0492
 20
-1.326204639591
 40
0.0
 41
0.0
1001
TCAD
1000
TCW_ATTRIBUTE
1002
{
1000
<0.0984>
1002
}
  0
HATCH
  5
1F9
100
AcDbEntity
  8
0
  6
Continuous
 62
           7
100
AcDbHatch
 10
0.0
 20
0.0
 30
0.0
210
0.0
220
0.0
230
1.0
  2
SOLID
 70
           1
 71
           1
 91
        1
 92
        3
 72
           0
 73
           1
 93
        3
 10
-0.0492000000000002
 20
-1.3262046395914493
 10
-0.1492000000000002
 20
-1.3132046395914494
 10
-0.1492000000000002
 20
-1.3392046395914492
 97
        1
330
1FA
 75
           0
 76
           0
 98
        0
1001
TCAD
1000
TCW_ATTRIBUTE
1002
{
1000
<0.0984>
1002
}
  0
MTEXT
  5
1FC
100
AcDbEntity
  8
0
  6
Continuous
 62
           7
100
AcDbMText
 10
-0.0
 20
-1.254554638632
 30
0.0
 40
0.049980001152
 41
0.0
 71
           5
 72
           1
  1
\A1;0.0984{}"
 73
           1
 44
1.0
1001
TCAD
1000
TCW_REFPOINT
1002
{
1010
-0.0
1020
-1.254554638632
1030
0.0
1002
}
1000
TCW_ATTRIBUTE
1002
{
1000
<0.0984>
1002
}
  0
ENDBLK
  5
1FD
100
AcDbEntity
  8
0
100
AcDbBlockEnd
  0
BLOCK
  5
200
100
AcDbEntity
  8
0
100
AcDbBlockBegin
  2
*D13
 70
           1
 10
0.0
 20
0.0
 30
0.0
  3
*D13
  1

  0
LINE
  5
201
100
AcDbEntity
  8
0
370
           0
  6
Continuous
 62
           7
100
AcDbLine
 10
-0.207055236082
 20
-1.2467
 30
0.0
 11
-0.207055236082
 21
-1.711951730987
 31
0.0
1001
TCAD
1000
TCW_ATTRIBUTE
1002
{
1000
<0.4141>
1002
}
  0
LINE
  5
202
100
AcDbEntity
  8
0
370
           0
  6
Continuous
 62
           7
100
AcDbLine
 10
0.207055236082
 20
-1.2467
 30
0.0
 11
0.207055236082
 21
-1.711951730987
 31
0.0
1001
TCAD
1000
TCW_ATTRIBUTE
1002
{
1000
<0.4141>
1002
}
  0
LWPOLYLINE
  5
203
100
AcDbEntity
  8
0
370
           0
  6
Continuous
 62
           7
100
AcDbPolyline
 90
        2
 70
           0
 10
-0.407055236082
 20
-1.586951730987
 10
-0.307055236082
 20
-1.586951730987
1001
TCAD
1000
TCW_ATTRIBUTE
1002
{
1000
<0.4141>
1002
}
  0
LWPOLYLINE
  5
204
100
AcDbEntity
  8
0
370
           0
  6
Continuous
 62
           7
100
AcDbPolyline
 90
        2
 70
           0
 10
-0.207055236082
 20
-1.586951730987
 40
0.0
 41
0.0
 10
-0.0
 20
-1.586951730987
 40
0.0
 41
0.0
1001
TCAD
1000
TCW_ATTRIBUTE
1002
{
1000
<0.4141>
1002
}
  0
LWPOLYLINE
  5
205
100
AcDbEntity
  8
0
370
           0
  6
Continuous
 62
           7
100
AcDbPolyline
 90
        2
 70
           0
 10
0.407055236082
 20
-1.586951730987
 10
0.307055236082
 20
-1.586951730987
1001
TCAD
1000
TCW_ATTRIBUTE
1002
{
1000
<0.4141>
1002
}
  0
LWPOLYLINE
  5
206
100
AcDbEntity
  8
0
370
           0
  6
Continuous
 62
           7
100
AcDbPolyline
 90
        2
 70
           0
 10
0.207055236082
 20
-1.586951730987
 40
0.0
 41
0.0
 10
-0.0
 20
-1.586951730987
 40
0.0
 41
0.0
1001
TCAD
1000
TCW_ATTRIBUTE
1002
{
1000
<0.4141>
1002
}
  0
LWPOLYLINE
  5
209
100
AcDbEntity
  8
0
370
           0
  6
Continuous
 62
           7
100
AcDbPolyline
 90
        4
 70
           0
 10
0.207055236082
 20
-1.586951730987
 40
0.0
 41
0.0
 10
0.307055236082
 20
-1.599951730987
 40
0.0
 41
0.0
 10
0.307055236082
 20
-1.573951730987
 40
0.0
 41
0.0
 10
0.207055236082
 20
-1.586951730987
 40
0.0
 41
0.0
1001
TCAD
1000
TCW_ATTRIBUTE
1002
{
1000
<0.4141>
1002
}
  0
HATCH
  5
207
100
AcDbEntity
  8
0
  6
Continuous
 62
           7
100
AcDbHatch
 10
0.0
 20
0.0
 30
0.0
210
0.0
220
0.0
230
1.0
  2
SOLID
 70
           1
 71
           1
 91
        1
 92
        3
 72
           0
 73
           1
 93
        3
 10
0.2070552360820168
 20
-1.5869517309872192
 10
0.3070552360820168
 20
-1.5999517309872191
 10
0.3070552360820168
 20
-1.5739517309872193
 97
        1
330
208
 75
           0
 76
           0
 98
        0
1001
TCAD
1000
TCW_ATTRIBUTE
1002
{
1000
<0.4141>
1002
}
  0
LWPOLYLINE
  5
20C
100
AcDbEntity
  8
0
370
           0
  6
Continuous
 62
           7
100
AcDbPolyline
 90
        4
 70
           0
 10
-0.207055236082
 20
-1.586951730987
 40
0.0
 41
0.0
 10
-0.307055236082
 20
-1.573951730987
 40
0.0
 41
0.0
 10
-0.307055236082
 20
-1.599951730987
 40
0.0
 41
0.0
 10
-0.207055236082
 20
-1.586951730987
 40
0.0
 41
0.0
1001
TCAD
1000
TCW_ATTRIBUTE
1002
{
1000
<0.4141>
1002
}
  0
HATCH
  5
20A
100
AcDbEntity
  8
0
  6
Continuous
 62
           7
100
AcDbHatch
 10
0.0
 20
0.0
 30
0.0
210
0.0
220
0.0
230
1.0
  2
SOLID
 70
           1
 71
           1
 91
        1
 92
        3
 72
           0
 73
           1
 93
        3
 10
-0.2070552360820176
 20
-1.5869517309872192
 10
-0.3070552360820176
 20
-1.5739517309872193
 10
-0.3070552360820176
 20
-1.5999517309872191
 97
        1
330
20B
 75
           0
 76
           0
 98
        0
1001
TCAD
1000
TCW_ATTRIBUTE
1002
{
1000
<0.4141>
1002
}
  0
MTEXT
  5
20D
100
AcDbEntity
  8
0
  6
Continuous
 62
           7
100
AcDbMText
 10
-0.0
 20
-1.515301730028
 30
0.0
 40
0.049980001152
 41
0.0
 71
           5
 72
           1
  1
\A1;0.4141{}"
 73
           1
 44
1.0
1001
TCAD
1000
TCW_REFPOINT
1002
{
1010
-0.0
1020
-1.515301730028
1030
0.0
1002
}
1000
TCW_ATTRIBUTE
1002
{
1000
<0.4141>
1002
}
  0
ENDBLK
  5
20E
100
AcDbEntity
  8
0
100
AcDbBlockEnd
  0
BLOCK
  5
211
100
AcDbEntity
  8
0
100
AcDbBlockBegin
  2
*D14
 70
           1
 10
0.0
 20
0.0
 30
0.0
  3
*D14
  1

  0
MTEXT
  5
212
100
AcDbEntity
  8
0
  6
Continuous
 62
           7
100
AcDbMText
 10
0.964666273502
 20
1.543007283979
 30
0.0
 40
0.049980001152
 41
0.0
 71
           5
 72
           1
  1
\A1;two 4/40 threaded through holes \Pon a 1.6" diameter bolt circle {}
 73
           1
 44
1.0
1001
TCAD
1000
TCW_REFPOINT
1002
{
1010
0.964666273502
1020
1.543007283979
1030
0.0
1002
}
1000
TCW_ATTRIBUTE
1002
{
1000
two 4/40 threaded through holes ^M^Jon a 1.6" diameter bolt circle 
1002
}
  0
LWPOLYLINE
  5
213
100
AcDbEntity
  8
0
370
           0
  6
Continuous
 62
           7
100
AcDbPolyline
 90
        3
 70
           0
 10
0.258218347756
 20
0.917993323671
 40
0.0
 41
0.0
 10
0.43852073738
 20
1.429873882063
 40
0.0
 41
0.0
 10
1.460811809625
 20
1.429873882063
 40
0.0
 41
0.0
1001
TCAD
1000
TCW_ATTRIBUTE
1002
{
1000
two 4/40 threaded through holes ^M^Jon a 1.6" diameter bolt circle 
1002
}
  0
LWPOLYLINE
  5
216
100
AcDbEntity
  8
0
370
           0
  6
Continuous
 62
           7
100
AcDbPolyline
 90
        4
 70
           0
 10
0.224995547968
 20
0.823673412866
 40
0.0
 41
0.0
 10
0.270479936161
 20
0.913674359698
 40
0.0
 41
0.0
 10
0.245956759352
 20
0.922312287643
 40
0.0
 41
0.0
 10
0.224995547968
 20
0.823673412866
 40
0.0
 41
0.0
1001
TCAD
1000
TCW_ATTRIBUTE
1002
{
1000
two 4/40 threaded through holes ^M^Jon a 1.6" diameter bolt circle 
1002
}
  0
HATCH
  5
214
100
AcDbEntity
  8
0
  6
Continuous
 62
           7
100
AcDbHatch
 10
0.0
 20
0.0
 30
0.0
210
0.0
220
0.0
230
1.0
  2
SOLID
 70
           1
 71
           1
 91
        1
 92
        3
 72
           0
 73
           1
 93
        3
 10
0.2249955479678466
 20
0.8236734128657983
 10
0.2704799361610329
 20
0.913674359697993
 10
0.2459567593518084
 20
0.9223122876430223
 97
        1
330
215
 75
           0
 76
           0
 98
        0
1001
TCAD
1000
TCW_ATTRIBUTE
1002
{
1000
two 4/40 threaded through holes ^M^Jon a 1.6" diameter bolt circle 
1002
}
  0
LWPOLYLINE
  5
217
100
AcDbEntity
  8
0
370
           0
  6
Continuous
 62
           7
100
AcDbPolyline
 90
        2
 70
           0
 10
0.157055236082
 20
0.772740661031
 10
0.257055236082
 20
0.772740661031
1001
TCAD
1000
TCW_ATTRIBUTE
1002
{
1000
two 4/40 threaded through holes ^M^Jon a 1.6" diameter bolt circle 
1002
}
  0
LWPOLYLINE
  5
218
100
AcDbEntity
  8
0
370
           0
  6
Continuous
 62
           7
100
AcDbPolyline
 90
        2
 70
           0
 10
0.207055236082
 20
0.722740661031
 40
0.0
 41
0.0
 10
0.207055236082
 20
0.822740661031
 40
0.0
 41
0.0
1001
TCAD
1000
TCW_ATTRIBUTE
1002
{
1000
two 4/40 threaded through holes ^M^Jon a 1.6" diameter bolt circle 
1002
}
  0
ENDBLK
  5
219
100
AcDbEntity
  8
0
100
AcDbBlockEnd
  0
BLOCK
  5
222
100
AcDbEntity
  8
0
100
AcDbBlockBegin
  2
*D15
 70
           1
 10
0.0
 20
0.0
 30
0.0
  3
*D15
  1

  0
LINE
  5
223
100
AcDbEntity
  8
0
370
           0
  6
Continuous
 62
           7
100
AcDbLine
 10
-1.333235893588
 20
0.929000518032
 30
0.0
 11
-1.587608186861
 21
0.929000518032
 31
0.0
1001
TCAD
1000
TCW_ATTRIBUTE
1002
{
1000
0.02"
1002
}
  0
LINE
  5
224
100
AcDbEntity
  8
0
370
           0
  6
Continuous
 62
           7
100
AcDbLine
 10
-1.333235893588
 20
0.829000518032
 30
0.0
 11
-1.587608186861
 21
0.829000518032
 31
0.0
1001
TCAD
1000
TCW_ATTRIBUTE
1002
{
1000
0.02"
1002
}
  0
LWPOLYLINE
  5
225
100
AcDbEntity
  8
0
370
           0
  6
Continuous
 62
           7
100
AcDbPolyline
 90
        2
 70
           0
 10
-1.462608186861
 20
1.129000518032
 10
-1.462608186861
 20
1.029000518032
1001
TCAD
1000
TCW_ATTRIBUTE
1002
{
1000
0.02"
1002
}
  0
LWPOLYLINE
  5
226
100
AcDbEntity
  8
0
370
           0
  6
Continuous
 62
           7
100
AcDbPolyline
 90
        2
 70
           0
 10
-1.462608186861
 20
0.929000518032
 40
0.0
 41
0.0
 10
-1.462608186861
 20
0.909000518032
 40
0.0
 41
0.0
1001
TCAD
1000
TCW_ATTRIBUTE
1002
{
1000
0.02"
1002
}
  0
LWPOLYLINE
  5
227
100
AcDbEntity
  8
0
370
           0
  6
Continuous
 62
           7
100
AcDbPolyline
 90
        2
 70
           0
 10
-1.462608186861
 20
0.629000518032
 10
-1.462608186861
 20
0.729000518032
1001
TCAD
1000
TCW_ATTRIBUTE
1002
{
1000
0.02"
1002
}
  0
LWPOLYLINE
  5
228
100
AcDbEntity
  8
0
370
           0
  6
Continuous
 62
           7
100
AcDbPolyline
 90
        2
 70
           0
 10
-1.462608186861
 20
0.829000518032
 40
0.0
 41
0.0
 10
-1.462608186861
 20
0.849000518032
 40
0.0
 41
0.0
1001
TCAD
1000
TCW_ATTRIBUTE
1002
{
1000
0.02"
1002
}
  0
LWPOLYLINE
  5
22B
100
AcDbEntity
  8
0
370
           0
  6
Continuous
 62
           7
100
AcDbPolyline
 90
        4
 70
           0
 10
-1.462608186861
 20
0.829000518032
 40
0.0
 41
0.0
 10
-1.475608186861
 20
0.729000518032
 40
0.0
 41
0.0
 10
-1.449608186861
 20
0.729000518032
 40
0.0
 41
0.0
 10
-1.462608186861
 20
0.829000518032
 40
0.0
 41
0.0
1001
TCAD
1000
TCW_ATTRIBUTE
1002
{
1000
0.02"
1002
}
  0
HATCH
  5
229
100
AcDbEntity
  8
0
  6
Continuous
 62
           7
100
AcDbHatch
 10
0.0
 20
0.0
 30
0.0
210
0.0
220
0.0
230
1.0
  2
SOLID
 70
           1
 71
           1
 91
        1
 92
        3
 72
           0
 73
           1
 93
        3
 10
-1.4626081868609124
 20
0.8290005180316091
 10
-1.4756081868609121
 20
0.7290005180316092
 10
-1.4496081868609123
 20
0.7290005180316092
 97
        1
330
22A
 75
           0
 76
           0
 98
        0
1001
TCAD
1000
TCW_ATTRIBUTE
1002
{
1000
0.02"
1002
}
  0
LWPOLYLINE
  5
22E
100
AcDbEntity
  8
0
370
           0
  6
Continuous
 62
           7
100
AcDbPolyline
 90
        4
 70
           0
 10
-1.462608186861
 20
0.929000518032
 40
0.0
 41
0.0
 10
-1.449608186861
 20
1.029000518032
 40
0.0
 41
0.0
 10
-1.475608186861
 20
1.029000518032
 40
0.0
 41
0.0
 10
-1.462608186861
 20
0.929000518032
 40
0.0
 41
0.0
1001
TCAD
1000
TCW_ATTRIBUTE
1002
{
1000
0.02"
1002
}
  0
HATCH
  5
22C
100
AcDbEntity
  8
0
  6
Continuous
 62
           7
100
AcDbHatch
 10
0.0
 20
0.0
 30
0.0
210
0.0
220
0.0
230
1.0
  2
SOLID
 70
           1
 71
           1
 91
        1
 92
        3
 72
           0
 73
           1
 93
        3
 10
-1.4626081868609127
 20
0.9290005180316092
 10
-1.449608186860913
 20
1.0290005180316093
 10
-1.4756081868609128
 20
1.0290005180316093
 97
        1
330
22D
 75
           0
 76
           0
 98
        0
1001
TCAD
1000
TCW_ATTRIBUTE
1002
{
1000
0.02"
1002
}
  0
MTEXT
  5
22F
100
AcDbEntity
  8
0
  6
Continuous
 62
           7
100
AcDbMText
 10
-1.462608186861
 20
0.879000518032
 30
0.0
 40
0.025020001084
 41
0.0
 71
           5
 72
           1
  1
\A1;0.02"{}
 73
           1
 44
1.0
1001
TCAD
1000
TCW_REFPOINT
1002
{
1010
-1.462608186861
1020
0.879000518032
1030
0.0
1002
}
1000
TCW_ATTRIBUTE
1002
{
1000
0.02"
1002
}
  0
ENDBLK
  5
230
100
AcDbEntity
  8
0
100
AcDbBlockEnd
  0
BLOCK
  5
233
100
AcDbEntity
  8
0
100
AcDbBlockBegin
  2
*D16
 70
           1
 10
0.0
 20
0.0
 30
0.0
  3
*D16
  1

  0
LINE
  5
234
100
AcDbEntity
  8
0
370
           0
  6
Continuous
 62
           7
100
AcDbLine
 10
-0.908235893588
 20
1.029000518032
 30
0.0
 11
-0.679358536554
 21
1.029000518032
 31
0.0
1001
TCAD
1000
TCW_ATTRIBUTE
1002
{
1000
0.02"
1002
}
  0
LINE
  5
235
100
AcDbEntity
  8
0
370
           0
  6
Continuous
 62
           7
100
AcDbLine
 10
-0.908235893588
 20
0.929000518032
 30
0.0
 11
-0.679358536554
 21
0.929000518032
 31
0.0
1001
TCAD
1000
TCW_ATTRIBUTE
1002
{
1000
0.02"
1002
}
  0
LWPOLYLINE
  5
236
100
AcDbEntity
  8
0
370
           0
  6
Continuous
 62
           7
100
AcDbPolyline
 90
        2
 70
           0
 10
-0.804358536554
 20
1.229000518032
 10
-0.804358536554
 20
1.129000518032
1001
TCAD
1000
TCW_ATTRIBUTE
1002
{
1000
0.02"
1002
}
  0
LWPOLYLINE
  5
237
100
AcDbEntity
  8
0
370
           0
  6
Continuous
 62
           7
100
AcDbPolyline
 90
        2
 70
           0
 10
-0.804358536554
 20
1.029000518032
 40
0.0
 41
0.0
 10
-0.804358536554
 20
1.009000518032
 40
0.0
 41
0.0
1001
TCAD
1000
TCW_ATTRIBUTE
1002
{
1000
0.02"
1002
}
  0
LWPOLYLINE
  5
238
100
AcDbEntity
  8
0
370
           0
  6
Continuous
 62
           7
100
AcDbPolyline
 90
        2
 70
           0
 10
-0.804358536554
 20
0.729000518032
 10
-0.804358536554
 20
0.829000518032
1001
TCAD
1000
TCW_ATTRIBUTE
1002
{
1000
0.02"
1002
}
  0
LWPOLYLINE
  5
239
100
AcDbEntity
  8
0
370
           0
  6
Continuous
 62
           7
100
AcDbPolyline
 90
        2
 70
           0
 10
-0.804358536554
 20
0.929000518032
 40
0.0
 41
0.0
 10
-0.804358536554
 20
0.949000518032
 40
0.0
 41
0.0
1001
TCAD
1000
TCW_ATTRIBUTE
1002
{
1000
0.02"
1002
}
  0
LWPOLYLINE
  5
23C
100
AcDbEntity
  8
0
370
           0
  6
Continuous
 62
           7
100
AcDbPolyline
 90
        4
 70
           0
 10
-0.804358536554
 20
0.929000518032
 40
0.0
 41
0.0
 10
-0.817358536554
 20
0.829000518032
 40
0.0
 41
0.0
 10
-0.791358536554
 20
0.829000518032
 40
0.0
 41
0.0
 10
-0.804358536554
 20
0.929000518032
 40
0.0
 41
0.0
1001
TCAD
1000
TCW_ATTRIBUTE
1002
{
1000
0.02"
1002
}
  0
HATCH
  5
23A
100
AcDbEntity
  8
0
  6
Continuous
 62
           7
100
AcDbHatch
 10
0.0
 20
0.0
 30
0.0
210
0.0
220
0.0
230
1.0
  2
SOLID
 70
           1
 71
           1
 91
        1
 92
        3
 72
           0
 73
           1
 93
        3
 10
-0.8043585365541088
 20
0.9290005180316099
 10
-0.8173585365541088
 20
0.8290005180316099
 10
-0.7913585365541088
 20
0.8290005180316099
 97
        1
330
23B
 75
           0
 76
           0
 98
        0
1001
TCAD
1000
TCW_ATTRIBUTE
1002
{
1000
0.02"
1002
}
  0
LWPOLYLINE
  5
23F
100
AcDbEntity
  8
0
370
           0
  6
Continuous
 62
           7
100
AcDbPolyline
 90
        4
 70
           0
 10
-0.804358536554
 20
1.029000518032
 40
0.0
 41
0.0
 10
-0.791358536554
 20
1.129000518032
 40
0.0
 41
0.0
 10
-0.817358536554
 20
1.129000518032
 40
0.0
 41
0.0
 10
-0.804358536554
 20
1.029000518032
 40
0.0
 41
0.0
1001
TCAD
1000
TCW_ATTRIBUTE
1002
{
1000
0.02"
1002
}
  0
HATCH
  5
23D
100
AcDbEntity
  8
0
  6
Continuous
 62
           7
100
AcDbHatch
 10
0.0
 20
0.0
 30
0.0
210
0.0
220
0.0
230
1.0
  2
SOLID
 70
           1
 71
           1
 91
        1
 92
        3
 72
           0
 73
           1
 93
        3
 10
-0.8043585365541088
 20
1.0290005180316091
 10
-0.7913585365541088
 20
1.1290005180316092
 10
-0.8173585365541088
 20
1.1290005180316092
 97
        1
330
23E
 75
           0
 76
           0
 98
        0
1001
TCAD
1000
TCW_ATTRIBUTE
1002
{
1000
0.02"
1002
}
  0
MTEXT
  5
240
100
AcDbEntity
  8
0
  6
Continuous
 62
           7
100
AcDbMText
 10
-0.804358536554
 20
0.979000518032
 30
0.0
 40
0.025020001084
 41
0.0
 71
           5
 72
           1
  1
\A1;0.02"{}
 73
           1
 44
1.0
1001
TCAD
1000
TCW_REFPOINT
1002
{
1010
-0.804358536554
1020
0.979000518032
1030
0.0
1002
}
1000
TCW_ATTRIBUTE
1002
{
1000
0.02"
1002
}
  0
ENDBLK
  5
241
100
AcDbEntity
  8
0
100
AcDbBlockEnd
  0
BLOCK
  5
244
100
AcDbEntity
  8
0
100
AcDbBlockBegin
  2
*D17
 70
           1
 10
0.0
 20
0.0
 30
0.0
  3
*D17
  1

  0
LINE
  5
245
100
AcDbEntity
  8
0
370
           0
  6
Continuous
 62
           7
100
AcDbLine
 10
-1.070735893588
 20
1.091500518032
 30
0.0
 11
-1.070735893588
 21
1.321323387478
 31
0.0
1001
TCAD
1000
TCW_ATTRIBUTE
1002
{
1000
0.02"
1002
}
  0
LINE
  5
246
100
AcDbEntity
  8
0
370
           0
  6
Continuous
 62
           7
100
AcDbLine
 10
-1.170735893588
 20
1.091500518032
 30
0.0
 11
-1.170735893588
 21
1.321323387478
 31
0.0
1001
TCAD
1000
TCW_ATTRIBUTE
1002
{
1000
0.02"
1002
}
  0
LWPOLYLINE
  5
247
100
AcDbEntity
  8
0
370
           0
  6
Continuous
 62
           7
100
AcDbPolyline
 90
        2
 70
           0
 10
-0.870735893588
 20
1.196323387478
 10
-0.970735893588
 20
1.196323387478
1001
TCAD
1000
TCW_ATTRIBUTE
1002
{
1000
0.02"
1002
}
  0
LWPOLYLINE
  5
248
100
AcDbEntity
  8
0
370
           0
  6
Continuous
 62
           7
100
AcDbPolyline
 90
        2
 70
           0
 10
-1.070735893588
 20
1.196323387478
 40
0.0
 41
0.0
 10
-1.120735893588
 20
1.196323387478
 40
0.0
 41
0.0
1001
TCAD
1000
TCW_ATTRIBUTE
1002
{
1000
0.02"
1002
}
  0
LWPOLYLINE
  5
249
100
AcDbEntity
  8
0
370
           0
  6
Continuous
 62
           7
100
AcDbPolyline
 90
        2
 70
           0
 10
-1.370735893588
 20
1.196323387478
 10
-1.270735893588
 20
1.196323387478
1001
TCAD
1000
TCW_ATTRIBUTE
1002
{
1000
0.02"
1002
}
  0
LWPOLYLINE
  5
24A
100
AcDbEntity
  8
0
370
           0
  6
Continuous
 62
           7
100
AcDbPolyline
 90
        2
 70
           0
 10
-1.170735893588
 20
1.196323387478
 40
0.0
 41
0.0
 10
-1.120735893588
 20
1.196323387478
 40
0.0
 41
0.0
1001
TCAD
1000
TCW_ATTRIBUTE
1002
{
1000
0.02"
1002
}
  0
LWPOLYLINE
  5
24D
100
AcDbEntity
  8
0
370
           0
  6
Continuous
 62
           7
100
AcDbPolyline
 90
        4
 70
           0
 10
-1.170735893588
 20
1.196323387478
 40
0.0
 41
0.0
 10
-1.270735893588
 20
1.209323387478
 40
0.0
 41
0.0
 10
-1.270735893588
 20
1.183323387478
 40
0.0
 41
0.0
 10
-1.170735893588
 20
1.196323387478
 40
0.0
 41
0.0
1001
TCAD
1000
TCW_ATTRIBUTE
1002
{
1000
0.02"
1002
}
  0
HATCH
  5
24B
100
AcDbEntity
  8
0
  6
Continuous
 62
           7
100
AcDbHatch
 10
0.0
 20
0.0
 30
0.0
210
0.0
220
0.0
230
1.0
  2
SOLID
 70
           1
 71
           1
 91
        1
 92
        3
 72
           0
 73
           1
 93
        3
 10
-1.1707358935883199
 20
1.1963233874783232
 10
-1.27073589358832
 20
1.2093233874783236
 10
-1.27073589358832
 20
1.1833233874783238
 97
        1
330
24C
 75
           0
 76
           0
 98
        0
1001
TCAD
1000
TCW_ATTRIBUTE
1002
{
1000
0.02"
1002
}
  0
LWPOLYLINE
  5
250
100
AcDbEntity
  8
0
370
           0
  6
Continuous
 62
           7
100
AcDbPolyline
 90
        4
 70
           0
 10
-1.070735893588
 20
1.196323387478
 40
0.0
 41
0.0
 10
-0.970735893588
 20
1.183323387478
 40
0.0
 41
0.0
 10
-0.970735893588
 20
1.209323387478
 40
0.0
 41
0.0
 10
-1.070735893588
 20
1.196323387478
 40
0.0
 41
0.0
1001
TCAD
1000
TCW_ATTRIBUTE
1002
{
1000
0.02"
1002
}
  0
HATCH
  5
24E
100
AcDbEntity
  8
0
  6
Continuous
 62
           7
100
AcDbHatch
 10
0.0
 20
0.0
 30
0.0
210
0.0
220
0.0
230
1.0
  2
SOLID
 70
           1
 71
           1
 91
        1
 92
        3
 72
           0
 73
           1
 93
        3
 10
-1.0707358935883198
 20
1.1963233874783228
 10
-0.9707358935883199
 20
1.1833233874783224
 10
-0.9707358935883197
 20
1.2093233874783222
 97
        1
330
24F
 75
           0
 76
           0
 98
        0
1001
TCAD
1000
TCW_ATTRIBUTE
1002
{
1000
0.02"
1002
}
  0
MTEXT
  5
251
100
AcDbEntity
  8
0
  6
Continuous
 62
           7
100
AcDbMText
 10
-1.120735893588
 20
1.247173388381
 30
0.0
 40
0.025020001084
 41
0.0
 71
           5
 72
           1
  1
\A1;0.02"{}
 73
           1
 44
1.0
1001
TCAD
1000
TCW_REFPOINT
1002
{
1010
-1.120735893588
1020
1.247173388381
1030
0.0
1002
}
1000
TCW_ATTRIBUTE
1002
{
1000
0.02"
1002
}
  0
ENDBLK
  5
252
100
AcDbEntity
  8
0
100
AcDbBlockEnd
  0
BLOCK
  5
256
100
AcDbEntity
  8
0
100
AcDbBlockBegin
  2
*D18
 70
           1
 10
0.0
 20
0.0
 30
0.0
  3
*D18
  1

  0
LINE
  5
257
100
AcDbEntity
  8
0
370
           0
  6
Continuous
 62
           7
100
AcDbLine
 10
-1.270735893588
 20
0.666500518032
 30
0.0
 11
-1.270735893588
 21
0.41630523205
 31
0.0
1001
TCAD
1000
TCW_ATTRIBUTE
1002
{
1000
0.02"
1002
}
  0
LINE
  5
258
100
AcDbEntity
  8
0
370
           0
  6
Continuous
 62
           7
100
AcDbLine
 10
-1.170735893588
 20
0.666500518032
 30
0.0
 11
-1.170735893588
 21
0.41630523205
 31
0.0
1001
TCAD
1000
TCW_ATTRIBUTE
1002
{
1000
0.02"
1002
}
  0
LWPOLYLINE
  5
259
100
AcDbEntity
  8
0
370
           0
  6
Continuous
 62
           7
100
AcDbPolyline
 90
        2
 70
           0
 10
-1.470735893588
 20
0.54130523205
 10
-1.370735893588
 20
0.54130523205
1001
TCAD
1000
TCW_ATTRIBUTE
1002
{
1000
0.02"
1002
}
  0
LWPOLYLINE
  5
25A
100
AcDbEntity
  8
0
370
           0
  6
Continuous
 62
           7
100
AcDbPolyline
 90
        2
 70
           0
 10
-1.270735893588
 20
0.54130523205
 40
0.0
 41
0.0
 10
-1.220735893588
 20
0.54130523205
 40
0.0
 41
0.0
1001
TCAD
1000
TCW_ATTRIBUTE
1002
{
1000
0.02"
1002
}
  0
LWPOLYLINE
  5
25B
100
AcDbEntity
  8
0
370
           0
  6
Continuous
 62
           7
100
AcDbPolyline
 90
        2
 70
           0
 10
-0.970735893588
 20
0.54130523205
 10
-1.070735893588
 20
0.54130523205
1001
TCAD
1000
TCW_ATTRIBUTE
1002
{
1000
0.02"
1002
}
  0
LWPOLYLINE
  5
25C
100
AcDbEntity
  8
0
370
           0
  6
Continuous
 62
           7
100
AcDbPolyline
 90
        2
 70
           0
 10
-1.170735893588
 20
0.54130523205
 40
0.0
 41
0.0
 10
-1.220735893588
 20
0.54130523205
 40
0.0
 41
0.0
1001
TCAD
1000
TCW_ATTRIBUTE
1002
{
1000
0.02"
1002
}
  0
LWPOLYLINE
  5
25F
100
AcDbEntity
  8
0
370
           0
  6
Continuous
 62
           7
100
AcDbPolyline
 90
        4
 70
           0
 10
-1.170735893588
 20
0.54130523205
 40
0.0
 41
0.0
 10
-1.070735893588
 20
0.52830523205
 40
0.0
 41
0.0
 10
-1.070735893588
 20
0.55430523205
 40
0.0
 41
0.0
 10
-1.170735893588
 20
0.54130523205
 40
0.0
 41
0.0
1001
TCAD
1000
TCW_ATTRIBUTE
1002
{
1000
0.02"
1002
}
  0
HATCH
  5
25D
100
AcDbEntity
  8
0
  6
Continuous
 62
           7
100
AcDbHatch
 10
0.0
 20
0.0
 30
0.0
210
0.0
220
0.0
230
1.0
  2
SOLID
 70
           1
 71
           1
 91
        1
 92
        3
 72
           0
 73
           1
 93
        3
 10
-1.1707358935883203
 20
0.5413052320498342
 10
-1.0707358935883202
 20
0.5283052320498343
 10
-1.0707358935883202
 20
0.5543052320498343
 97
        1
330
25E
 75
           0
 76
           0
 98
        0
1001
TCAD
1000
TCW_ATTRIBUTE
1002
{
1000
0.02"
1002
}
  0
LWPOLYLINE
  5
262
100
AcDbEntity
  8
0
370
           0
  6
Continuous
 62
           7
100
AcDbPolyline
 90
        4
 70
           0
 10
-1.270735893588
 20
0.54130523205
 40
0.0
 41
0.0
 10
-1.370735893588
 20
0.55430523205
 40
0.0
 41
0.0
 10
-1.370735893588
 20
0.52830523205
 40
0.0
 41
0.0
 10
-1.270735893588
 20
0.54130523205
 40
0.0
 41
0.0
1001
TCAD
1000
TCW_ATTRIBUTE
1002
{
1000
0.02"
1002
}
  0
HATCH
  5
260
100
AcDbEntity
  8
0
  6
Continuous
 62
           7
100
AcDbHatch
 10
0.0
 20
0.0
 30
0.0
210
0.0
220
0.0
230
1.0
  2
SOLID
 70
           1
 71
           1
 91
        1
 92
        3
 72
           0
 73
           1
 93
        3
 10
-1.2707358935883202
 20
0.5413052320498341
 10
-1.3707358935883203
 20
0.554305232049834
 10
-1.3707358935883203
 20
0.5283052320498339
 97
        1
330
261
 75
           0
 76
           0
 98
        0
1001
TCAD
1000
TCW_ATTRIBUTE
1002
{
1000
0.02"
1002
}
  0
MTEXT
  5
263
100
AcDbEntity
  8
0
  6
Continuous
 62
           7
100
AcDbMText
 10
-1.220735893588
 20
0.592155232953
 30
0.0
 40
0.025020001084
 41
0.0
 71
           5
 72
           1
  1
\A1;0.02"{}
 73
           1
 44
1.0
1001
TCAD
1000
TCW_REFPOINT
1002
{
1010
-1.220735893588
1020
0.592155232953
1030
0.0
1002
}
1000
TCW_ATTRIBUTE
1002
{
1000
0.02"
1002
}
  0
ENDBLK
  5
264
100
AcDbEntity
  8
0
100
AcDbBlockEnd
  0
ENDSEC
  0
SECTION
  2
ENTITIES
  0
VIEWPORT
  5
278
100
AcDbEntity
 67
           1
  8
0
100
AcDbViewport
 10
5.49999982865
 20
4.2500002235
 30
0.0
 40
12.4151968421
 41
9.4723353684
 68
           1
 69
           1
 12
5.49999982865
 22
4.2500002235
 13
0.0
 23
0.0
 14
0.5
 24
0.5
 15
0.5
 25
0.5
 16
0.0
 26
0.0
 36
1.0
 17
0.0
 27
0.0
 37
0.0
 42
50.0
 43
0.0
 44
0.0
 45
9.4723353684
 50
0.0
 51
0.0
 72
         100
 90
    32800
340
0
  1

281
           0
 71
           0
 74
           1
110
0.0
120
0.0
130
0.0
111
1.0
121
0.0
131
0.0
112
0.0
122
1.0
132
0.0
345
0
346
0
 79
           0
146
0.0
  0
VIEWPORT
  5
279
100
AcDbEntity
 67
           1
  8
0
  6
Continuous
100
AcDbViewport
 10
5.5
 20
4.25
 30
0.0
 40
11.0
 41
8.5
 68
           2
 69
           2
 12
0.0
 22
0.0
 13
0.0
 23
0.0
 14
0.5
 24
0.5
 15
0.5
 25
0.5
 16
0.0
 26
0.0
 36
1.0
 17
5.500000033528
 27
4.250000104308
 37
-1.0
 42
97.532499545905
 43
0.0
 44
0.0
 45
8.5
 50
0.0
 51
0.0
 72
         100
341
2F
 90
    32800
340
0
  1

281
           0
 71
           0
 74
           1
110
0.0
120
0.0
130
0.0
111
1.0
121
0.0
131
0.0
112
0.0
122
1.0
132
0.0
345
0
346
0
 79
           0
146
0.0
  0
INSERT
  5
51
100
AcDbEntity
  8
0
 60
           1
100
AcDbBlockReference
 66
           1
  2
OVERHEAD
 10
-11.0
 20
-8.5
 30
0.0
1001
AVE_RENDER
1002
{
1070
           0
1000
LIGHT_0
1011
-10.0
1021
-8.5
1031
0.0
1041
100.0
1010
0.109803921569
1020
0.109803921569
1030
0.109803921569
1002
{
1070
           0
1070
           0
1040
0.0
1040
0.0
1040
3.0
1002
}
1002
{
1070
           9
1070
          21
1070
          15
1070
           0
1040
37.62
1040
122.37
1002
}
1002
}
1001
TCAD
1000
TCW_LIGTH
1002
{
1070
           0
1002
}
  0
ATTRIB
  5
52
100
AcDbEntity
  8
ASHADE
  6
Continuous
 62
           1
100
AcDbText
 10
-11.0
 20
-8.5
 30
0.0
 40
0.2
  1
LIGHT_0
  7
ASHADE
 72
           1
 11
-11.0
 21
-8.6
 31
0.0
100
AcDbAttribute
  2
SNAME
 70
           0
  0
ATTRIB
  5
53
100
AcDbEntity
  8
ASHADE
  6
Continuous
 62
           7
100
AcDbText
 10
-11.0
 20
-8.5
 30
0.0
 40
0.01
  1

100
AcDbAttribute
  2
GNAME
 70
           1
  0
ATTRIB
  5
54
100
AcDbEntity
  8
ASHADE
  6
Continuous
 62
           7
100
AcDbText
 10
-11.0
 20
-8.5
 30
0.0
 40
0.01
  1

100
AcDbAttribute
  2
LAX
 70
           1
  0
ATTRIB
  5
55
100
AcDbEntity
  8
ASHADE
  6
Continuous
 62
           7
100
AcDbText
 10
-11.0
 20
-8.5
 30
0.0
 40
0.01
  1

100
AcDbAttribute
  2
LAY
 70
           1
  0
ATTRIB
  5
56
100
AcDbEntity
  8
ASHADE
  6
Continuous
 62
           7
100
AcDbText
 10
-11.0
 20
-8.5
 30
0.0
 40
0.01
  1

100
AcDbAttribute
  2
LAZ
 70
           1
  0
ATTRIB
  5
57
100
AcDbEntity
  8
ASHADE
  6
Continuous
 62
           7
100
AcDbText
 10
-11.0
 20
-8.5
 30
0.0
 40
0.01
  1
1
100
AcDbAttribute
  2
INTENSITY
 70
           1
  0
ATTRIB
  5
58
100
AcDbEntity
  8
ASHADE
  6
Continuous
 62
           7
100
AcDbText
 10
-11.0
 20
-8.5
 30
0.0
 40
0.01
  1
1,1,1
100
AcDbAttribute
  2
COLOR
 70
           1
  0
ATTRIB
  5
59
100
AcDbEntity
  8
ASHADE
  6
Continuous
 62
           7
100
AcDbText
 10
-11.0
 20
-8.5
 30
0.0
 40
0.01
  1
0
100
AcDbAttribute
  2
CONEA
 70
           1
  0
ATTRIB
  5
5A
100
AcDbEntity
  8
ASHADE
  6
Continuous
 62
           7
100
AcDbText
 10
-11.0
 20
-8.5
 30
0.0
 40
0.01
  1
-1
100
AcDbAttribute
  2
CONED
 70
           1
  0
ATTRIB
  5
5B
100
AcDbEntity
  8
ASHADE
  6
Continuous
 62
           7
100
AcDbText
 10
-11.0
 20
-8.5
 30
0.0
 40
0.01
  1
-1
100
AcDbAttribute
  2
BEAMD
 70
           1
  0
SEQEND
  5
5C
100
AcDbEntity
  8
0
  0
INSERT
  5
5D
100
AcDbEntity
  8
0
 60
           1
100
AcDbBlockReference
 66
           1
  2
OVERHEAD
 10
22.0
 20
19.5
 30
0.0
1001
AVE_RENDER
1002
{
1070
           0
1000
LIGHT_1
1011
23.0
1021
19.5
1031
0.0
1041
100.0
1010
0.109803921569
1020
0.109803921569
1030
0.109803921569
1002
{
1070
           0
1070
           0
1040
0.0
1040
0.0
1040
3.0
1002
}
1002
{
1070
           9
1070
          21
1070
          15
1070
           0
1040
37.62
1040
122.37
1002
}
1002
}
1001
TCAD
1000
TCW_LIGTH
1002
{
1070
           0
1002
}
  0
ATTRIB
  5
5E
100
AcDbEntity
  8
ASHADE
  6
Continuous
 62
           1
100
AcDbText
 10
22.0
 20
19.5
 30
0.0
 40
0.2
  1
LIGHT_1
  7
ASHADE
 72
           1
 11
22.0
 21
19.4
 31
0.0
100
AcDbAttribute
  2
SNAME
 70
           0
  0
ATTRIB
  5
5F
100
AcDbEntity
  8
ASHADE
  6
Continuous
 62
           7
100
AcDbText
 10
22.0
 20
19.5
 30
0.0
 40
0.01
  1

100
AcDbAttribute
  2
GNAME
 70
           1
  0
ATTRIB
  5
60
100
AcDbEntity
  8
ASHADE
  6
Continuous
 62
           7
100
AcDbText
 10
22.0
 20
19.5
 30
0.0
 40
0.01
  1

100
AcDbAttribute
  2
LAX
 70
           1
  0
ATTRIB
  5
61
100
AcDbEntity
  8
ASHADE
  6
Continuous
 62
           7
100
AcDbText
 10
22.0
 20
19.5
 30
0.0
 40
0.01
  1

100
AcDbAttribute
  2
LAY
 70
           1
  0
ATTRIB
  5
62
100
AcDbEntity
  8
ASHADE
  6
Continuous
 62
           7
100
AcDbText
 10
22.0
 20
19.5
 30
0.0
 40
0.01
  1

100
AcDbAttribute
  2
LAZ
 70
           1
  0
ATTRIB
  5
63
100
AcDbEntity
  8
ASHADE
  6
Continuous
 62
           7
100
AcDbText
 10
22.0
 20
19.5
 30
0.0
 40
0.01
  1
1
100
AcDbAttribute
  2
INTENSITY
 70
           1
  0
ATTRIB
  5
64
100
AcDbEntity
  8
ASHADE
  6
Continuous
 62
           7
100
AcDbText
 10
22.0
 20
19.5
 30
0.0
 40
0.01
  1
1,1,1
100
AcDbAttribute
  2
COLOR
 70
           1
  0
ATTRIB
  5
65
100
AcDbEntity
  8
ASHADE
  6
Continuous
 62
           7
100
AcDbText
 10
22.0
 20
19.5
 30
0.0
 40
0.01
  1
0
100
AcDbAttribute
  2
CONEA
 70
           1
  0
ATTRIB
  5
66
100
AcDbEntity
  8
ASHADE
  6
Continuous
 62
           7
100
AcDbText
 10
22.0
 20
19.5
 30
0.0
 40
0.01
  1
-1
100
AcDbAttribute
  2
CONED
 70
           1
  0
ATTRIB
  5
67
100
AcDbEntity
  8
ASHADE
  6
Continuous
 62
           7
100
AcDbText
 10
22.0
 20
19.5
 30
0.0
 40
0.01
  1
-1
100
AcDbAttribute
  2
BEAMD
 70
           1
  0
SEQEND
  5
68
100
AcDbEntity
  8
0
  0
INSERT
  5
69
100
AcDbEntity
  8
0
 60
           1
100
AcDbBlockReference
 66
           1
  2
OVERHEAD
 10
22.0
 20
-8.5
 30
0.0
1001
AVE_RENDER
1002
{
1070
           0
1000
LIGHT_2
1011
23.0
1021
-8.5
1031
0.0
1041
100.0
1010
0.109803921569
1020
0.109803921569
1030
0.109803921569
1002
{
1070
           0
1070
           0
1040
0.0
1040
0.0
1040
3.0
1002
}
1002
{
1070
           9
1070
          21
1070
          15
1070
           0
1040
37.62
1040
122.37
1002
}
1002
}
1001
TCAD
1000
TCW_LIGTH
1002
{
1070
           0
1002
}
  0
ATTRIB
  5
6A
100
AcDbEntity
  8
ASHADE
  6
Continuous
 62
           1
100
AcDbText
 10
22.0
 20
-8.5
 30
0.0
 40
0.2
  1
LIGHT_2
  7
ASHADE
 72
           1
 11
22.0
 21
-8.6
 31
0.0
100
AcDbAttribute
  2
SNAME
 70
           0
  0
ATTRIB
  5
6B
100
AcDbEntity
  8
ASHADE
  6
Continuous
 62
           7
100
AcDbText
 10
22.0
 20
-8.5
 30
0.0
 40
0.01
  1

100
AcDbAttribute
  2
GNAME
 70
           1
  0
ATTRIB
  5
6C
100
AcDbEntity
  8
ASHADE
  6
Continuous
 62
           7
100
AcDbText
 10
22.0
 20
-8.5
 30
0.0
 40
0.01
  1

100
AcDbAttribute
  2
LAX
 70
           1
  0
ATTRIB
  5
6D
100
AcDbEntity
  8
ASHADE
  6
Continuous
 62
           7
100
AcDbText
 10
22.0
 20
-8.5
 30
0.0
 40
0.01
  1

100
AcDbAttribute
  2
LAY
 70
           1
  0
ATTRIB
  5
6E
100
AcDbEntity
  8
ASHADE
  6
Continuous
 62
           7
100
AcDbText
 10
22.0
 20
-8.5
 30
0.0
 40
0.01
  1

100
AcDbAttribute
  2
LAZ
 70
           1
  0
ATTRIB
  5
6F
100
AcDbEntity
  8
ASHADE
  6
Continuous
 62
           7
100
AcDbText
 10
22.0
 20
-8.5
 30
0.0
 40
0.01
  1
1
100
AcDbAttribute
  2
INTENSITY
 70
           1
  0
ATTRIB
  5
70
100
AcDbEntity
  8
ASHADE
  6
Continuous
 62
           7
100
AcDbText
 10
22.0
 20
-8.5
 30
0.0
 40
0.01
  1
1,1,1
100
AcDbAttribute
  2
COLOR
 70
           1
  0
ATTRIB
  5
71
100
AcDbEntity
  8
ASHADE
  6
Continuous
 62
           7
100
AcDbText
 10
22.0
 20
-8.5
 30
0.0
 40
0.01
  1
0
100
AcDbAttribute
  2
CONEA
 70
           1
  0
ATTRIB
  5
72
100
AcDbEntity
  8
ASHADE
  6
Continuous
 62
           7
100
AcDbText
 10
22.0
 20
-8.5
 30
0.0
 40
0.01
  1
-1
100
AcDbAttribute
  2
CONED
 70
           1
  0
ATTRIB
  5
73
100
AcDbEntity
  8
ASHADE
  6
Continuous
 62
           7
100
AcDbText
 10
22.0
 20
-8.5
 30
0.0
 40
0.01
  1
-1
100
AcDbAttribute
  2
BEAMD
 70
           1
  0
SEQEND
  5
74
100
AcDbEntity
  8
0
  0
INSERT
  5
75
100
AcDbEntity
  8
0
 60
           1
100
AcDbBlockReference
 66
           1
  2
OVERHEAD
 10
-11.0
 20
17.0
 30
35.0
1001
AVE_RENDER
1002
{
1070
           0
1000
LIGHT_3
1011
-10.0
1021
17.0
1031
35.0
1041
100.0
1010
0.501960784314
1020
0.501960784314
1030
0.501960784314
1002
{
1070
           0
1070
           0
1040
0.0
1040
0.0
1040
3.0
1002
}
1002
{
1070
           9
1070
          21
1070
          15
1070
           0
1040
37.62
1040
122.37
1002
}
1002
}
1001
TCAD
1000
TCW_LIGTH
1002
{
1070
           1
1002
}
  0
ATTRIB
  5
76
100
AcDbEntity
  8
ASHADE
  6
Continuous
 62
           1
100
AcDbText
 10
-11.0
 20
17.0
 30
35.0
 40
0.2
  1
LIGHT_3
  7
ASHADE
 72
           1
 11
-11.0
 21
16.9
 31
35.0
100
AcDbAttribute
  2
SNAME
 70
           0
  0
ATTRIB
  5
77
100
AcDbEntity
  8
ASHADE
  6
Continuous
 62
           7
100
AcDbText
 10
-11.0
 20
17.0
 30
35.0
 40
0.01
  1

100
AcDbAttribute
  2
GNAME
 70
           1
  0
ATTRIB
  5
78
100
AcDbEntity
  8
ASHADE
  6
Continuous
 62
           7
100
AcDbText
 10
-11.0
 20
17.0
 30
35.0
 40
0.01
  1

100
AcDbAttribute
  2
LAX
 70
           1
  0
ATTRIB
  5
79
100
AcDbEntity
  8
ASHADE
  6
Continuous
 62
           7
100
AcDbText
 10
-11.0
 20
17.0
 30
35.0
 40
0.01
  1

100
AcDbAttribute
  2
LAY
 70
           1
  0
ATTRIB
  5
7A
100
AcDbEntity
  8
ASHADE
  6
Continuous
 62
           7
100
AcDbText
 10
-11.0
 20
17.0
 30
35.0
 40
0.01
  1

100
AcDbAttribute
  2
LAZ
 70
           1
  0
ATTRIB
  5
7B
100
AcDbEntity
  8
ASHADE
  6
Continuous
 62
           7
100
AcDbText
 10
-11.0
 20
17.0
 30
35.0
 40
0.01
  1
1
100
AcDbAttribute
  2
INTENSITY
 70
           1
  0
ATTRIB
  5
7C
100
AcDbEntity
  8
ASHADE
  6
Continuous
 62
           7
100
AcDbText
 10
-11.0
 20
17.0
 30
35.0
 40
0.01
  1
1,1,1
100
AcDbAttribute
  2
COLOR
 70
           1
  0
ATTRIB
  5
7D
100
AcDbEntity
  8
ASHADE
  6
Continuous
 62
           7
100
AcDbText
 10
-11.0
 20
17.0
 30
35.0
 40
0.01
  1
0
100
AcDbAttribute
  2
CONEA
 70
           1
  0
ATTRIB
  5
7E
100
AcDbEntity
  8
ASHADE
  6
Continuous
 62
           7
100
AcDbText
 10
-11.0
 20
17.0
 30
35.0
 40
0.01
  1
-1
100
AcDbAttribute
  2
CONED
 70
           1
  0
ATTRIB
  5
7F
100
AcDbEntity
  8
ASHADE
  6
Continuous
 62
           7
100
AcDbText
 10
-11.0
 20
17.0
 30
35.0
 40
0.01
  1
-1
100
AcDbAttribute
  2
BEAMD
 70
           1
  0
SEQEND
  5
80
100
AcDbEntity
  8
0
  0
INSERT
  5
95
100
AcDbEntity
  8
0
 60
           1
100
AcDbBlockReference
 66
           1
  2
DIRECT
 10
93.5
 20
38.25
 30
0.0
 50
-52.305759533311
1001
AVE_RENDER
1002
{
1070
           0
1000
LIGHT_4
1011
99.0
1021
42.5
1031
0.0
1041
100.0
1010
0.501960784314
1020
0.501960784314
1030
0.501960784314
1002
{
1070
           0
1070
           0
1040
0.0
1040
0.0
1040
3.0
1002
}
1002
{
1070
           9
1070
          21
1070
          15
1070
           0
1040
37.62
1040
122.37
1002
}
1002
}
1001
TCAD
1000
TCW_LIGTH
1002
{
1070
           1
1002
}
  0
ATTRIB
  5
96
100
AcDbEntity
  8
ASHADE
  6
Continuous
 62
           1
100
AcDbText
 10
93.5
 20
38.25
 30
0.0
 40
0.2
  1
LIGHT_4
 50
-52.305759533311
  7
ASHADE
 72
           1
 11
93.420871499861
 21
38.188855249892
 31
0.0
100
AcDbAttribute
  2
SNAME
 70
           0
  0
ATTRIB
  5
97
100
AcDbEntity
  8
ASHADE
  6
Continuous
 62
           7
100
AcDbText
 10
93.5
 20
38.25
 30
0.0
 40
0.01
  1

 50
-52.305759533311
100
AcDbAttribute
  2
GNAME
 70
           1
  0
ATTRIB
  5
98
100
AcDbEntity
  8
ASHADE
  6
Continuous
 62
           7
100
AcDbText
 10
93.5
 20
38.25
 30
0.0
 40
0.01
  1

 50
-52.305759533311
100
AcDbAttribute
  2
LAX
 70
           1
  0
ATTRIB
  5
99
100
AcDbEntity
  8
ASHADE
  6
Continuous
 62
           7
100
AcDbText
 10
93.5
 20
38.25
 30
0.0
 40
0.01
  1

 50
-52.305759533311
100
AcDbAttribute
  2
LAY
 70
           1
  0
ATTRIB
  5
9A
100
AcDbEntity
  8
ASHADE
  6
Continuous
 62
           7
100
AcDbText
 10
93.5
 20
38.25
 30
0.0
 40
0.01
  1

 50
-52.305759533311
100
AcDbAttribute
  2
LAZ
 70
           1
  0
ATTRIB
  5
9B
100
AcDbEntity
  8
ASHADE
  6
Continuous
 62
           7
100
AcDbText
 10
93.5
 20
38.25
 30
0.0
 40
0.01
  1
1
 50
-52.305759533311
100
AcDbAttribute
  2
INTENSITY
 70
           1
  0
ATTRIB
  5
9C
100
AcDbEntity
  8
ASHADE
  6
Continuous
 62
           7
100
AcDbText
 10
93.5
 20
38.25
 30
0.0
 40
0.01
  1
1,1,1
 50
-52.305759533311
100
AcDbAttribute
  2
COLOR
 70
           1
  0
ATTRIB
  5
9D
100
AcDbEntity
  8
ASHADE
  6
Continuous
 62
           7
100
AcDbText
 10
93.5
 20
38.25
 30
0.0
 40
0.01
  1
0
 50
-52.305759533311
100
AcDbAttribute
  2
CONEA
 70
           1
  0
ATTRIB
  5
9E
100
AcDbEntity
  8
ASHADE
  6
Continuous
 62
           7
100
AcDbText
 10
93.5
 20
38.25
 30
0.0
 40
0.01
  1
-1
 50
-52.305759533311
100
AcDbAttribute
  2
CONED
 70
           1
  0
ATTRIB
  5
9F
100
AcDbEntity
  8
ASHADE
  6
Continuous
 62
           7
100
AcDbText
 10
93.5
 20
38.25
 30
0.0
 40
0.01
  1
-1
 50
-52.305759533311
100
AcDbAttribute
  2
BEAMD
 70
           1
  0
SEQEND
  5
A0
100
AcDbEntity
  8
0
  0
INSERT
  5
A1
100
AcDbEntity
  8
0
 60
           1
100
AcDbBlockReference
 66
           1
  2
OVERHEAD
 10
0.0
 20
0.0
 30
0.0
1001
AVE_RENDER
1002
{
1070
           0
1000
LIGHT_5
1011
1.0
1021
0.0
1031
0.0
1041
100.0
1010
0.501960784314
1020
0.501960784314
1030
0.501960784314
1002
{
1070
           0
1070
           0
1040
0.0
1040
0.0
1040
3.0
1002
}
1002
{
1070
           9
1070
          21
1070
          15
1070
           0
1040
37.62
1040
122.37
1002
}
1002
}
1001
TCAD
1000
TCW_LIGTH
1002
{
1070
           0
1002
}
  0
ATTRIB
  5
A2
100
AcDbEntity
  8
ASHADE
  6
Continuous
 62
           1
100
AcDbText
 10
0.0
 20
0.0
 30
0.0
 40
0.2
  1
LIGHT_5
  7
ASHADE
 72
           1
 11
0.0
 21
-0.1
 31
0.0
100
AcDbAttribute
  2
SNAME
 70
           0
  0
ATTRIB
  5
A3
100
AcDbEntity
  8
ASHADE
  6
Continuous
 62
           7
100
AcDbText
 10
0.0
 20
0.0
 30
0.0
 40
0.01
  1

100
AcDbAttribute
  2
GNAME
 70
           1
  0
ATTRIB
  5
A4
100
AcDbEntity
  8
ASHADE
  6
Continuous
 62
           7
100
AcDbText
 10
0.0
 20
0.0
 30
0.0
 40
0.01
  1

100
AcDbAttribute
  2
LAX
 70
           1
  0
ATTRIB
  5
A5
100
AcDbEntity
  8
ASHADE
  6
Continuous
 62
           7
100
AcDbText
 10
0.0
 20
0.0
 30
0.0
 40
0.01
  1

100
AcDbAttribute
  2
LAY
 70
           1
  0
ATTRIB
  5
A6
100
AcDbEntity
  8
ASHADE
  6
Continuous
 62
           7
100
AcDbText
 10
0.0
 20
0.0
 30
0.0
 40
0.01
  1

100
AcDbAttribute
  2
LAZ
 70
           1
  0
ATTRIB
  5
A7
100
AcDbEntity
  8
ASHADE
  6
Continuous
 62
           7
100
AcDbText
 10
0.0
 20
0.0
 30
0.0
 40
0.01
  1
1
100
AcDbAttribute
  2
INTENSITY
 70
           1
  0
ATTRIB
  5
A8
100
AcDbEntity
  8
ASHADE
  6
Continuous
 62
           7
100
AcDbText
 10
0.0
 20
0.0
 30
0.0
 40
0.01
  1
1,1,1
100
AcDbAttribute
  2
COLOR
 70
           1
  0
ATTRIB
  5
A9
100
AcDbEntity
  8
ASHADE
  6
Continuous
 62
           7
100
AcDbText
 10
0.0
 20
0.0
 30
0.0
 40
0.01
  1
0
100
AcDbAttribute
  2
CONEA
 70
           1
  0
ATTRIB
  5
AA
100
AcDbEntity
  8
ASHADE
  6
Continuous
 62
           7
100
AcDbText
 10
0.0
 20
0.0
 30
0.0
 40
0.01
  1
-1
100
AcDbAttribute
  2
CONED
 70
           1
  0
ATTRIB
  5
AB
100
AcDbEntity
  8
ASHADE
  6
Continuous
 62
           7
100
AcDbText
 10
0.0
 20
0.0
 30
0.0
 40
0.01
  1
-1
100
AcDbAttribute
  2
BEAMD
 70
           1
  0
SEQEND
  5
AC
100
AcDbEntity
  8
0
  0
INSERT
  5
AD
100
AcDbEntity
  8
0
 60
           1
100
AcDbBlockReference
 66
           1
  2
OVERHEAD
 10
0.0
 20
0.0
 30
0.0
1001
AVE_RENDER
1002
{
1070
           0
1000
LIGHT_6
1011
1.0
1021
0.0
1031
0.0
1041
100.0
1010
0.752941176471
1020
0.752941176471
1030
0.752941176471
1002
{
1070
           0
1070
           0
1040
0.0
1040
0.0
1040
3.0
1002
}
1002
{
1070
           9
1070
          21
1070
          15
1070
           0
1040
37.62
1040
122.37
1002
}
1002
}
1001
TCAD
1000
TCW_LIGTH
1002
{
1070
           1
1002
}
  0
ATTRIB
  5
AE
100
AcDbEntity
  8
ASHADE
  6
Continuous
 62
           1
100
AcDbText
 10
0.0
 20
0.0
 30
0.0
 40
0.2
  1
LIGHT_6
  7
ASHADE
 72
           1
 11
0.0
 21
-0.1
 31
0.0
100
AcDbAttribute
  2
SNAME
 70
           0
  0
ATTRIB
  5
AF
100
AcDbEntity
  8
ASHADE
  6
Continuous
 62
           7
100
AcDbText
 10
0.0
 20
0.0
 30
0.0
 40
0.01
  1

100
AcDbAttribute
  2
GNAME
 70
           1
  0
ATTRIB
  5
B0
100
AcDbEntity
  8
ASHADE
  6
Continuous
 62
           7
100
AcDbText
 10
0.0
 20
0.0
 30
0.0
 40
0.01
  1

100
AcDbAttribute
  2
LAX
 70
           1
  0
ATTRIB
  5
B1
100
AcDbEntity
  8
ASHADE
  6
Continuous
 62
           7
100
AcDbText
 10
0.0
 20
0.0
 30
0.0
 40
0.01
  1

100
AcDbAttribute
  2
LAY
 70
           1
  0
ATTRIB
  5
B2
100
AcDbEntity
  8
ASHADE
  6
Continuous
 62
           7
100
AcDbText
 10
0.0
 20
0.0
 30
0.0
 40
0.01
  1

100
AcDbAttribute
  2
LAZ
 70
           1
  0
ATTRIB
  5
B3
100
AcDbEntity
  8
ASHADE
  6
Continuous
 62
           7
100
AcDbText
 10
0.0
 20
0.0
 30
0.0
 40
0.01
  1
1
100
AcDbAttribute
  2
INTENSITY
 70
           1
  0
ATTRIB
  5
B4
100
AcDbEntity
  8
ASHADE
  6
Continuous
 62
           7
100
AcDbText
 10
0.0
 20
0.0
 30
0.0
 40
0.01
  1
1,1,1
100
AcDbAttribute
  2
COLOR
 70
           1
  0
ATTRIB
  5
B5
100
AcDbEntity
  8
ASHADE
  6
Continuous
 62
           7
100
AcDbText
 10
0.0
 20
0.0
 30
0.0
 40
0.01
  1
0
100
AcDbAttribute
  2
CONEA
 70
           1
  0
ATTRIB
  5
B6
100
AcDbEntity
  8
ASHADE
  6
Continuous
 62
           7
100
AcDbText
 10
0.0
 20
0.0
 30
0.0
 40
0.01
  1
-1
100
AcDbAttribute
  2
CONED
 70
           1
  0
ATTRIB
  5
B7
100
AcDbEntity
  8
ASHADE
  6
Continuous
 62
           7
100
AcDbText
 10
0.0
 20
0.0
 30
0.0
 40
0.01
  1
-1
100
AcDbAttribute
  2
BEAMD
 70
           1
  0
SEQEND
  5
B8
100
AcDbEntity
  8
0
  0
INSERT
  5
E1
100
AcDbEntity
  8
0
 60
           1
100
AcDbBlockReference
 66
           1
  2
SH_SPOT
 10
-5.5
 20
0.0
 30
4.25
210
0.0
220
1.0
230
0.0
1001
AVE_RENDER
1002
{
1070
           0
1000
LIGHT_7
1011
5.5
1021
4.25
1031
1.0
1041
100.0
1010
0.501960784314
1020
0.501960784314
1030
0.501960784314
1002
{
1070
           1
1070
           0
1040
0.0
1040
0.0
1040
3.0
1002
}
1002
{
1070
           9
1070
          21
1070
          15
1070
           0
1040
37.62
1040
122.37
1002
}
1002
}
1001
TCAD
1000
TCW_LIGTH
1002
{
1070
           0
1002
}
  0
ATTRIB
  5
E2
100
AcDbEntity
  8
ASHADE
  6
Continuous
 62
           1
100
AcDbText
 10
-5.5
 20
0.0
 30
4.25
 40
0.2
  1
LIGHT_7
  7
ASHADE
 72
           1
 11
-5.5
 21
-0.1
 31
4.25
210
0.0
220
1.0
230
0.0
100
AcDbAttribute
  2
SNAME
 70
           0
  0
ATTRIB
  5
E3
100
AcDbEntity
  8
ASHADE
  6
Continuous
 62
           7
100
AcDbText
 10
-5.5
 20
0.0
 30
4.25
 40
0.01
  1

210
0.0
220
1.0
230
0.0
100
AcDbAttribute
  2
GNAME
 70
           1
  0
ATTRIB
  5
E4
100
AcDbEntity
  8
ASHADE
  6
Continuous
 62
           7
100
AcDbText
 10
-5.5
 20
0.0
 30
4.25
 40
0.01
  1

210
0.0
220
1.0
230
0.0
100
AcDbAttribute
  2
LAX
 70
           1
  0
ATTRIB
  5
E5
100
AcDbEntity
  8
ASHADE
  6
Continuous
 62
           7
100
AcDbText
 10
-5.5
 20
0.0
 30
4.25
 40
0.01
  1

210
0.0
220
1.0
230
0.0
100
AcDbAttribute
  2
LAY
 70
           1
  0
ATTRIB
  5
E6
100
AcDbEntity
  8
ASHADE
  6
Continuous
 62
           7
100
AcDbText
 10
-5.5
 20
0.0
 30
4.25
 40
0.01
  1

210
0.0
220
1.0
230
0.0
100
AcDbAttribute
  2
LAZ
 70
           1
  0
ATTRIB
  5
E7
100
AcDbEntity
  8
ASHADE
  6
Continuous
 62
           7
100
AcDbText
 10
-5.5
 20
0.0
 30
4.25
 40
0.01
  1
1
210
0.0
220
1.0
230
0.0
100
AcDbAttribute
  2
INTENSITY
 70
           1
  0
ATTRIB
  5
E8
100
AcDbEntity
  8
ASHADE
  6
Continuous
 62
           7
100
AcDbText
 10
-5.5
 20
0.0
 30
4.25
 40
0.01
  1
1,1,1
210
0.0
220
1.0
230
0.0
100
AcDbAttribute
  2
COLOR
 70
           1
  0
ATTRIB
  5
E9
100
AcDbEntity
  8
ASHADE
  6
Continuous
 62
           7
100
AcDbText
 10
-5.5
 20
0.0
 30
4.25
 40
0.01
  1
0
210
0.0
220
1.0
230
0.0
100
AcDbAttribute
  2
ZSIZE
 70
           1
  0
ATTRIB
  5
EA
100
AcDbEntity
  8
ASHADE
  6
Continuous
 62
           7
100
AcDbText
 10
-5.5
 20
0.0
 30
4.25
 40
0.01
  1
-1
210
0.0
220
1.0
230
0.0
100
AcDbAttribute
  2
BIASMIN
 70
           1
  0
ATTRIB
  5
EB
100
AcDbEntity
  8
ASHADE
  6
Continuous
 62
           7
100
AcDbText
 10
-5.5
 20
0.0
 30
4.25
 40
0.01
  1
-1
210
0.0
220
1.0
230
0.0
100
AcDbAttribute
  2
BIASMAX
 70
           1
  0
ATTRIB
  5
EC
100
AcDbEntity
  8
ASHADE
  6
Continuous
 62
           7
100
AcDbText
 10
-5.5
 20
0.0
 30
4.25
 40
0.01
  1
10.0
210
0.0
220
1.0
230
0.0
100
AcDbAttribute
  2
CONEAN
 70
           1
  0
ATTRIB
  5
ED
100
AcDbEntity
  8
ASHADE
  6
Continuous
 62
           7
100
AcDbText
 10
-5.5
 20
0.0
 30
4.25
 40
0.01
  1
0.0
210
0.0
220
1.0
230
0.0
100
AcDbAttribute
  2
CONEDE
 70
           1
  0
ATTRIB
  5
EE
100
AcDbEntity
  8
ASHADE
  6
Continuous
 62
           7
100
AcDbText
 10
-5.5
 20
0.0
 30
4.25
 40
0.01
  1
0.0
210
0.0
220
1.0
230
0.0
100
AcDbAttribute
  2
BEAMDI
 70
           1
  0
ATTRIB
  5
EF
100
AcDbEntity
  8
ASHADE
  6
Continuous
 62
           7
100
AcDbText
 10
-5.5
 20
0.0
 30
4.25
 40
0.01
  1
0,0,0
210
0.0
220
1.0
230
0.0
100
AcDbAttribute
  2
LFXYZ
 70
           1
  0
SEQEND
  5
F0
100
AcDbEntity
  8
0
  0
XLINE
  5
F1
100
AcDbEntity
  8
$CONSTRUCTION
100
AcDbXline
 10
-12.9680651316
 20
0.0
 30
0.0
 11
1.0
 21
0.0
 31
0.0
1001
TCAD
1000
TCW_CUSTOM_DATA
1002
{
1000
#$AUX@_ToolInfo Properties
1070
           8
1000
Insert^JConstruction^JHorizontalLine@Construction HorizontalLine
1002
}
  0
CIRCLE
  5
F2
100
AcDbEntity
  8
$CONSTRUCTION
370
           0
100
AcDbCircle
 10
0.0
 20
0.0
 30
0.0
 40
0.0984
1001
TCAD
1000
TCW_CUSTOM_DATA
1002
{
1000
#$AUX@_ToolInfo Properties
1070
           8
1000
Insert^JConstruction^JCenterAndPointCircle@Construction CenterAndPointCircle
1002
}
  0
CIRCLE
  5
F3
100
AcDbEntity
  8
$CONSTRUCTION
370
           0
100
AcDbCircle
 10
0.0
 20
0.0
 30
0.0
 40
0.9842
1001
TCAD
1000
TCW_CUSTOM_DATA
1002
{
1000
#$AUX@_ToolInfo Properties
1070
           8
1000
Insert^JConstruction^JCenterAndPointCircle@Construction CenterAndPointCircle
1002
}
  0
XLINE
  5
F4
100
AcDbEntity
  8
$CONSTRUCTION
100
AcDbXline
 10
-0.828509590699
 20
-1.435020705648
 30
0.0
 11
0.5000000000000001
 21
0.8660254037844387
 31
0.0
1001
TCAD
1000
TCW_CUSTOM_DATA
1002
{
1000
#$AUX@_ToolInfo Properties
1070
           8
1000
Insert^JConstruction^JAngularLine@Construction AngularLine
1002
}
  0
XLINE
  5
F5
100
AcDbEntity
  8
$CONSTRUCTION
100
AcDbXline
 10
0.828509590699
 20
-1.435020705648
 30
0.0
 11
-0.4999999999999998
 21
0.8660254037844387
 31
0.0
1001
TCAD
1000
TCW_CUSTOM_DATA
1002
{
1000
#$AUX@_ToolInfo Properties
1070
           8
1000
Insert^JConstruction^JAngularLine@Construction AngularLine
1002
}
  0
LWPOLYLINE
  5
F6
100
AcDbEntity
  8
0
370
           0
  6
Continuous
 62
           7
100
AcDbPolyline
 90
        4
 70
           1
 10
0.4921
 20
0.852342202405
 10
0.0492
 20
0.085216899732
 42
0.267949192431
 10
-0.0492
 20
0.085216899732
 10
-0.4921
 20
0.852342202405
 42
-0.267949192431
  0
LWPOLYLINE
  5
F7
100
AcDbEntity
  8
0
370
           0
  6
Continuous
 62
           7
100
AcDbPolyline
 90
        4
 70
           1
 10
0.0492
 20
0.085216899732
 10
0.0492
 20
0.085216899732
 10
0.0492
 20
0.085216899732
 10
0.0492
 20
0.085216899732
1001
TCAD
1000
TCW_CUSTOM_DATA
1002
{
1000
#$AUX@_ToolInfo Properties
1070
           8
1000
Insert^JLine^JRectangle@Line Rectangle
1002
}
  0
LWPOLYLINE
  5
F8
100
AcDbEntity
  8
0
370
           0
  6
Continuous
 62
           7
100
AcDbPolyline
 90
        4
 70
           1
 10
0.0492
 20
0.085216899732
 10
0.0492
 20
0.085216899732
 10
0.0492
 20
0.085216899732
 10
0.0492
 20
0.085216899732
1001
TCAD
1000
TCW_CUSTOM_DATA
1002
{
1000
#$AUX@_ToolInfo Properties
1070
           8
1000
Insert^JLine^JRectangle@Line Rectangle
1002
}
  0
LWPOLYLINE
  5
F9
100
AcDbEntity
  8
0
370
           0
  6
Continuous
 62
           7
100
AcDbPolyline
 90
        4
 70
           1
 10
0.0492
 20
0.085216899732
 10
0.0492
 20
0.085216899732
 10
0.0492
 20
0.085216899732
 10
0.0492
 20
0.085216899732
1001
TCAD
1000
TCW_CUSTOM_DATA
1002
{
1000
#$AUX@_ToolInfo Properties
1070
           8
1000
Insert^JLine^JRectangle@Line Rectangle
1002
}
  0
LWPOLYLINE
  5
FA
100
AcDbEntity
  8
0
370
           0
  6
Continuous
 62
           7
100
AcDbPolyline
 90
        4
 70
           1
 10
0.0492
 20
0.085216899732
 10
0.0492
 20
0.085216899732
 10
0.0492
 20
0.085216899732
 10
0.0492
 20
0.085216899732
1001
TCAD
1000
TCW_CUSTOM_DATA
1002
{
1000
#$AUX@_ToolInfo Properties
1070
           8
1000
Insert^JLine^JRectangle@Line Rectangle
1002
}
  0
LWPOLYLINE
  5
FB
100
AcDbEntity
  8
0
370
           0
  6
Continuous
 62
           7
100
AcDbPolyline
 90
        4
 70
           1
 10
0.0492
 20
0.085216899732
 10
0.0492
 20
0.085216899732
 10
0.0492
 20
0.085216899732
 10
0.0492
 20
0.085216899732
1001
TCAD
1000
TCW_CUSTOM_DATA
1002
{
1000
#$AUX@_ToolInfo Properties
1070
           8
1000
Insert^JLine^JRectangle@Line Rectangle
1002
}
  0
LWPOLYLINE
  5
FC
100
AcDbEntity
  8
0
370
           0
  6
Continuous
 62
           7
100
AcDbPolyline
 90
        4
 70
           1
 10
0.0492
 20
0.085216899732
 10
0.0492
 20
0.085216899732
 10
0.0492
 20
0.085216899732
 10
0.0492
 20
0.085216899732
1001
TCAD
1000
TCW_CUSTOM_DATA
1002
{
1000
#$AUX@_ToolInfo Properties
1070
           8
1000
Insert^JLine^JRectangle@Line Rectangle
1002
}
  0
LWPOLYLINE
  5
FD
100
AcDbEntity
  8
0
370
           0
  6
Continuous
 62
           7
100
AcDbPolyline
 90
        4
 70
           1
 10
0.0492
 20
0.085216899732
 10
0.0492
 20
0.085216899732
 10
0.0492
 20
0.085216899732
 10
0.0492
 20
0.085216899732
1001
TCAD
1000
TCW_CUSTOM_DATA
1002
{
1000
#$AUX@_ToolInfo Properties
1070
           8
1000
Insert^JLine^JRectangle@Line Rectangle
1002
}
  0
LWPOLYLINE
  5
FE
100
AcDbEntity
  8
0
370
           0
  6
Continuous
 62
           7
100
AcDbPolyline
 90
        4
 70
           1
 10
0.0492
 20
0.085216899732
 10
0.0492
 20
0.085216899732
 10
0.0492
 20
0.085216899732
 10
0.0492
 20
0.085216899732
1001
TCAD
1000
TCW_CUSTOM_DATA
1002
{
1000
#$AUX@_ToolInfo Properties
1070
           8
1000
Insert^JLine^JRectangle@Line Rectangle
1002
}
  0
LWPOLYLINE
  5
FF
100
AcDbEntity
  8
0
370
           0
  6
Continuous
 62
           7
100
AcDbPolyline
 90
        4
 70
           1
 10
-0.01
 20
0.12
 10
0.01
 20
0.12
 10
0.01
 20
0.1
 10
-0.01
 20
0.1
1001
TCAD
1000
TCW_CUSTOM_DATA
1002
{
1000
#$AUX@_ToolInfo Properties
1070
           8
1000
Insert^JLine^JRectangle@Line Rectangle
1002
}
  0
LWPOLYLINE
  5
100
100
AcDbEntity
  8
0
370
           0
  6
Continuous
 62
           7
100
AcDbPolyline
 90
        4
 70
           1
 10
-0.01
 20
0.16
 10
0.01
 20
0.16
 10
0.01
 20
0.14
 10
-0.01
 20
0.14
1001
TCAD
1000
TCW_CUSTOM_DATA
1002
{
1000
#$AUX@_ToolInfo Properties
1070
           8
1000
Insert^JLine^JRectangle@Line Rectangle
1002
}
  0
LWPOLYLINE
  5
101
100
AcDbEntity
  8
0
370
           0
  6
Continuous
 62
           7
100
AcDbPolyline
 90
        4
 70
           1
 10
-0.01
 20
0.2
 10
0.01
 20
0.2
 10
0.01
 20
0.18
 10
-0.01
 20
0.18
1001
TCAD
1000
TCW_CUSTOM_DATA
1002
{
1000
#$AUX@_ToolInfo Properties
1070
           8
1000
Insert^JLine^JRectangle@Line Rectangle
1002
}
  0
LWPOLYLINE
  5
102
100
AcDbEntity
  8
0
370
           0
  6
Continuous
 62
           7
100
AcDbPolyline
 90
        4
 70
           1
 10
-0.01
 20
0.24
 10
0.01
 20
0.24
 10
0.01
 20
0.22
 10
-0.01
 20
0.22
1001
TCAD
1000
TCW_CUSTOM_DATA
1002
{
1000
#$AUX@_ToolInfo Properties
1070
           8
1000
Insert^JLine^JRectangle@Line Rectangle
1002
}
  0
LWPOLYLINE
  5
103
100
AcDbEntity
  8
0
370
           0
  6
Continuous
 62
           7
100
AcDbPolyline
 90
        4
 70
           1
 10
-0.01
 20
0.28
 10
0.01
 20
0.28
 10
0.01
 20
0.26
 10
-0.01
 20
0.26
1001
TCAD
1000
TCW_CUSTOM_DATA
1002
{
1000
#$AUX@_ToolInfo Properties
1070
           8
1000
Insert^JLine^JRectangle@Line Rectangle
1002
}
  0
LWPOLYLINE
  5
104
100
AcDbEntity
  8
0
370
           0
  6
Continuous
 62
           7
100
AcDbPolyline
 90
        4
 70
           1
 10
-0.01
 20
0.32
 10
0.01
 20
0.32
 10
0.01
 20
0.3
 10
-0.01
 20
0.3
1001
TCAD
1000
TCW_CUSTOM_DATA
1002
{
1000
#$AUX@_ToolInfo Properties
1070
           8
1000
Insert^JLine^JRectangle@Line Rectangle
1002
}
  0
LWPOLYLINE
  5
105
100
AcDbEntity
  8
0
370
           0
  6
Continuous
 62
           7
100
AcDbPolyline
 90
        4
 70
           1
 10
0.03
 20
0.12
 10
0.05
 20
0.12
 10
0.05
 20
0.1
 10
0.03
 20
0.1
1001
TCAD
1000
TCW_CUSTOM_DATA
1002
{
1000
#$AUX@_ToolInfo Properties
1070
           8
1000
Insert^JLine^JRectangle@Line Rectangle
1002
}
  0
LWPOLYLINE
  5
106
100
AcDbEntity
  8
0
370
           0
  6
Continuous
 62
           7
100
AcDbPolyline
 90
        4
 70
           1
 10
0.03
 20
0.16
 10
0.05
 20
0.16
 10
0.05
 20
0.14
 10
0.03
 20
0.14
1001
TCAD
1000
TCW_CUSTOM_DATA
1002
{
1000
#$AUX@_ToolInfo Properties
1070
           8
1000
Insert^JLine^JRectangle@Line Rectangle
1002
}
  0
LWPOLYLINE
  5
107
100
AcDbEntity
  8
0
370
           0
  6
Continuous
 62
           7
100
AcDbPolyline
 90
        4
 70
           1
 10
0.03
 20
0.2
 10
0.05
 20
0.2
 10
0.05
 20
0.18
 10
0.03
 20
0.18
1001
TCAD
1000
TCW_CUSTOM_DATA
1002
{
1000
#$AUX@_ToolInfo Properties
1070
           8
1000
Insert^JLine^JRectangle@Line Rectangle
1002
}
  0
LWPOLYLINE
  5
108
100
AcDbEntity
  8
0
370
           0
  6
Continuous
 62
           7
100
AcDbPolyline
 90
        4
 70
           1
 10
0.03
 20
0.24
 10
0.05
 20
0.24
 10
0.05
 20
0.22
 10
0.03
 20
0.22
1001
TCAD
1000
TCW_CUSTOM_DATA
1002
{
1000
#$AUX@_ToolInfo Properties
1070
           8
1000
Insert^JLine^JRectangle@Line Rectangle
1002
}
  0
LWPOLYLINE
  5
109
100
AcDbEntity
  8
0
370
           0
  6
Continuous
 62
           7
100
AcDbPolyline
 90
        4
 70
           1
 10
0.03
 20
0.28
 10
0.05
 20
0.28
 10
0.05
 20
0.26
 10
0.03
 20
0.26
1001
TCAD
1000
TCW_CUSTOM_DATA
1002
{
1000
#$AUX@_ToolInfo Properties
1070
           8
1000
Insert^JLine^JRectangle@Line Rectangle
1002
}
  0
LWPOLYLINE
  5
10A
100
AcDbEntity
  8
0
370
           0
  6
Continuous
 62
           7
100
AcDbPolyline
 90
        4
 70
           1
 10
0.03
 20
0.32
 10
0.05
 20
0.32
 10
0.05
 20
0.3
 10
0.03
 20
0.3
1001
TCAD
1000
TCW_CUSTOM_DATA
1002
{
1000
#$AUX@_ToolInfo Properties
1070
           8
1000
Insert^JLine^JRectangle@Line Rectangle
1002
}
  0
LWPOLYLINE
  5
10B
100
AcDbEntity
  8
0
370
           0
  6
Continuous
 62
           7
100
AcDbPolyline
 90
        4
 70
           1
 10
0.07
 20
0.32
 10
0.09
 20
0.32
 10
0.09
 20
0.3
 10
0.07
 20
0.3
1001
TCAD
1000
TCW_CUSTOM_DATA
1002
{
1000
#$AUX@_ToolInfo Properties
1070
           8
1000
Insert^JLine^JRectangle@Line Rectangle
1002
}
  0
LWPOLYLINE
  5
10C
100
AcDbEntity
  8
0
370
           0
  6
Continuous
 62
           7
100
AcDbPolyline
 90
        4
 70
           1
 10
0.11
 20
0.32
 10
0.13
 20
0.32
 10
0.13
 20
0.3
 10
0.11
 20
0.3
1001
TCAD
1000
TCW_CUSTOM_DATA
1002
{
1000
#$AUX@_ToolInfo Properties
1070
           8
1000
Insert^JLine^JRectangle@Line Rectangle
1002
}
  0
LWPOLYLINE
  5
10D
100
AcDbEntity
  8
0
370
           0
  6
Continuous
 62
           7
100
AcDbPolyline
 90
        4
 70
           1
 10
0.15
 20
0.32
 10
0.17
 20
0.32
 10
0.17
 20
0.3
 10
0.15
 20
0.3
1001
TCAD
1000
TCW_CUSTOM_DATA
1002
{
1000
#$AUX@_ToolInfo Properties
1070
           8
1000
Insert^JLine^JRectangle@Line Rectangle
1002
}
  0
LWPOLYLINE
  5
10E
100
AcDbEntity
  8
0
370
           0
  6
Continuous
 62
           7
100
AcDbPolyline
 90
        4
 70
           1
 10
0.07
 20
0.28
 10
0.09
 20
0.28
 10
0.09
 20
0.26
 10
0.07
 20
0.26
1001
TCAD
1000
TCW_CUSTOM_DATA
1002
{
1000
#$AUX@_ToolInfo Properties
1070
           8
1000
Insert^JLine^JRectangle@Line Rectangle
1002
}
  0
LWPOLYLINE
  5
10F
100
AcDbEntity
  8
0
370
           0
  6
Continuous
 62
           7
100
AcDbPolyline
 90
        4
 70
           1
 10
0.11
 20
0.28
 10
0.13
 20
0.28
 10
0.13
 20
0.26
 10
0.11
 20
0.26
1001
TCAD
1000
TCW_CUSTOM_DATA
1002
{
1000
#$AUX@_ToolInfo Properties
1070
           8
1000
Insert^JLine^JRectangle@Line Rectangle
1002
}
  0
LWPOLYLINE
  5
110
100
AcDbEntity
  8
0
370
           0
  6
Continuous
 62
           7
100
AcDbPolyline
 90
        4
 70
           1
 10
0.07
 20
0.24
 10
0.09
 20
0.24
 10
0.09
 20
0.22
 10
0.07
 20
0.22
1001
TCAD
1000
TCW_CUSTOM_DATA
1002
{
1000
#$AUX@_ToolInfo Properties
1070
           8
1000
Insert^JLine^JRectangle@Line Rectangle
1002
}
  0
LWPOLYLINE
  5
111
100
AcDbEntity
  8
0
370
           0
  6
Continuous
 62
           7
100
AcDbPolyline
 90
        4
 70
           1
 10
0.07
 20
0.2
 10
0.09
 20
0.2
 10
0.09
 20
0.18
 10
0.07
 20
0.18
1001
TCAD
1000
TCW_CUSTOM_DATA
1002
{
1000
#$AUX@_ToolInfo Properties
1070
           8
1000
Insert^JLine^JRectangle@Line Rectangle
1002
}
  0
LWPOLYLINE
  5
112
100
AcDbEntity
  8
0
370
           0
  6
Continuous
 62
           7
100
AcDbPolyline
 90
        5
 70
           1
 10
0.07
 20
0.16
 10
0.07
 20
0.14
 10
0.080829037687
 20
0.14
 10
0.09
 20
0.155884572681
 10
0.09
 20
0.16
  0
LWPOLYLINE
  5
113
100
AcDbEntity
  8
0
370
           0
  6
Continuous
 62
           7
100
AcDbPolyline
 90
        5
 70
           1
 10
0.13
 20
0.225166604984
 10
0.13
 20
0.24
 10
0.11
 20
0.24
 10
0.11
 20
0.22
 10
0.127017059222
 20
0.22
  0
LWPOLYLINE
  5
114
100
AcDbEntity
  8
0
370
           0
  6
Continuous
 62
           7
100
AcDbPolyline
 90
        4
 70
           0
 10
0.150111069989
 20
0.26
 10
0.161658075373
 20
0.28
 10
0.15
 20
0.28
 10
0.15
 20
0.26
  0
LWPOLYLINE
  5
115
100
AcDbEntity
  8
0
370
           0
  6
Continuous
 62
           7
100
AcDbPolyline
 90
        3
 70
           1
 10
0.115470053838
 20
0.2
 10
0.11
 20
0.2
 10
0.11
 20
0.190525588833
  0
LWPOLYLINE
  5
116
100
AcDbEntity
  8
0
370
           0
  6
Continuous
 62
           7
100
AcDbPolyline
 90
        4
 70
           1
 10
-0.05
 20
0.32
 10
-0.03
 20
0.32
 10
-0.03
 20
0.3
 10
-0.05
 20
0.3
1001
TCAD
1000
TCW_CUSTOM_DATA
1002
{
1000
#$AUX@_ToolInfo Properties
1070
           8
1000
Insert^JLine^JRectangle@Line Rectangle
1002
}
  0
LWPOLYLINE
  5
117
100
AcDbEntity
  8
0
370
           0
  6
Continuous
 62
           7
100
AcDbPolyline
 90
        4
 70
           1
 10
-0.05
 20
0.28
 10
-0.03
 20
0.28
 10
-0.03
 20
0.26
 10
-0.05
 20
0.26
1001
TCAD
1000
TCW_CUSTOM_DATA
1002
{
1000
#$AUX@_ToolInfo Properties
1070
           8
1000
Insert^JLine^JRectangle@Line Rectangle
1002
}
  0
LWPOLYLINE
  5
118
100
AcDbEntity
  8
0
370
           0
  6
Continuous
 62
           7
100
AcDbPolyline
 90
        4
 70
           1
 10
-0.05
 20
0.24
 10
-0.03
 20
0.24
 10
-0.03
 20
0.22
 10
-0.05
 20
0.22
1001
TCAD
1000
TCW_CUSTOM_DATA
1002
{
1000
#$AUX@_ToolInfo Properties
1070
           8
1000
Insert^JLine^JRectangle@Line Rectangle
1002
}
  0
LWPOLYLINE
  5
119
100
AcDbEntity
  8
0
370
           0
  6
Continuous
 62
           7
100
AcDbPolyline
 90
        4
 70
           1
 10
-0.05
 20
0.2
 10
-0.03
 20
0.2
 10
-0.03
 20
0.18
 10
-0.05
 20
0.18
1001
TCAD
1000
TCW_CUSTOM_DATA
1002
{
1000
#$AUX@_ToolInfo Properties
1070
           8
1000
Insert^JLine^JRectangle@Line Rectangle
1002
}
  0
LWPOLYLINE
  5
11A
100
AcDbEntity
  8
0
370
           0
  6
Continuous
 62
           7
100
AcDbPolyline
 90
        4
 70
           1
 10
-0.05
 20
0.16
 10
-0.03
 20
0.16
 10
-0.03
 20
0.14
 10
-0.05
 20
0.14
1001
TCAD
1000
TCW_CUSTOM_DATA
1002
{
1000
#$AUX@_ToolInfo Properties
1070
           8
1000
Insert^JLine^JRectangle@Line Rectangle
1002
}
  0
LWPOLYLINE
  5
11B
100
AcDbEntity
  8
0
370
           0
  6
Continuous
 62
           7
100
AcDbPolyline
 90
        4
 70
           1
 10
-0.05
 20
0.12
 10
-0.03
 20
0.12
 10
-0.03
 20
0.1
 10
-0.05
 20
0.1
1001
TCAD
1000
TCW_CUSTOM_DATA
1002
{
1000
#$AUX@_ToolInfo Properties
1070
           8
1000
Insert^JLine^JRectangle@Line Rectangle
1002
}
  0
LWPOLYLINE
  5
11C
100
AcDbEntity
  8
0
370
           0
  6
Continuous
 62
           7
100
AcDbPolyline
 90
        4
 70
           1
 10
-0.09
 20
0.2
 10
-0.07
 20
0.2
 10
-0.07
 20
0.18
 10
-0.09
 20
0.18
1001
TCAD
1000
TCW_CUSTOM_DATA
1002
{
1000
#$AUX@_ToolInfo Properties
1070
           8
1000
Insert^JLine^JRectangle@Line Rectangle
1002
}
  0
LWPOLYLINE
  5
11D
100
AcDbEntity
  8
0
370
           0
  6
Continuous
 62
           7
100
AcDbPolyline
 90
        4
 70
           1
 10
-0.09
 20
0.24
 10
-0.07
 20
0.24
 10
-0.07
 20
0.22
 10
-0.09
 20
0.22
1001
TCAD
1000
TCW_CUSTOM_DATA
1002
{
1000
#$AUX@_ToolInfo Properties
1070
           8
1000
Insert^JLine^JRectangle@Line Rectangle
1002
}
  0
LWPOLYLINE
  5
11E
100
AcDbEntity
  8
0
370
           0
  6
Continuous
 62
           7
100
AcDbPolyline
 90
        4
 70
           1
 10
-0.09
 20
0.28
 10
-0.07
 20
0.28
 10
-0.07
 20
0.26
 10
-0.09
 20
0.26
1001
TCAD
1000
TCW_CUSTOM_DATA
1002
{
1000
#$AUX@_ToolInfo Properties
1070
           8
1000
Insert^JLine^JRectangle@Line Rectangle
1002
}
  0
LWPOLYLINE
  5
11F
100
AcDbEntity
  8
0
370
           0
  6
Continuous
 62
           7
100
AcDbPolyline
 90
        4
 70
           1
 10
-0.09
 20
0.32
 10
-0.07
 20
0.32
 10
-0.07
 20
0.3
 10
-0.09
 20
0.3
1001
TCAD
1000
TCW_CUSTOM_DATA
1002
{
1000
#$AUX@_ToolInfo Properties
1070
           8
1000
Insert^JLine^JRectangle@Line Rectangle
1002
}
  0
LWPOLYLINE
  5
120
100
AcDbEntity
  8
0
370
           0
  6
Continuous
 62
           7
100
AcDbPolyline
 90
        4
 70
           1
 10
-0.13
 20
0.32
 10
-0.11
 20
0.32
 10
-0.11
 20
0.3
 10
-0.13
 20
0.3
1001
TCAD
1000
TCW_CUSTOM_DATA
1002
{
1000
#$AUX@_ToolInfo Properties
1070
           8
1000
Insert^JLine^JRectangle@Line Rectangle
1002
}
  0
LWPOLYLINE
  5
121
100
AcDbEntity
  8
0
370
           0
  6
Continuous
 62
           7
100
AcDbPolyline
 90
        4
 70
           1
 10
-0.13
 20
0.28
 10
-0.11
 20
0.28
 10
-0.11
 20
0.26
 10
-0.13
 20
0.26
1001
TCAD
1000
TCW_CUSTOM_DATA
1002
{
1000
#$AUX@_ToolInfo Properties
1070
           8
1000
Insert^JLine^JRectangle@Line Rectangle
1002
}
  0
LWPOLYLINE
  5
122
100
AcDbEntity
  8
0
370
           0
  6
Continuous
 62
           7
100
AcDbPolyline
 90
        4
 70
           1
 10
-0.17
 20
0.32
 10
-0.15
 20
0.32
 10
-0.15
 20
0.3
 10
-0.17
 20
0.3
1001
TCAD
1000
TCW_CUSTOM_DATA
1002
{
1000
#$AUX@_ToolInfo Properties
1070
           8
1000
Insert^JLine^JRectangle@Line Rectangle
1002
}
  0
LWPOLYLINE
  5
123
100
AcDbEntity
  8
0
370
           0
  6
Continuous
 62
           7
100
AcDbPolyline
 90
        6
 70
           0
 10
-0.09
 20
0.155884572681
 10
-0.09
 20
0.16
 10
-0.07
 20
0.16
 10
-0.07
 20
0.14
 10
-0.080829037687
 20
0.14
 10
-0.09
 20
0.155884572681
1001
TCAD
1000
TCW_CUSTOM_DATA
1002
{
1000
#$AUX@_ToolInfo Properties
1070
           8
1000
Insert^JLine^JPolyline@Line Polyline
1002
}
  0
LWPOLYLINE
  5
124
100
AcDbEntity
  8
0
370
           0
  6
Continuous
 62
           7
100
AcDbPolyline
 90
        4
 70
           0
 10
-0.115470053838
 20
0.2
 10
-0.11
 20
0.2
 10
-0.11
 20
0.190525588833
 10
-0.115470053838
 20
0.2
1001
TCAD
1000
TCW_CUSTOM_DATA
1002
{
1000
#$AUX@_ToolInfo Properties
1070
           8
1000
Insert^JLine^JPolyline@Line Polyline
1002
}
  0
LWPOLYLINE
  5
125
100
AcDbEntity
  8
0
370
           0
  6
Continuous
 62
           7
100
AcDbPolyline
 90
        6
 70
           0
 10
-0.11
 20
0.22
 10
-0.11
 20
0.24
 10
-0.13
 20
0.24
 10
-0.13
 20
0.225166604984
 10
-0.127017059222
 20
0.22
 10
-0.11
 20
0.22
1001
TCAD
1000
TCW_CUSTOM_DATA
1002
{
1000
#$AUX@_ToolInfo Properties
1070
           8
1000
Insert^JLine^JPolyline@Line Polyline
1002
}
  0
LWPOLYLINE
  5
126
100
AcDbEntity
  8
0
370
           0
  6
Continuous
 62
           7
100
AcDbPolyline
 90
        4
 70
           0
 10
-0.161658075373
 20
0.28
 10
-0.15
 20
0.28
 10
-0.150111069989
 20
0.26
 10
-0.161658075373
 20
0.28
1001
TCAD
1000
TCW_CUSTOM_DATA
1002
{
1000
#$AUX@_ToolInfo Properties
1070
           8
1000
Insert^JLine^JPolyline@Line Polyline
1002
}
  0
XLINE
  5
127
100
AcDbEntity
  8
$CONSTRUCTION
100
AcDbXline
 10
-0.405252035363
 20
-0.2
 30
0.0
 11
1.0
 21
0.0
 31
0.0
1001
TCAD
1000
TCW_CUSTOM_DATA
1002
{
1000
#$AUX@_ToolInfo Properties
1070
           8
1000
Insert^JConstruction^JHorizontalLine@Construction HorizontalLine
1002
}
  0
XLINE
  5
128
100
AcDbEntity
  8
$CONSTRUCTION
100
AcDbXline
 10
-0.810504070725
 20
-0.8693
 30
0.0
 11
1.0
 21
0.0
 31
0.0
1001
TCAD
1000
TCW_CUSTOM_DATA
1002
{
1000
#$AUX@_ToolInfo Properties
1070
           8
1000
Insert^JConstruction^JHorizontalLine@Construction HorizontalLine
1002
}
  0
XLINE
  5
129
100
AcDbEntity
  8
$CONSTRUCTION
100
AcDbXline
 10
-1.62100814145
 20
-1.1842
 30
0.0
 11
1.0
 21
0.0
 31
0.0
1001
TCAD
1000
TCW_CUSTOM_DATA
1002
{
1000
#$AUX@_ToolInfo Properties
1070
           8
1000
Insert^JConstruction^JHorizontalLine@Construction HorizontalLine
1002
}
  0
LWPOLYLINE
  5
12A
100
AcDbEntity
  8
0
370
           0
  6
Continuous
 62
           7
100
AcDbPolyline
 90
        4
 70
           1
 10
-0.4921
 20
-0.8693
 10
0.4921
 20
-0.8693
 10
0.4921
 20
-1.1842
 10
-0.4921
 20
-1.1842
1001
TCAD
1000
TCW_CUSTOM_DATA
1002
{
1000
#$AUX@_ToolInfo Properties
1070
           8
1000
Insert^JLine^JRectangle@Line Rectangle
1002
}
  0
LWPOLYLINE
  5
12B
100
AcDbEntity
  8
0
370
           0
  6
Continuous
 62
           7
100
AcDbPolyline
 90
        4
 70
           1
 10
-0.17
 20
-0.2
 10
-0.15
 20
-0.2
 10
-0.15
 20
-0.8693
 10
-0.17
 20
-0.8693
1001
TCAD
1000
TCW_CUSTOM_DATA
1002
{
1000
#$AUX@_ToolInfo Properties
1070
           8
1000
Insert^JLine^JRectangle@Line Rectangle
1002
}
  0
LWPOLYLINE
  5
12C
100
AcDbEntity
  8
0
370
           0
  6
Continuous
 62
           7
100
AcDbPolyline
 90
        4
 70
           1
 10
-0.13
 20
-0.2
 10
-0.11
 20
-0.2
 10
-0.11
 20
-0.8693
 10
-0.13
 20
-0.8693
1001
TCAD
1000
TCW_CUSTOM_DATA
1002
{
1000
#$AUX@_ToolInfo Properties
1070
           8
1000
Insert^JLine^JRectangle@Line Rectangle
1002
}
  0
LWPOLYLINE
  5
12D
100
AcDbEntity
  8
0
370
           0
  6
Continuous
 62
           7
100
AcDbPolyline
 90
        4
 70
           1
 10
-0.09
 20
-0.2
 10
-0.07
 20
-0.2
 10
-0.07
 20
-0.8693
 10
-0.09
 20
-0.8693
1001
TCAD
1000
TCW_CUSTOM_DATA
1002
{
1000
#$AUX@_ToolInfo Properties
1070
           8
1000
Insert^JLine^JRectangle@Line Rectangle
1002
}
  0
LWPOLYLINE
  5
12E
100
AcDbEntity
  8
0
370
           0
  6
Continuous
 62
           7
100
AcDbPolyline
 90
        4
 70
           1
 10
-0.05
 20
-0.2
 10
-0.03
 20
-0.2
 10
-0.03
 20
-0.8693
 10
-0.05
 20
-0.8693
1001
TCAD
1000
TCW_CUSTOM_DATA
1002
{
1000
#$AUX@_ToolInfo Properties
1070
           8
1000
Insert^JLine^JRectangle@Line Rectangle
1002
}
  0
LWPOLYLINE
  5
12F
100
AcDbEntity
  8
0
370
           0
  6
Continuous
 62
           7
100
AcDbPolyline
 90
        4
 70
           1
 10
-0.01
 20
-0.2
 10
0.01
 20
-0.2
 10
0.01
 20
-0.8693
 10
-0.01
 20
-0.8693
1001
TCAD
1000
TCW_CUSTOM_DATA
1002
{
1000
#$AUX@_ToolInfo Properties
1070
           8
1000
Insert^JLine^JRectangle@Line Rectangle
1002
}
  0
LWPOLYLINE
  5
130
100
AcDbEntity
  8
0
370
           0
  6
Continuous
 62
           7
100
AcDbPolyline
 90
        4
 70
           1
 10
0.03
 20
-0.2
 10
0.05
 20
-0.2
 10
0.05
 20
-0.8693
 10
0.03
 20
-0.8693
1001
TCAD
1000
TCW_CUSTOM_DATA
1002
{
1000
#$AUX@_ToolInfo Properties
1070
           8
1000
Insert^JLine^JRectangle@Line Rectangle
1002
}
  0
LWPOLYLINE
  5
131
100
AcDbEntity
  8
0
370
           0
  6
Continuous
 62
           7
100
AcDbPolyline
 90
        4
 70
           1
 10
0.07
 20
-0.2
 10
0.09
 20
-0.2
 10
0.09
 20
-0.8693
 10
0.07
 20
-0.8693
1001
TCAD
1000
TCW_CUSTOM_DATA
1002
{
1000
#$AUX@_ToolInfo Properties
1070
           8
1000
Insert^JLine^JRectangle@Line Rectangle
1002
}
  0
LWPOLYLINE
  5
132
100
AcDbEntity
  8
0
370
           0
  6
Continuous
 62
           7
100
AcDbPolyline
 90
        4
 70
           1
 10
0.11
 20
-0.2
 10
0.13
 20
-0.2
 10
0.13
 20
-0.8693
 10
0.11
 20
-0.8693
1001
TCAD
1000
TCW_CUSTOM_DATA
1002
{
1000
#$AUX@_ToolInfo Properties
1070
           8
1000
Insert^JLine^JRectangle@Line Rectangle
1002
}
  0
LWPOLYLINE
  5
133
100
AcDbEntity
  8
0
370
           0
  6
Continuous
 62
           7
100
AcDbPolyline
 90
        4
 70
           1
 10
0.15
 20
-0.2
 10
0.17
 20
-0.2
 10
0.17
 20
-0.8693
 10
0.15
 20
-0.8693
1001
TCAD
1000
TCW_CUSTOM_DATA
1002
{
1000
#$AUX@_ToolInfo Properties
1070
           8
1000
Insert^JLine^JRectangle@Line Rectangle
1002
}
  0
LINE
  5
134
100
AcDbEntity
  8
0
370
           0
  6
Continuous
 62
           7
100
AcDbLine
 10
-0.0492
 20
-0.8693
 30
0.0
 11
-0.0492
 21
-1.1842
 31
0.0
1001
TCAD
1000
TCW_CUSTOM_DATA
1002
{
1000
#$AUX@_ToolInfo Properties
1070
           8
1000
Insert^JLine^JSingle@Line Single
1002
}
  0
LINE
  5
135
100
AcDbEntity
  8
0
370
           0
  6
Continuous
 62
           7
100
AcDbLine
 10
0.0492
 20
-0.8693
 30
0.0
 11
0.0492
 21
-1.1842
 31
0.0
1001
TCAD
1000
TCW_CUSTOM_DATA
1002
{
1000
#$AUX@_ToolInfo Properties
1070
           8
1000
Insert^JLine^JSingle@Line Single
1002
}
  0
XLINE
  5
136
100
AcDbEntity
  8
$CONSTRUCTION
100
AcDbXline
 10
1.0
 20
-1.435020705648
 30
0.0
 11
0.0
 21
1.0
 31
0.0
1001
TCAD
1000
TCW_CUSTOM_DATA
1002
{
1000
#$AUX@_ToolInfo Properties
1070
           8
1000
Insert^JConstruction^JVerticalLine@Construction VerticalLine
1002
}
  0
XLINE
  5
137
100
AcDbEntity
  8
$CONSTRUCTION
100
AcDbXline
 10
1.6693
 20
-1.435020705648
 30
0.0
 11
0.0
 21
1.0
 31
0.0
1001
TCAD
1000
TCW_CUSTOM_DATA
1002
{
1000
#$AUX@_ToolInfo Properties
1070
           8
1000
Insert^JConstruction^JVerticalLine@Construction VerticalLine
1002
}
  0
XLINE
  5
138
100
AcDbEntity
  8
$CONSTRUCTION
100
AcDbXline
 10
1.9842
 20
-1.435020705648
 30
0.0
 11
0.0
 21
1.0
 31
0.0
1001
TCAD
1000
TCW_CUSTOM_DATA
1002
{
1000
#$AUX@_ToolInfo Properties
1070
           8
1000
Insert^JConstruction^JVerticalLine@Construction VerticalLine
1002
}
  0
XLINE
  5
139
100
AcDbEntity
  8
$CONSTRUCTION
100
AcDbXline
 10
-0.101313008841
 20
0.085216899732
 30
0.0
 11
1.0
 21
0.0
 31
0.0
1001
TCAD
1000
TCW_CUSTOM_DATA
1002
{
1000
#$AUX@_ToolInfo Properties
1070
           8
1000
Insert^JConstruction^JHorizontalLine@Construction HorizontalLine
1002
}
  0
LWPOLYLINE
  5
13A
100
AcDbEntity
  8
0
370
           0
  6
Continuous
 62
           7
100
AcDbPolyline
 90
        5
 70
           0
 10
1.6693
 20
0.085216899732
 10
1.9842
 20
0.085216899732
 10
1.9842
 20
0.9842
 10
1.6693
 20
0.9842
 10
1.6693
 20
0.085216899732
1001
TCAD
1000
TCW_CUSTOM_DATA
1002
{
1000
#$AUX@_ToolInfo Properties
1070
           8
1000
Insert^JLine^JPolyline@Line Polyline
1002
}
  0
LWPOLYLINE
  5
13B
100
AcDbEntity
  8
0
370
           0
  6
Continuous
 62
           7
100
AcDbPolyline
 90
        4
 70
           1
 10
1.6693
 20
0.1
 10
1.0
 20
0.1
 10
1.0
 20
0.12
 10
1.6693
 20
0.12
1001
TCAD
1000
TCW_CUSTOM_DATA
1002
{
1000
#$AUX@_ToolInfo Properties
1070
           8
1000
Insert^JLine^JRectangle@Line Rectangle
1002
}
  0
LWPOLYLINE
  5
13C
100
AcDbEntity
  8
0
370
           0
  6
Continuous
 62
           7
100
AcDbPolyline
 90
        4
 70
           1
 10
1.0
 20
0.16
 10
1.6693
 20
0.16
 10
1.6693
 20
0.14
 10
1.0
 20
0.14
1001
TCAD
1000
TCW_CUSTOM_DATA
1002
{
1000
#$AUX@_ToolInfo Properties
1070
           8
1000
Insert^JLine^JRectangle@Line Rectangle
1002
}
  0
LWPOLYLINE
  5
13D
100
AcDbEntity
  8
0
370
           0
  6
Continuous
 62
           7
100
AcDbPolyline
 90
        4
 70
           1
 10
1.0
 20
0.2
 10
1.6693
 20
0.2
 10
1.6693
 20
0.18
 10
1.0
 20
0.18
1001
TCAD
1000
TCW_CUSTOM_DATA
1002
{
1000
#$AUX@_ToolInfo Properties
1070
           8
1000
Insert^JLine^JRectangle@Line Rectangle
1002
}
  0
LWPOLYLINE
  5
13E
100
AcDbEntity
  8
0
370
           0
  6
Continuous
 62
           7
100
AcDbPolyline
 90
        4
 70
           1
 10
1.0
 20
0.24
 10
1.6693
 20
0.24
 10
1.6693
 20
0.22
 10
1.0
 20
0.22
1001
TCAD
1000
TCW_CUSTOM_DATA
1002
{
1000
#$AUX@_ToolInfo Properties
1070
           8
1000
Insert^JLine^JRectangle@Line Rectangle
1002
}
  0
LWPOLYLINE
  5
13F
100
AcDbEntity
  8
0
370
           0
  6
Continuous
 62
           7
100
AcDbPolyline
 90
        4
 70
           1
 10
1.6693
 20
0.26
 10
1.0
 20
0.26
 10
1.0
 20
0.28
 10
1.6693
 20
0.28
1001
TCAD
1000
TCW_CUSTOM_DATA
1002
{
1000
#$AUX@_ToolInfo Properties
1070
           8
1000
Insert^JLine^JRectangle@Line Rectangle
1002
}
  0
LWPOLYLINE
  5
140
100
AcDbEntity
  8
0
370
           0
  6
Continuous
 62
           7
100
AcDbPolyline
 90
        4
 70
           1
 10
1.0
 20
0.32
 10
1.6693
 20
0.32
 10
1.6693
 20
0.3
 10
1.0
 20
0.3
1001
TCAD
1000
TCW_CUSTOM_DATA
1002
{
1000
#$AUX@_ToolInfo Properties
1070
           8
1000
Insert^JLine^JRectangle@Line Rectangle
1002
}
  0
CIRCLE
  5
141
100
AcDbEntity
  8
$CONSTRUCTION
370
           0
100
AcDbCircle
 10
0.0
 20
0.0
 30
0.0
 40
0.8
1001
TCAD
1000
TCW_CUSTOM_DATA
1002
{
1000
#$AUX@_ToolInfo Properties
1070
           8
1000
Insert^JConstruction^JCenterAndPointCircle@Construction CenterAndPointCircle
1002
}
  0
DIMENSION
  5
150
100
AcDbEntity
  8
0
  6
Continuous
 62
           7
100
AcDbDimension
  2
*D3
 10
0.4921
 20
-0.154836522559
 30
0.0
 11
-0.0
 21
-0.084836523453
 31
0.0
 70
           1
 71
           5
 72
           1
 41
1.0
 42
0.0
  1
<0.9842>
  3
STANDARD
100
AcDbAlignedDimension
 13
-0.4921
 23
-0.8693
 33
0.0
 14
0.4921
 24
-0.8693
 34
0.0
1001
TCAD
1000
TCW_CUSTOM_DATA
1002
{
1000
#$AUX@_ToolInfo Properties
1070
           8
1000
Insert^JDimension^JParallel@Dimension Parallel
1002
}
1001
ACAD
1000
DSTYLE
1002
{
1070
         285
1070
           0
1070
          41
1040
0.1
1070
         179
1070
           2
1070
         271
1070
           4
1070
         147
1040
0.03
1070
           3
1000
<>"
1070
          45
1040
0.0001
1070
         272
1070
           4
1070
         172
1070
           0
1070
         140
1040
0.048
1070
          78
1070
           8
1002
}
  0
XLINE
  5
151
100
AcDbEntity
  8
$CONSTRUCTION
100
AcDbXline
 10
-0.202626017681
 20
0.32
 30
0.0
 11
1.0
 21
0.0
 31
0.0
1001
TCAD
1000
TCW_CUSTOM_DATA
1002
{
1000
#$AUX@_ToolInfo Properties
1070
           8
1000
Insert^JConstruction^JHorizontalLine@Construction HorizontalLine
1002
}
  0
DIMENSION
  5
161
100
AcDbEntity
  8
0
  6
Continuous
 62
           7
100
AcDbDimension
  2
*D4
 10
-0.604592939923
 20
0.32
 30
0.0
 11
-0.604592939923
 21
0.16
 31
0.0
 70
           1
 71
           5
 72
           1
 41
1.0
 42
0.0
  1
<0.32>
  3
STANDARD
100
AcDbAlignedDimension
 13
0.0
 23
-0.0
 33
0.0
 14
0.0
 24
0.32
 34
0.0
 50
90.0
1001
TCAD
1000
TCW_CUSTOM_DATA
1002
{
1000
#$AUX@_ToolInfo Properties
1070
           8
1000
Insert^JDimension^JParallel@Dimension Parallel
1002
}
1001
ACAD
1000
DSTYLE
1002
{
1070
         285
1070
           0
1070
          41
1040
0.1
1070
         179
1070
           2
1070
         271
1070
           4
1070
         147
1040
0.04
1070
           3
1000
<>"
1070
          45
1040
0.0001
1070
          77
1070
           0
1070
         272
1070
           4
1070
         174
1070
           1
1070
         172
1070
           0
1070
         140
1040
0.048
1070
          78
1070
           8
1002
}
  0
DIMENSION
  5
16C
100
AcDbEntity
  8
0
  6
Continuous
 62
           7
100
AcDbDimension
  2
*D5
 10
0.0
 20
0.0
 30
0.0
 11
0.641943928254
 21
0.458143346026
 31
0.0
 70
           4
 71
           5
 72
           1
 41
1.0
 42
0.0
  1
<R0.0984>
  3
STANDARD
100
AcDbRadialDimension
 15
0.076262983985
 25
0.062181325764
 35
0.0
 40
0.5
1001
TCAD
1000
TCW_CUSTOM_DATA
1002
{
1000
#$AUX@_ToolInfo Properties
1070
           8
1000
Insert^JDimension^JRadius@Dimension Radius
1002
}
1001
ACAD
1000
DSTYLE
1002
{
1070
         285
1070
           0
1070
          41
1040
0.1
1070
         179
1070
           2
1070
         271
1070
           4
1070
         147
1040
0.04
1070
           3
1000
<>"
1070
          45
1040
0.0001
1070
         272
1070
           4
1070
         140
1040
0.048
1070
          78
1070
           8
1002
}
  0
DIMENSION
  5
177
100
AcDbEntity
  8
0
  6
Continuous
 62
           7
100
AcDbDimension
  2
*D6
 10
0.0
 20
0.0
 30
0.0
 11
1.151585918236
 21
1.242061552518
 31
0.0
 70
           4
 71
           5
 72
           1
 41
1.0
 42
0.0
  1
<R0.9842>
  3
STANDARD
100
AcDbRadialDimension
 15
0.63057242847
 25
0.75566398118
 35
0.0
 40
0.5
1001
TCAD
1000
TCW_CUSTOM_DATA
1002
{
1000
#$AUX@_ToolInfo Properties
1070
           8
1000
Insert^JDimension^JRadius@Dimension Radius
1002
}
1001
ACAD
1000
DSTYLE
1002
{
1070
         285
1070
           0
1070
          41
1040
0.1
1070
         179
1070
           2
1070
         271
1070
           4
1070
           3
1000
<>"
1070
          45
1040
0.0001
1070
         272
1070
           4
1070
         172
1070
           0
1070
         140
1040
0.048
1070
          78
1070
           8
1002
}
  0
DIMENSION
  5
186
100
AcDbEntity
  8
0
  6
Continuous
 62
           7
100
AcDbDimension
  2
*D7
 10
0.018955010469
 20
1.097302235966
 30
0.0
 11
0.0
 21
1.097465940008
 31
0.0
 70
           5
 71
           5
 72
           1
 41
1.0
 42
0.0
  1
<60%%d>
  3
STANDARD
100
AcDb3PointAngularDimension
 13
0.4921
 23
0.852342202405
 33
0.0
 14
-0.4921
 24
0.852342202405
 34
0.0
 15
0.0
 25
0.0
 35
0.0
1001
TCAD
1000
TCW_CUSTOM_DATA
1002
{
1000
#$AUX@_ToolInfo Properties
1070
           8
1000
Insert^JDimension^JAngular@Dimension Angular
1002
}
1001
ACAD
1000
DSTYLE
1002
{
1070
         285
1070
           0
1070
          41
1040
0.1
1070
         179
1070
           4
1070
         147
1040
0.04
1070
          45
1040
0.0001
1070
         140
1040
0.048
1070
          78
1070
           8
1002
}
1000
TCW_DSTYLE
1002
{
1070
           0
1002
}
  0
DIMENSION
  5
195
100
AcDbEntity
  8
0
  6
Continuous
 62
           7
100
AcDbDimension
  2
*D8
 10
-0.483849258423
 20
1.191663508651
 30
0.0
 11
-0.513617110825
 21
1.239981394821
 31
0.0
 70
           5
 71
           5
 72
           1
 41
1.0
 42
0.0
  1
<15%%d>
  3
STANDARD
100
AcDb3PointAngularDimension
 13
-0.4921
 23
0.852342202405
 33
0.0
 14
-0.254380605983
 24
0.94936134599
 34
0.0
 15
0.0
 25
0.0
 35
0.0
1001
TCAD
1000
TCW_CUSTOM_DATA
1002
{
1000
#$AUX@_ToolInfo Properties
1070
           8
1000
Insert^JDimension^JAngular@Dimension Angular
1002
}
1001
ACAD
1000
DSTYLE
1002
{
1070
         285
1070
           0
1070
          41
1040
0.1
1070
         179
1070
           2
1070
          77
1070
           0
1070
         145
1040
0.7
1070
         140
1040
0.048
1070
          78
1070
           8
1002
}
1000
TCW_DSTYLE
1002
{
1070
           0
1002
}
  0
ARC
  5
196
100
AcDbEntity
  8
0
370
           0
  6
BORDER
 62
           7
 48
0.300000011921
100
AcDbCircle
 10
0.0
 20
0.0
 30
0.0
 40
0.9842
100
AcDbArc
 50
35.77692546888
 51
60.0
1001
TCAD
1000
TCW_CUSTOM_DATA
1002
{
1000
#$AUX@_ToolInfo Properties
1070
           8
1000
Insert^JArc^JCenterAndPoint@Arc CenterAndPoint
1002
}
  0
ARC
  5
197
100
AcDbEntity
  8
0
370
           0
  6
BORDER
 62
           7
 48
0.300000011921
100
AcDbCircle
 10
0.0
 20
0.0
 30
0.0
 40
0.0984
100
AcDbArc
 50
16.255659916935
 51
60.0
1001
TCAD
1000
TCW_CUSTOM_DATA
1002
{
1000
#$AUX@_ToolInfo Properties
1070
           8
1000
Insert^JArc^JCenterAndPoint@Arc CenterAndPoint
1002
}
  0
LINE
  5
198
100
AcDbEntity
  8
0
370
           0
  6
BORDER
 62
           7
 48
0.300000011921
100
AcDbLine
 10
0.0
 20
0.0
 30
0.0
 11
-0.270556796302
 21
1.009731710133
 31
0.0
1001
TCAD
1000
TCW_CUSTOM_DATA
1002
{
1000
#$AUX@_ToolInfo Properties
1070
           8
1000
Insert^JLine^JSingle@Line Single
1002
}
  0
DIMENSION
  5
1A7
100
AcDbEntity
  8
0
  6
Continuous
 62
           7
100
AcDbDimension
  2
*D9
 10
1.6693
 20
-0.079022710323
 30
0.0
 11
1.33465
 21
0.000977288783
 31
0.0
 70
           1
 71
           5
 72
           1
 41
1.0
 42
0.0
  1
<0.6693>
  3
STANDARD
100
AcDbAlignedDimension
 13
1.0
 23
0.1
 33
0.0
 14
1.6693
 24
0.1
 34
0.0
1001
TCAD
1000
TCW_CUSTOM_DATA
1002
{
1000
#$AUX@_ToolInfo Properties
1070
           8
1000
Insert^JDimension^JParallel@Dimension Parallel
1002
}
1001
ACAD
1000
DSTYLE
1002
{
1070
         285
1070
           0
1070
          41
1040
0.1
1070
         179
1070
           2
1070
         271
1070
           4
1070
         147
1040
0.04
1070
           3
1000
<>"
1070
          45
1040
0.0001
1070
         272
1070
           4
1070
         172
1070
           0
1070
         140
1040
0.048
1070
          78
1070
           8
1002
}
  0
DIMENSION
  5
1B6
100
AcDbEntity
  8
0
  6
Continuous
 62
           7
100
AcDbDimension
  2
*D10
 10
1.9842
 20
-0.37578207481
 30
0.0
 11
1.4921
 21
-0.295782075704
 31
0.0
 70
           1
 71
           5
 72
           1
 41
1.0
 42
0.0
  1
<0.9842>
  3
STANDARD
100
AcDbAlignedDimension
 13
1.0
 23
0.085216899732
 33
0.0
 14
1.9842
 24
0.085216899732
 34
0.0
1001
TCAD
1000
TCW_CUSTOM_DATA
1002
{
1000
#$AUX@_ToolInfo Properties
1070
           8
1000
Insert^JDimension^JParallel@Dimension Parallel
1002
}
1001
ACAD
1000
DSTYLE
1002
{
1070
         285
1070
           0
1070
          41
1040
0.1
1070
         179
1070
           2
1070
         271
1070
           4
1070
         147
1040
0.04
1070
           3
1000
<>"
1070
          45
1040
0.0001
1070
         272
1070
           4
1070
         172
1070
           0
1070
         140
1040
0.048
1070
          78
1070
           8
1002
}
  0
DIMENSION
  5
1C7
100
AcDbEntity
  8
0
  6
Continuous
 62
           7
100
AcDbDimension
  2
*D11
 10
1.9842
 20
1.343690003297
 30
0.0
 11
1.82675
 21
1.423690002403
 31
0.0
 70
           1
 71
           5
 72
           1
 41
1.0
 42
0.0
  1
<0.3149>
  3
STANDARD
100
AcDbAlignedDimension
 13
1.6693
 23
0.9842
 33
0.0
 14
1.9842
 24
0.9842
 34
0.0
1001
TCAD
1000
TCW_CUSTOM_DATA
1002
{
1000
#$AUX@_ToolInfo Properties
1070
           8
1000
Insert^JDimension^JParallel@Dimension Parallel
1002
}
1001
ACAD
1000
DSTYLE
1002
{
1070
         285
1070
           0
1070
          41
1040
0.1
1070
         179
1070
           2
1070
         271
1070
           4
1070
          43
1040
0.0
1070
          42
1040
0.0625
1070
         147
1040
0.04
1070
           3
1000
<>"
1070
          45
1040
0.0001
1070
         272
1070
           4
1070
         174
1070
           1
1070
         140
1040
0.048
1070
          78
1070
           8
1002
}
  0
CIRCLE
  5
1C8
100
AcDbEntity
  8
0
370
           0
  6
Continuous
 62
           7
100
AcDbCircle
 10
-0.207055236082
 20
0.772740661031
 30
0.0
 40
0.054
1001
TCAD
1000
TCW_CUSTOM_DATA
1002
{
1000
#$AUX@_ToolInfo Properties
1070
           8
1000
Insert^JCircle^JCenterAndPoint@Circle CenterAndPoint
1002
}
  0
CIRCLE
  5
1C9
100
AcDbEntity
  8
0
370
           0
  6
Continuous
 62
           7
100
AcDbCircle
 10
0.207055236082
 20
0.772740661031
 30
0.0
 40
0.054
1001
TCAD
1000
TCW_CUSTOM_DATA
1002
{
1000
#$AUX@_ToolInfo Properties
1070
           8
1000
Insert^JCircle^JCenterAndPoint@Circle CenterAndPoint
1002
}
  0
LINE
  5
1CA
100
AcDbEntity
  8
0
370
           0
  6
DASHED
 62
           7
 48
0.300000011921
100
AcDbLine
 10
-0.26104778305
 20
-0.8693
 30
0.0
 11
-0.26104778305
 21
-1.1842
 31
0.0
1001
TCAD
1000
TCW_CUSTOM_DATA
1002
{
1000
#$AUX@_ToolInfo Properties
1070
           8
1000
Insert^JLine^JSingle@Line Single
1002
}
  0
LINE
  5
1CB
100
AcDbEntity
  8
0
370
           0
  6
DASHED
 62
           7
 48
0.300000011921
100
AcDbLine
 10
-0.153079017387
 20
-0.8693
 30
0.0
 11
-0.153079017387
 21
-1.1842
 31
0.0
1001
TCAD
1000
TCW_CUSTOM_DATA
1002
{
1000
#$AUX@_ToolInfo Properties
1070
           8
1000
Insert^JLine^JSingle@Line Single
1002
}
  0
LINE
  5
1CC
102
{ACAD_REACTORS
330
1DB
102
}
100
AcDbEntity
  8
0
370
           0
  6
Continuous
 62
           7
100
AcDbLine
 10
-0.2509
 20
-0.88
 30
0.0
 11
-0.1629
 21
-0.88
 31
0.0
1001
TCAD
1000
TCW_CUSTOM_DATA
1002
{
1000
#$AUX@_ToolInfo Properties
1070
           8
1000
Insert^JLine^JSingle@Line Single
1002
}
  0
LINE
  5
1CD
102
{ACAD_REACTORS
330
1DB
102
}
100
AcDbEntity
  8
0
370
           0
  6
Continuous
 62
           7
100
AcDbLine
 10
-0.2409
 20
-0.9
 30
0.0
 11
-0.1729
 21
-0.9
 31
0.0
1001
TCAD
1000
TCW_CUSTOM_DATA
1002
{
1000
#$AUX@_ToolInfo Properties
1070
           8
1000
Insert^JLine^JSingle@Line Single
1002
}
  0
LINE
  5
1CE
102
{ACAD_REACTORS
330
1DB
102
}
100
AcDbEntity
  8
0
370
           0
  6
Continuous
 62
           7
100
AcDbLine
 10
-0.1629
 20
-0.92
 30
0.0
 11
-0.2509
 21
-0.92
 31
0.0
1001
TCAD
1000
TCW_CUSTOM_DATA
1002
{
1000
#$AUX@_ToolInfo Properties
1070
           8
1000
Insert^JLine^JSingle@Line Single
1002
}
  0
LINE
  5
1CF
102
{ACAD_REACTORS
330
1DB
102
}
100
AcDbEntity
  8
0
370
           0
  6
Continuous
 62
           7
100
AcDbLine
 10
-0.2409
 20
-0.94
 30
0.0
 11
-0.1729
 21
-0.94
 31
0.0
1001
TCAD
1000
TCW_CUSTOM_DATA
1002
{
1000
#$AUX@_ToolInfo Properties
1070
           8
1000
Insert^JLine^JSingle@Line Single
1002
}
  0
LINE
  5
1D0
102
{ACAD_REACTORS
330
1DB
102
}
100
AcDbEntity
  8
0
370
           0
  6
Continuous
 62
           7
100
AcDbLine
 10
-0.1629
 20
-0.96
 30
0.0
 11
-0.2509
 21
-0.96
 31
0.0
1001
TCAD
1000
TCW_CUSTOM_DATA
1002
{
1000
#$AUX@_ToolInfo Properties
1070
           8
1000
Insert^JLine^JSingle@Line Single
1002
}
  0
LINE
  5
1D1
102
{ACAD_REACTORS
330
1DB
102
}
100
AcDbEntity
  8
0
370
           0
  6
Continuous
 62
           7
100
AcDbLine
 10
-0.2409
 20
-0.98
 30
0.0
 11
-0.1729
 21
-0.98
 31
0.0
1001
TCAD
1000
TCW_CUSTOM_DATA
1002
{
1000
#$AUX@_ToolInfo Properties
1070
           8
1000
Insert^JLine^JSingle@Line Single
1002
}
  0
LINE
  5
1D2
102
{ACAD_REACTORS
330
1DB
102
}
100
AcDbEntity
  8
0
370
           0
  6
Continuous
 62
           7
100
AcDbLine
 10
-0.2509
 20
-1.0
 30
0.0
 11
-0.1629
 21
-1.0
 31
0.0
1001
TCAD
1000
TCW_CUSTOM_DATA
1002
{
1000
#$AUX@_ToolInfo Properties
1070
           8
1000
Insert^JLine^JSingle@Line Single
1002
}
  0
LINE
  5
1D3
102
{ACAD_REACTORS
330
1DB
102
}
100
AcDbEntity
  8
0
370
           0
  6
Continuous
 62
           7
100
AcDbLine
 10
-0.2409
 20
-1.02
 30
0.0
 11
-0.1729
 21
-1.02
 31
0.0
1001
TCAD
1000
TCW_CUSTOM_DATA
1002
{
1000
#$AUX@_ToolInfo Properties
1070
           8
1000
Insert^JLine^JSingle@Line Single
1002
}
  0
LINE
  5
1D4
102
{ACAD_REACTORS
330
1DB
102
}
100
AcDbEntity
  8
0
370
           0
  6
Continuous
 62
           7
100
AcDbLine
 10
-0.1629
 20
-1.04
 30
0.0
 11
-0.2509
 21
-1.04
 31
0.0
1001
TCAD
1000
TCW_CUSTOM_DATA
1002
{
1000
#$AUX@_ToolInfo Properties
1070
           8
1000
Insert^JLine^JSingle@Line Single
1002
}
  0
LINE
  5
1D5
102
{ACAD_REACTORS
330
1DB
102
}
100
AcDbEntity
  8
0
370
           0
  6
Continuous
 62
           7
100
AcDbLine
 10
-0.1729
 20
-1.06
 30
0.0
 11
-0.2409
 21
-1.06
 31
0.0
1001
TCAD
1000
TCW_CUSTOM_DATA
1002
{
1000
#$AUX@_ToolInfo Properties
1070
           8
1000
Insert^JLine^JSingle@Line Single
1002
}
  0
LINE
  5
1D6
102
{ACAD_REACTORS
330
1DB
102
}
100
AcDbEntity
  8
0
370
           0
  6
Continuous
 62
           7
100
AcDbLine
 10
-0.2509
 20
-1.08
 30
0.0
 11
-0.1629
 21
-1.08
 31
0.0
1001
TCAD
1000
TCW_CUSTOM_DATA
1002
{
1000
#$AUX@_ToolInfo Properties
1070
           8
1000
Insert^JLine^JSingle@Line Single
1002
}
  0
LINE
  5
1D7
102
{ACAD_REACTORS
330
1DB
102
}
100
AcDbEntity
  8
0
370
           0
  6
Continuous
 62
           7
100
AcDbLine
 10
-0.2409
 20
-1.1
 30
0.0
 11
-0.1729
 21
-1.1
 31
0.0
1001
TCAD
1000
TCW_CUSTOM_DATA
1002
{
1000
#$AUX@_ToolInfo Properties
1070
           8
1000
Insert^JLine^JSingle@Line Single
1002
}
  0
LINE
  5
1D8
102
{ACAD_REACTORS
330
1DB
102
}
100
AcDbEntity
  8
0
370
           0
  6
Continuous
 62
           7
100
AcDbLine
 10
-0.1629
 20
-1.12
 30
0.0
 11
-0.2509
 21
-1.12
 31
0.0
1001
TCAD
1000
TCW_CUSTOM_DATA
1002
{
1000
#$AUX@_ToolInfo Properties
1070
           8
1000
Insert^JLine^JSingle@Line Single
1002
}
  0
LINE
  5
1D9
102
{ACAD_REACTORS
330
1DB
102
}
100
AcDbEntity
  8
0
370
           0
  6
Continuous
 62
           7
100
AcDbLine
 10
-0.2409
 20
-1.14
 30
0.0
 11
-0.1729
 21
-1.14
 31
0.0
1001
TCAD
1000
TCW_CUSTOM_DATA
1002
{
1000
#$AUX@_ToolInfo Properties
1070
           8
1000
Insert^JLine^JSingle@Line Single
1002
}
  0
LINE
  5
1DA
102
{ACAD_REACTORS
330
1DB
102
}
100
AcDbEntity
  8
0
370
           0
  6
Continuous
 62
           7
100
AcDbLine
 10
-0.2509
 20
-1.16
 30
0.0
 11
-0.1629
 21
-1.16
 31
0.0
1001
TCAD
1000
TCW_CUSTOM_DATA
1002
{
1000
#$AUX@_ToolInfo Properties
1070
           8
1000
Insert^JLine^JSingle@Line Single
1002
}
  0
LINE
  5
1DC
100
AcDbEntity
  8
0
370
           0
  6
DASHED
 62
           7
 48
0.300000011921
100
AcDbLine
 10
0.153055354244
 20
-0.8693
 30
0.0
 11
0.153055354244
 21
-1.1842
 31
0.0
1001
TCAD
1000
TCW_CUSTOM_DATA
1002
{
1000
#$AUX@_ToolInfo Properties
1070
           8
1000
Insert^JLine^JSingle@Line Single
1002
}
  0
LINE
  5
1DD
100
AcDbEntity
  8
0
370
           0
  6
DASHED
 62
           7
 48
0.300000011921
100
AcDbLine
 10
0.26104619825
 20
-1.1842
 30
0.0
 11
0.26104619825
 21
-0.8693
 31
0.0
1001
TCAD
1000
TCW_CUSTOM_DATA
1002
{
1000
#$AUX@_ToolInfo Properties
1070
           8
1000
Insert^JLine^JSingle@Line Single
1002
}
  0
LINE
  5
1DE
102
{ACAD_REACTORS
330
1ED
102
}
100
AcDbEntity
  8
0
370
           0
  6
Continuous
 62
           7
100
AcDbLine
 10
0.2509
 20
-0.88
 30
0.0
 11
0.1629
 21
-0.88
 31
0.0
1001
TCAD
1000
TCW_CUSTOM_DATA
1002
{
1000
#$AUX@_ToolInfo Properties
1070
           8
1000
Insert^JLine^JSingle@Line Single
1002
}
  0
LINE
  5
1DF
102
{ACAD_REACTORS
330
1ED
102
}
100
AcDbEntity
  8
0
370
           0
  6
Continuous
 62
           7
100
AcDbLine
 10
0.2409
 20
-0.9
 30
0.0
 11
0.1729
 21
-0.9
 31
0.0
1001
TCAD
1000
TCW_CUSTOM_DATA
1002
{
1000
#$AUX@_ToolInfo Properties
1070
           8
1000
Insert^JLine^JSingle@Line Single
1002
}
  0
LINE
  5
1E0
102
{ACAD_REACTORS
330
1ED
102
}
100
AcDbEntity
  8
0
370
           0
  6
Continuous
 62
           7
100
AcDbLine
 10
0.1629
 20
-0.92
 30
0.0
 11
0.2509
 21
-0.92
 31
0.0
1001
TCAD
1000
TCW_CUSTOM_DATA
1002
{
1000
#$AUX@_ToolInfo Properties
1070
           8
1000
Insert^JLine^JSingle@Line Single
1002
}
  0
LINE
  5
1E1
102
{ACAD_REACTORS
330
1ED
102
}
100
AcDbEntity
  8
0
370
           0
  6
Continuous
 62
           7
100
AcDbLine
 10
0.2409
 20
-0.94
 30
0.0
 11
0.1729
 21
-0.94
 31
0.0
1001
TCAD
1000
TCW_CUSTOM_DATA
1002
{
1000
#$AUX@_ToolInfo Properties
1070
           8
1000
Insert^JLine^JSingle@Line Single
1002
}
  0
LINE
  5
1E2
102
{ACAD_REACTORS
330
1ED
102
}
100
AcDbEntity
  8
0
370
           0
  6
Continuous
 62
           7
100
AcDbLine
 10
0.1629
 20
-0.96
 30
0.0
 11
0.2509
 21
-0.96
 31
0.0
1001
TCAD
1000
TCW_CUSTOM_DATA
1002
{
1000
#$AUX@_ToolInfo Properties
1070
           8
1000
Insert^JLine^JSingle@Line Single
1002
}
  0
LINE
  5
1E3
102
{ACAD_REACTORS
330
1ED
102
}
100
AcDbEntity
  8
0
370
           0
  6
Continuous
 62
           7
100
AcDbLine
 10
0.2409
 20
-0.98
 30
0.0
 11
0.1729
 21
-0.98
 31
0.0
1001
TCAD
1000
TCW_CUSTOM_DATA
1002
{
1000
#$AUX@_ToolInfo Properties
1070
           8
1000
Insert^JLine^JSingle@Line Single
1002
}
  0
LINE
  5
1E4
102
{ACAD_REACTORS
330
1ED
102
}
100
AcDbEntity
  8
0
370
           0
  6
Continuous
 62
           7
100
AcDbLine
 10
0.2509
 20
-1.0
 30
0.0
 11
0.1629
 21
-1.0
 31
0.0
1001
TCAD
1000
TCW_CUSTOM_DATA
1002
{
1000
#$AUX@_ToolInfo Properties
1070
           8
1000
Insert^JLine^JSingle@Line Single
1002
}
  0
LINE
  5
1E5
102
{ACAD_REACTORS
330
1ED
102
}
100
AcDbEntity
  8
0
370
           0
  6
Continuous
 62
           7
100
AcDbLine
 10
0.2409
 20
-1.02
 30
0.0
 11
0.1729
 21
-1.02
 31
0.0
1001
TCAD
1000
TCW_CUSTOM_DATA
1002
{
1000
#$AUX@_ToolInfo Properties
1070
           8
1000
Insert^JLine^JSingle@Line Single
1002
}
  0
LINE
  5
1E6
102
{ACAD_REACTORS
330
1ED
102
}
100
AcDbEntity
  8
0
370
           0
  6
Continuous
 62
           7
100
AcDbLine
 10
0.1629
 20
-1.04
 30
0.0
 11
0.2509
 21
-1.04
 31
0.0
1001
TCAD
1000
TCW_CUSTOM_DATA
1002
{
1000
#$AUX@_ToolInfo Properties
1070
           8
1000
Insert^JLine^JSingle@Line Single
1002
}
  0
LINE
  5
1E7
102
{ACAD_REACTORS
330
1ED
102
}
100
AcDbEntity
  8
0
370
           0
  6
Continuous
 62
           7
100
AcDbLine
 10
0.1729
 20
-1.06
 30
0.0
 11
0.2409
 21
-1.06
 31
0.0
1001
TCAD
1000
TCW_CUSTOM_DATA
1002
{
1000
#$AUX@_ToolInfo Properties
1070
           8
1000
Insert^JLine^JSingle@Line Single
1002
}
  0
LINE
  5
1E8
102
{ACAD_REACTORS
330
1ED
102
}
100
AcDbEntity
  8
0
370
           0
  6
Continuous
 62
           7
100
AcDbLine
 10
0.2509
 20
-1.08
 30
0.0
 11
0.1629
 21
-1.08
 31
0.0
1001
TCAD
1000
TCW_CUSTOM_DATA
1002
{
1000
#$AUX@_ToolInfo Properties
1070
           8
1000
Insert^JLine^JSingle@Line Single
1002
}
  0
LINE
  5
1E9
102
{ACAD_REACTORS
330
1ED
102
}
100
AcDbEntity
  8
0
370
           0
  6
Continuous
 62
           7
100
AcDbLine
 10
0.2409
 20
-1.1
 30
0.0
 11
0.1729
 21
-1.1
 31
0.0
1001
TCAD
1000
TCW_CUSTOM_DATA
1002
{
1000
#$AUX@_ToolInfo Properties
1070
           8
1000
Insert^JLine^JSingle@Line Single
1002
}
  0
LINE
  5
1EA
102
{ACAD_REACTORS
330
1ED
102
}
100
AcDbEntity
  8
0
370
           0
  6
Continuous
 62
           7
100
AcDbLine
 10
0.1629
 20
-1.12
 30
0.0
 11
0.2509
 21
-1.12
 31
0.0
1001
TCAD
1000
TCW_CUSTOM_DATA
1002
{
1000
#$AUX@_ToolInfo Properties
1070
           8
1000
Insert^JLine^JSingle@Line Single
1002
}
  0
LINE
  5
1EB
102
{ACAD_REACTORS
330
1ED
102
}
100
AcDbEntity
  8
0
370
           0
  6
Continuous
 62
           7
100
AcDbLine
 10
0.2409
 20
-1.14
 30
0.0
 11
0.1729
 21
-1.14
 31
0.0
1001
TCAD
1000
TCW_CUSTOM_DATA
1002
{
1000
#$AUX@_ToolInfo Properties
1070
           8
1000
Insert^JLine^JSingle@Line Single
1002
}
  0
LINE
  5
1EC
102
{ACAD_REACTORS
330
1ED
102
}
100
AcDbEntity
  8
0
370
           0
  6
Continuous
 62
           7
100
AcDbLine
 10
0.2509
 20
-1.16
 30
0.0
 11
0.1629
 21
-1.16
 31
0.0
1001
TCAD
1000
TCW_CUSTOM_DATA
1002
{
1000
#$AUX@_ToolInfo Properties
1070
           8
1000
Insert^JLine^JSingle@Line Single
1002
}
  0
DIMENSION
  5
1FE
100
AcDbEntity
  8
0
  6
Continuous
 62
           7
100
AcDbDimension
  2
*D12
 10
0.0492
 20
-1.326204639591
 30
0.0
 11
-0.0
 21
-1.254554638632
 31
0.0
 70
           1
 71
           5
 72
           1
 41
1.0
 42
0.0
  1
<0.0984>
  3
STANDARD
100
AcDbAlignedDimension
 13
-0.0492
 23
-1.1842
 33
0.0
 14
0.0492
 24
-1.1842
 34
0.0
1001
TCAD
1000
TCW_CUSTOM_DATA
1002
{
1000
#$AUX@_ToolInfo Properties
1070
           8
1000
Insert^JDimension^JParallel@Dimension Parallel
1002
}
1001
ACAD
1000
DSTYLE
1002
{
1070
         285
1070
           0
1070
          41
1040
0.1
1070
         179
1070
           2
1070
         271
1070
           4
1070
         147
1040
0.03
1070
           3
1000
<>"
1070
          45
1040
0.0001
1070
         272
1070
           4
1070
         174
1070
           1
1070
         140
1040
0.04998
1070
          78
1070
           8
1002
}
  0
DIMENSION
  5
20F
100
AcDbEntity
  8
0
  6
Continuous
 62
           7
100
AcDbDimension
  2
*D13
 10
0.207055236082
 20
-1.586951730987
 30
0.0
 11
-0.0
 21
-1.515301730028
 31
0.0
 70
           1
 71
           5
 72
           1
 41
1.0
 42
0.0
  1
<0.4141>
  3
STANDARD
100
AcDbAlignedDimension
 13
-0.207055236082
 23
-1.1842
 33
0.0
 14
0.207055236082
 24
-1.1842
 34
0.0
1001
TCAD
1000
TCW_CUSTOM_DATA
1002
{
1000
#$AUX@_ToolInfo Properties
1070
           8
1000
Insert^JDimension^JParallel@Dimension Parallel
1002
}
1001
ACAD
1000
DSTYLE
1002
{
1070
         285
1070
           0
1070
          41
1040
0.1
1070
         179
1070
           2
1070
         271
1070
           4
1070
         147
1040
0.03
1070
           3
1000
<>"
1070
          45
1040
0.0001
1070
         272
1070
           4
1070
         174
1070
           1
1070
         140
1040
0.04998
1070
          78
1070
           8
1002
}
  0
DIMENSION
  5
21A
100
AcDbEntity
  8
0
  6
Continuous
 62
           7
100
AcDbDimension
  2
*D14
 10
0.207055236082
 20
0.772740661031
 30
0.0
 11
0.964666273502
 21
1.543007283979
 31
0.0
 70
           4
 71
           5
 72
           1
 41
1.0
 42
0.0
  1
two 4/40 threaded through holes ^M^Jon a 1.6" diameter bolt circle 
  3
STANDARD
100
AcDbRadialDimension
 15
0.224995547968
 25
0.823673412866
 35
0.0
 40
0.642706788021
1001
TCAD
1000
TCW_CUSTOM_DATA
1002
{
1000
#$AUX@_ToolInfo Properties
1070
           8
1000
Insert^JDimension^JRadius@Dimension Radius
1002
}
1001
ACAD
1000
DSTYLE
1002
{
1070
         285
1070
           0
1070
          41
1040
0.1
1070
         179
1070
           2
1070
         271
1070
           4
1070
         147
1040
0.03
1070
           3
1000
<>"
1070
          45
1040
0.0001
1070
         272
1070
           4
1070
         140
1040
0.04998
1070
          78
1070
           8
1002
}
  0
CIRCLE
  5
21B
100
AcDbEntity
  8
0
370
           0
  6
Continuous
 62
           7
100
AcDbCircle
 10
0.02
 20
0.25
 30
0.0
 40
0.046109321944
1001
TCAD
1000
TCW_CUSTOM_DATA
1002
{
1000
#$AUX@_ToolInfo Properties
1070
           8
1000
Insert^JCircle^JCenterAndPoint@Circle CenterAndPoint
1002
}
  0
LWPOLYLINE
  5
21C
100
AcDbEntity
  8
0
370
           0
  6
Continuous
 62
           7
100
AcDbPolyline
 90
        4
 70
           1
 10
-1.270735893588
 20
1.029000518032
 10
-1.170735893588
 20
1.029000518032
 10
-1.170735893588
 20
0.929000518032
 10
-1.270735893588
 20
0.929000518032
1001
TCAD
1000
TCW_CUSTOM_DATA
1002
{
1000
#$AUX@_ToolInfo Properties
1070
           8
1000
Insert^JLine^JRectangle@Line Rectangle
1002
}
  0
LWPOLYLINE
  5
21D
100
AcDbEntity
  8
0
370
           0
  6
Continuous
 62
           7
100
AcDbPolyline
 90
        4
 70
           1
 10
-1.070735893588
 20
1.029000518032
 10
-0.970735893588
 20
1.029000518032
 10
-0.970735893588
 20
0.929000518032
 10
-1.070735893588
 20
0.929000518032
1001
TCAD
1000
TCW_CUSTOM_DATA
1002
{
1000
#$AUX@_ToolInfo Properties
1070
           8
1000
Insert^JLine^JRectangle@Line Rectangle
1002
}
  0
LWPOLYLINE
  5
21E
100
AcDbEntity
  8
0
370
           0
  6
Continuous
 62
           7
100
AcDbPolyline
 90
        4
 70
           1
 10
-1.070735893588
 20
0.829000518032
 10
-0.970735893588
 20
0.829000518032
 10
-0.970735893588
 20
0.729000518032
 10
-1.070735893588
 20
0.729000518032
1001
TCAD
1000
TCW_CUSTOM_DATA
1002
{
1000
#$AUX@_ToolInfo Properties
1070
           8
1000
Insert^JLine^JRectangle@Line Rectangle
1002
}
  0
LWPOLYLINE
  5
21F
100
AcDbEntity
  8
0
370
           0
  6
Continuous
 62
           7
100
AcDbPolyline
 90
        4
 70
           1
 10
-1.270735893588
 20
0.829000518032
 10
-1.170735893588
 20
0.829000518032
 10
-1.170735893588
 20
0.729000518032
 10
-1.270735893588
 20
0.729000518032
1001
TCAD
1000
TCW_CUSTOM_DATA
1002
{
1000
#$AUX@_ToolInfo Properties
1070
           8
1000
Insert^JLine^JRectangle@Line Rectangle
1002
}
  0
CIRCLE
  5
220
100
AcDbEntity
  8
0
370
           0
  6
Continuous
 62
           7
100
AcDbCircle
 10
-1.120735893588
 20
0.879000518032
 30
0.0
 40
0.25
1001
TCAD
1000
TCW_CUSTOM_DATA
1002
{
1000
#$AUX@_ToolInfo Properties
1070
           8
1000
Insert^JCircle^JCenterAndPoint@Circle CenterAndPoint
1002
}
  0
DIMENSION
  5
231
100
AcDbEntity
  8
0
  6
Continuous
 62
           7
100
AcDbDimension
  2
*D15
 10
-1.462608186861
 20
0.829000518032
 30
0.0
 11
-1.462608186861
 21
0.879000518032
 31
0.0
 70
           1
 71
           5
 72
           1
 41
1.0
 42
0.0
  1
0.02"
  3
STANDARD
100
AcDbAlignedDimension
 13
-1.270735893588
 23
0.929000518032
 33
0.0
 14
-1.270735893588
 24
0.829000518032
 34
0.0
 50
-90.0
1001
TCAD
1000
TCW_CUSTOM_DATA
1002
{
1000
#$AUX@_ToolInfo Properties
1070
           8
1000
Insert^JDimension^JParallel@Dimension Parallel
1002
}
1001
ACAD
1000
DSTYLE
1002
{
1070
         285
1070
           0
1070
          41
1040
0.1
1070
         179
1070
           2
1070
         271
1070
           4
1070
         147
1040
0.03
1070
           3
1000
<>"
1070
          45
1040
0.0001
1070
         272
1070
           4
1070
         174
1070
           1
1070
         140
1040
0.02502
1070
          78
1070
           8
1002
}
  0
DIMENSION
  5
242
100
AcDbEntity
  8
0
  6
Continuous
 62
           7
100
AcDbDimension
  2
*D16
 10
-0.804358536554
 20
0.929000518032
 30
0.0
 11
-0.804358536554
 21
0.979000518032
 31
0.0
 70
           1
 71
           5
 72
           1
 41
1.0
 42
0.0
  1
0.02"
  3
STANDARD
100
AcDbAlignedDimension
 13
-0.970735893588
 23
1.029000518032
 33
0.0
 14
-0.970735893588
 24
0.929000518032
 34
0.0
 50
-90.0
1001
TCAD
1000
TCW_CUSTOM_DATA
1002
{
1000
#$AUX@_ToolInfo Properties
1070
           8
1000
Insert^JDimension^JParallel@Dimension Parallel
1002
}
1001
ACAD
1000
DSTYLE
1002
{
1070
         285
1070
           0
1070
          41
1040
0.1
1070
         179
1070
           2
1070
         271
1070
           4
1070
         147
1040
0.03
1070
           3
1000
<>"
1070
          45
1040
0.0001
1070
         272
1070
           4
1070
         174
1070
           1
1070
         140
1040
0.02502
1070
          78
1070
           8
1002
}
  0
DIMENSION
  5
253
100
AcDbEntity
  8
0
  6
Continuous
 62
           7
100
AcDbDimension
  2
*D17
 10
-1.170735893588
 20
1.196323387478
 30
0.0
 11
-1.120735893588
 21
1.247173388381
 31
0.0
 70
           1
 71
           5
 72
           1
 41
1.0
 42
0.0
  1
0.02"
  3
STANDARD
100
AcDbAlignedDimension
 13
-1.070735893588
 23
1.029000518032
 33
0.0
 14
-1.170735893588
 24
1.029000518032
 34
0.0
 50
180.0
1001
TCAD
1000
TCW_CUSTOM_DATA
1002
{
1000
#$AUX@_ToolInfo Properties
1070
           8
1000
Insert^JDimension^JParallel@Dimension Parallel
1002
}
1001
ACAD
1000
DSTYLE
1002
{
1070
         285
1070
           0
1070
          41
1040
0.1
1070
         179
1070
           2
1070
         271
1070
           4
1070
         147
1040
0.03
1070
           3
1000
<>"
1070
          45
1040
0.0001
1070
         272
1070
           4
1070
         174
1070
           1
1070
         140
1040
0.02502
1070
          78
1070
           8
1002
}
  0
LEADER
  5
254
100
AcDbEntity
  8
0
370
           0
  6
Continuous
 62
           7
100
AcDbLeader
  3
STANDARD
 73
           3
 74
           0
 75
           0
 40
0.0
 76
           5
 10
-0.108417937129
 20
0.319690511424
 30
0.0
 10
-0.020526257516
 20
0.271992999385
 30
0.0
 10
-0.102217260564
 20
0.331116429774
 30
0.0
 10
-0.114618613694
 20
0.308264593074
 30
0.0
 10
-0.020526257516
 20
0.271992999385
 30
0.0
 77
           7
211
0.0001
221
0.0
231
0.0
1001
TCAD
1000
TCW_CUSTOM_DATA
1002
{
1000
#$AUX@_ToolInfo Properties
1070
           8
1000
Insert^JDimension^JLeader@Dimension Leader
1002
}
1001
ACAD
1000
DSTYLE
1002
{
1070
         285
1070
           0
1070
          41
1040
0.1
1070
         179
1070
           2
1070
         271
1070
           4
1070
         147
1040
0.03
1070
           3
1000
<>"
1070
          45
1040
0.0001
1070
         272
1070
           4
1070
         174
1070
           1
1070
         140
1040
0.03336
1070
          78
1070
           8
1002
}
  0
DIMENSION
  5
265
100
AcDbEntity
  8
0
  6
Continuous
 62
           7
100
AcDbDimension
  2
*D18
 10
-1.170735893588
 20
0.54130523205
 30
0.0
 11
-1.220735893588
 21
0.592155232953
 31
0.0
 70
           1
 71
           5
 72
           1
 41
1.0
 42
0.0
  1
0.02"
  3
STANDARD
100
AcDbAlignedDimension
 13
-1.270735893588
 23
0.729000518032
 33
0.0
 14
-1.170735893588
 24
0.729000518032
 34
0.0
1001
TCAD
1000
TCW_CUSTOM_DATA
1002
{
1000
#$AUX@_ToolInfo Properties
1070
           8
1000
Insert^JDimension^JParallel@Dimension Parallel
1002
}
1001
ACAD
1000
DSTYLE
1002
{
1070
         285
1070
           0
1070
          41
1040
0.1
1070
         179
1070
           2
1070
         271
1070
           4
1070
         147
1040
0.03
1070
           3
1000
<>"
1070
          45
1040
0.0001
1070
         272
1070
           4
1070
         174
1070
           1
1070
         140
1040
0.02502
1070
          78
1070
           8
1002
}
  0
LINE
  5
266
100
AcDbEntity
  8
0
370
           0
  6
DASHED
 62
           7
 48
0.300000011921
100
AcDbLine
 10
1.6693
 20
0.826740660643
 30
0.0
 11
1.9842
 21
0.826740660643
 31
0.0
1001
TCAD
1000
TCW_CUSTOM_DATA
1002
{
1000
#$AUX@_ToolInfo Properties
1070
           8
1000
Insert^JLine^JSingle@Line Single
1002
}
  0
LINE
  5
267
100
AcDbEntity
  8
0
370
           0
  6
DASHED
 62
           7
 48
0.300000011921
100
AcDbLine
 10
1.9842
 20
0.718740661423
 30
0.0
 11
1.6693
 21
0.718740661423
 31
0.0
1001
TCAD
1000
TCW_CUSTOM_DATA
1002
{
1000
#$AUX@_ToolInfo Properties
1070
           8
1000
Insert^JLine^JSingle@Line Single
1002
}
  0
LINE
  5
268
100
AcDbEntity
  8
0
370
           0
  6
Continuous
 62
           7
 48
0.300000011921
100
AcDbLine
 10
1.68
 20
0.8167
 30
0.0
 11
1.68
 21
0.7287
 31
0.0
1001
TCAD
1000
TCW_CUSTOM_DATA
1002
{
1000
#$AUX@_ToolInfo Properties
1070
           8
1000
Insert^JLine^JSingle@Line Single
1002
}
  0
LINE
  5
269
100
AcDbEntity
  8
0
370
           0
  6
Continuous
 62
           7
 48
0.300000011921
100
AcDbLine
 10
1.7
 20
0.8067
 30
0.0
 11
1.7
 21
0.7387
 31
0.0
1001
TCAD
1000
TCW_CUSTOM_DATA
1002
{
1000
#$AUX@_ToolInfo Properties
1070
           8
1000
Insert^JLine^JSingle@Line Single
1002
}
  0
LINE
  5
26A
100
AcDbEntity
  8
0
370
           0
  6
Continuous
 62
           7
 48
0.300000011921
100
AcDbLine
 10
1.72
 20
0.8167
 30
0.0
 11
1.72
 21
0.7287
 31
0.0
1001
TCAD
1000
TCW_CUSTOM_DATA
1002
{
1000
#$AUX@_ToolInfo Properties
1070
           8
1000
Insert^JLine^JSingle@Line Single
1002
}
  0
LINE
  5
26B
100
AcDbEntity
  8
0
370
           0
  6
Continuous
 62
           7
 48
0.300000011921
100
AcDbLine
 10
1.74
 20
0.8067
 30
0.0
 11
1.74
 21
0.7387
 31
0.0
1001
TCAD
1000
TCW_CUSTOM_DATA
1002
{
1000
#$AUX@_ToolInfo Properties
1070
           8
1000
Insert^JLine^JSingle@Line Single
1002
}
  0
LINE
  5
26C
100
AcDbEntity
  8
0
370
           0
  6
Continuous
 62
           7
 48
0.300000011921
100
AcDbLine
 10
1.76
 20
0.8167
 30
0.0
 11
1.76
 21
0.7287
 31
0.0
1001
TCAD
1000
TCW_CUSTOM_DATA
1002
{
1000
#$AUX@_ToolInfo Properties
1070
           8
1000
Insert^JLine^JSingle@Line Single
1002
}
  0
LINE
  5
26D
100
AcDbEntity
  8
0
370
           0
  6
Continuous
 62
           7
 48
0.300000011921
100
AcDbLine
 10
1.78
 20
0.8067
 30
0.0
 11
1.78
 21
0.7387
 31
0.0
1001
TCAD
1000
TCW_CUSTOM_DATA
1002
{
1000
#$AUX@_ToolInfo Properties
1070
           8
1000
Insert^JLine^JSingle@Line Single
1002
}
  0
LINE
  5
26E
100
AcDbEntity
  8
0
370
           0
  6
Continuous
 62
           7
 48
0.300000011921
100
AcDbLine
 10
1.8
 20
0.8167
 30
0.0
 11
1.8
 21
0.7287
 31
0.0
1001
TCAD
1000
TCW_CUSTOM_DATA
1002
{
1000
#$AUX@_ToolInfo Properties
1070
           8
1000
Insert^JLine^JSingle@Line Single
1002
}
  0
LINE
  5
26F
100
AcDbEntity
  8
0
370
           0
  6
Continuous
 62
           7
 48
0.300000011921
100
AcDbLine
 10
1.82
 20
0.8067
 30
0.0
 11
1.82
 21
0.7387
 31
0.0
1001
TCAD
1000
TCW_CUSTOM_DATA
1002
{
1000
#$AUX@_ToolInfo Properties
1070
           8
1000
Insert^JLine^JSingle@Line Single
1002
}
  0
LINE
  5
270
100
AcDbEntity
  8
0
370
           0
  6
Continuous
 62
           7
 48
0.300000011921
100
AcDbLine
 10
1.84
 20
0.8167
 30
0.0
 11
1.84
 21
0.7287
 31
0.0
1001
TCAD
1000
TCW_CUSTOM_DATA
1002
{
1000
#$AUX@_ToolInfo Properties
1070
           8
1000
Insert^JLine^JSingle@Line Single
1002
}
  0
LINE
  5
271
100
AcDbEntity
  8
0
370
           0
  6
Continuous
 62
           7
 48
0.300000011921
100
AcDbLine
 10
1.86
 20
0.8067
 30
0.0
 11
1.86
 21
0.7387
 31
0.0
1001
TCAD
1000
TCW_CUSTOM_DATA
1002
{
1000
#$AUX@_ToolInfo Properties
1070
           8
1000
Insert^JLine^JSingle@Line Single
1002
}
  0
LINE
  5
272
100
AcDbEntity
  8
0
370
           0
  6
Continuous
 62
           7
 48
0.300000011921
100
AcDbLine
 10
1.88
 20
0.8167
 30
0.0
 11
1.88
 21
0.7287
 31
0.0
1001
TCAD
1000
TCW_CUSTOM_DATA
1002
{
1000
#$AUX@_ToolInfo Properties
1070
           8
1000
Insert^JLine^JSingle@Line Single
1002
}
  0
LINE
  5
273
100
AcDbEntity
  8
0
370
           0
  6
Continuous
 62
           7
 48
0.300000011921
100
AcDbLine
 10
1.9
 20
0.8067
 30
0.0
 11
1.9
 21
0.7387
 31
0.0
1001
TCAD
1000
TCW_CUSTOM_DATA
1002
{
1000
#$AUX@_ToolInfo Properties
1070
           8
1000
Insert^JLine^JSingle@Line Single
1002
}
  0
LINE
  5
274
100
AcDbEntity
  8
0
370
           0
  6
Continuous
 62
           7
 48
0.300000011921
100
AcDbLine
 10
1.92
 20
0.8167
 30
0.0
 11
1.92
 21
0.7287
 31
0.0
1001
TCAD
1000
TCW_CUSTOM_DATA
1002
{
1000
#$AUX@_ToolInfo Properties
1070
           8
1000
Insert^JLine^JSingle@Line Single
1002
}
  0
LINE
  5
275
100
AcDbEntity
  8
0
370
           0
  6
Continuous
 62
           7
 48
0.300000011921
100
AcDbLine
 10
1.94
 20
0.8067
 30
0.0
 11
1.94
 21
0.7387
 31
0.0
1001
TCAD
1000
TCW_CUSTOM_DATA
1002
{
1000
#$AUX@_ToolInfo Properties
1070
           8
1000
Insert^JLine^JSingle@Line Single
1002
}
  0
LINE
  5
276
100
AcDbEntity
  8
0
370
           0
  6
Continuous
 62
           7
 48
0.300000011921
100
AcDbLine
 10
1.96
 20
0.8167
 30
0.0
 11
1.96
 21
0.7287
 31
0.0
1001
TCAD
1000
TCW_CUSTOM_DATA
1002
{
1000
#$AUX@_ToolInfo Properties
1070
           8
1000
Insert^JLine^JSingle@Line Single
1002
}
  0
ENDSEC
  0
SECTION
  2
OBJECTS
  0
DICTIONARY
  5
19
100
AcDbDictionary
280
           0
281
           1
  3
ACAD_GROUP
350
1A
  3
ACAD_MLINESTYLE
350
1B
  3
ACAD_LAYOUT
350
1E
  3
ACAD_PLOTSETTINGS
350
22
  3
ACAD_PLOTSTYLENAME
350
1F
  0
DICTIONARY
  5
1A
102
{ACAD_REACTORS
330
19
102
}
100
AcDbDictionary
280
           0
281
           1
  3
Group_1
350
1DB
  3
Group_1
350
1ED
  0
DICTIONARY
  5
1B
102
{ACAD_REACTORS
330
19
102
}
100
AcDbDictionary
280
           0
281
           1
  3
Standard
350
1C
  0
MLINESTYLE
  5
1C
100
AcDbMlineStyle
  2
STANDARD
 70
           0
  3

 62
         256
 51
90.0
 52
90.0
 71
           3
 49
0.25
 62
           7
  6
ByLayer
 49
0.0
 62
           7
  6
ByLayer
 49
-0.25
 62
           7
  6
ByLayer
  0
ACDBDICTIONARYWDFLT
  5
1F
102
{ACAD_REACTORS
330
19
102
}
100
AcDbDictionary
281
           1
  3
Normal
350
1D
100
AcDbDictionaryWithDefault
340
1D
  0
ACDBPLACEHOLDER
  5
1D
102
{ACAD_REACTORS
330
1F
102
}
  0
LAYOUT
  5
21
102
{ACAD_REACTORS
330
1E
102
}
100
AcDbPlotSettings
  1

  2

  4

  6

 40
0.0
 41
0.0
 42
0.0
 43
0.0
 44
0.0
 45
0.0
 46
0.0
 47
0.0
 48
0.0
 49
0.0
140
0.0
141
0.0
142
1.0
143
1.0
 70
           0
 72
           0
 73
           0
 74
           0
  7

 75
           0
147
1.0
148
0.0
149
0.0
100
AcDbLayout
  1
Layout1
 70
           0
 71
           0
 10
0.0
 20
0.0
 11
0.0
 21
0.0
 12
0.0
 22
0.0
 32
0.0
 14
0.0
 24
0.0
 34
0.0
 15
0.0
 25
0.0
 35
0.0
146
0.0
 13
0.0
 23
0.0
 33
0.0
 16
0.0
 26
0.0
 36
0.0
 17
0.0
 27
0.0
 37
0.0
 76
           0
330
B
331
0
345
0
346
0
  0
DICTIONARY
  5
1E
102
{ACAD_REACTORS
330
19
102
}
100
AcDbDictionary
280
           0
281
           1
  3
Model
350
277
  3
Paper 1
350
27A
  0
DICTIONARY
  5
22
102
{ACAD_REACTORS
330
19
102
}
100
AcDbDictionary
280
           0
281
           1
  0
GROUP
  5
1DB
102
{ACAD_REACTORS
330
1A
102
}
100
AcDbGroup
300

 70
           0
 71
           1
340
1CC
340
1CD
340
1CE
340
1CF
340
1D0
340
1D1
340
1D2
340
1D3
340
1D4
340
1D5
340
1D6
340
1D7
340
1D8
340
1D9
340
1DA
  0
GROUP
  5
1ED
102
{ACAD_REACTORS
330
1A
102
}
100
AcDbGroup
300

 70
           0
 71
           1
340
1DE
340
1DF
340
1E0
340
1E1
340
1E2
340
1E3
340
1E4
340
1E5
340
1E6
340
1E7
340
1E8
340
1E9
340
1EA
340
1EB
340
1EC
  0
LAYOUT
  5
277
100
AcDbPlotSettings
  1

  2

  4

  6

 40
0.0
 41
0.0
 42
0.0
 43
0.0
 44
0.0
 45
0.0
 46
0.0
 47
0.0
 48
0.0
 49
0.0
140
0.0
141
0.0
142
1.0
143
1.0
 70
           0
 72
           0
 73
           0
 74
           0
  7

 75
           0
147
1.0
148
0.0
149
0.0
100
AcDbLayout
  1
Model
 70
           0
 71
           0
 10
0.0
 20
0.0
 11
0.0
 21
0.0
 12
0.0
 22
0.0
 32
0.0
 14
0.0
 24
0.0
 34
0.0
 15
0.0
 25
0.0
 35
0.0
146
0.0
 13
0.0
 23
0.0
 33
0.0
 16
0.0
 26
0.0
 36
0.0
 17
0.0
 27
0.0
 37
0.0
 76
           0
330
A
331
0
345
0
346
0
  0
LAYOUT
  5
27A
100
AcDbPlotSettings
  1

  2

  4

  6

 40
0.0
 41
0.0
 42
0.0
 43
0.0
 44
0.0
 45
0.0
 46
0.0
 47
0.0
 48
0.0
 49
0.0
140
0.0
141
0.0
142
1.0
143
1.0
 70
           0
 72
           0
 73
           0
 74
           0
  7

 75
           0
147
1.0
148
0.0
149
0.0
100
AcDbLayout
  1
Paper 1
 70
           1
 71
           1
 10
0.0
 20
0.0
 11
0.0
 21
0.0
 12
0.0
 22
0.0
 32
0.0
 14
0.0
 24
0.0
 34
0.0
 15
0.0
 25
0.0
 35
0.0
146
0.0
 13
0.0
 23
0.0
 33
0.0
 16
0.0
 26
0.0
 36
0.0
 17
0.0
 27
0.0
 37
0.0
 76
           0
330
B
331
278
345
0
346
0
  0
ENDSEC
  0
EOF
