  0
SECTION
  2
HEADER
  9
$ACADVER
  1
AC1015
  9
$ACADMAINTVER
 70
           6
  9
$DWGCODEPAGE
  3
ANSI_1252
  9
$INSBASE
 10
0.0
 20
0.0
 30
0.0
  9
$EXTMIN
 10
-1.533221776617
 20
-1.964241861083
 30
0.0
  9
$EXTMAX
 10
3.7842
 20
3.569866150029
 30
0.0
  9
$LIMMIN
 10
0.0
 20
0.0
  9
$LIMMAX
 10
11.0
 20
8.5
  9
$ORTHOMODE
 70
           0
  9
$REGENMODE
 70
           1
  9
$FILLMODE
 70
           1
  9
$QTEXTMODE
 70
           0
  9
$MIRRTEXT
 70
           1
  9
$LTSCALE
 40
1.0
  9
$ATTMODE
 70
           1
  9
$TEXTSIZE
 40
0.25
  9
$TRACEWID
 40
1.0
  9
$TEXTSTYLE
  7
STANDARD
  9
$CLAYER
  8
0
  9
$CELTYPE
  6
Continuous
  9
$CECOLOR
 62
           7
  9
$CELTSCALE
 40
1.0
  9
$DISPSILH
 70
           0
  9
$DIMSCALE
 40
1.0
  9
$DIMASZ
 40
0.05
  9
$DIMEXO
 40
0.0625
  9
$DIMDLI
 40
0.375
  9
$DIMRND
 40
0.0001
  9
$DIMDLE
 40
0.0
  9
$DIMEXE
 40
0.125
  9
$DIMTP
 40
0.0
  9
$DIMTM
 40
0.0
  9
$DIMTXT
 40
0.02502
  9
$DIMCEN
 40
0.09
  9
$DIMTSZ
 40
0.0
  9
$DIMTOL
 70
           0
  9
$DIMLIM
 70
           0
  9
$DIMTIH
 70
           1
  9
$DIMTOH
 70
           1
  9
$DIMSE1
 70
           0
  9
$DIMSE2
 70
           0
  9
$DIMTAD
 70
           1
  9
$DIMZIN
 70
           8
  9
$DIMBLK
  1

  9
$DIMASO
 70
           0
  9
$DIMSHO
 70
           1
  9
$DIMPOST
  1
<>"
  9
$DIMAPOST
  1

  9
$DIMALT
 70
           0
  9
$DIMALTD
 70
           2
  9
$DIMALTF
 40
1.0
  9
$DIMLFAC
 40
1.0
  9
$DIMTOFL
 70
           0
  9
$DIMTVP
 40
0.0
  9
$DIMTIX
 70
           1
  9
$DIMSOXD
 70
           0
  9
$DIMSAH
 70
           0
  9
$DIMBLK1
  1

  9
$DIMBLK2
  1

  9
$DIMSTYLE
  2
STANDARD
  9
$DIMCLRD
 70
           7
  9
$DIMCLRE
 70
           7
  9
$DIMCLRT
 70
           7
  9
$DIMTFAC
 40
1.0
  9
$DIMGAP
 40
0.01
  9
$DIMJUST
 70
           0
  9
$DIMSD1
 70
           0
  9
$DIMSD2
 70
           0
  9
$DIMTOLJ
 70
           1
  9
$DIMTZIN
 70
           0
  9
$DIMALTZ
 70
           0
  9
$DIMALTTZ
 70
           0
  9
$DIMUPT
 70
           0
  9
$DIMDEC
 70
           4
  9
$DIMTDEC
 70
           4
  9
$DIMALTU
 70
           2
  9
$DIMALTTD
 70
           2
  9
$DIMTXSTY
  7
STANDARD
  9
$DIMAUNIT
 70
           0
  9
$DIMADEC
 70
           2
  9
$DIMALTRND
 40
0.0
  9
$DIMAZIN
 70
           0
  9
$DIMDSEP
 70
           0
  9
$DIMATFIT
 70
           0
  9
$DIMFRAC
 70
           0
  9
$DIMLDRBLK
  1

  9
$DIMLUNIT
 70
           2
  9
$DIMLWD
 70
           0
  9
$DIMLWE
 70
           0
  9
$DIMTMOVE
 70
           0
  9
$LUNITS
 70
           2
  9
$LUPREC
 70
           4
  9
$SKETCHINC
 40
1.0
  9
$FILLETRAD
 40
1.0
  9
$AUNITS
 70
           0
  9
$AUPREC
 70
           2
  9
$MENU
  1
acad
  9
$ELEVATION
 40
0.0
  9
$PELEVATION
 40
0.0
  9
$THICKNESS
 40
0.0
  9
$LIMCHECK
 70
           0
  9
$CHAMFERA
 40
0.0
  9
$CHAMFERB
 40
0.0
  9
$CHAMFERC
 40
0.0
  9
$CHAMFERD
 40
0.0
  9
$SKPOLY
 70
           0
  9
$TDCREATE
 40
0.000000000
  9
$TDUCREATE
 40
0.000000000
  9
$TDUPDATE
 40
2449702.667959363
  9
$TDUUPDATE
 40
0.000000000
  9
$TDINDWG
 40
0.0000000000
  9
$TDUSRTIMER
 40
0.0000000000
  9
$USRTIMER
 70
           1
  9
$ANGBASE
 50
0.0
  9
$ANGDIR
 70
           0
  9
$PDMODE
 70
           0
  9
$PDSIZE
 40
0.0
  9
$PLINEWID
 40
0.0
  9
$SPLFRAME
 70
           0
  9
$SPLINETYPE
 70
           5
  9
$SPLINESEGS
 70
          20
  9
$HANDSEED
  5
3C5
  9
$SURFTAB1
 70
           6
  9
$SURFTAB2
 70
           6
  9
$SURFTYPE
 70
           6
  9
$SURFU
 70
           6
  9
$SURFV
 70
           6
  9
$UCSBASE
  2

  9
$UCSNAME
  2

  9
$UCSORG
 10
0.0
 20
0.0
 30
0.0
  9
$UCSXDIR
 10
1.0
 20
0.0
 30
0.0
  9
$UCSYDIR
 10
0.0
 20
1.0
 30
0.0
  9
$UCSORTHOREF
  2

  9
$UCSORTHOVIEW
 70
           0
  9
$UCSORGTOP
 10
0.0
 20
0.0
 30
0.0
  9
$UCSORGBOTTOM
 10
0.0
 20
0.0
 30
0.0
  9
$UCSORGLEFT
 10
0.0
 20
0.0
 30
0.0
  9
$UCSORGRIGHT
 10
0.0
 20
0.0
 30
0.0
  9
$UCSORGFRONT
 10
0.0
 20
0.0
 30
0.0
  9
$UCSORGBACK
 10
0.0
 20
0.0
 30
0.0
  9
$PUCSBASE
  2

  9
$PUCSNAME
  2

  9
$PUCSORG
 10
0.0
 20
0.0
 30
0.0
  9
$PUCSXDIR
 10
1.0
 20
0.0
 30
0.0
  9
$PUCSYDIR
 10
0.0
 20
1.0
 30
0.0
  9
$PUCSORTHOREF
  2

  9
$PUCSORTHOVIEW
 70
           0
  9
$PUCSORGTOP
 10
0.0
 20
0.0
 30
0.0
  9
$PUCSORGBOTTOM
 10
0.0
 20
0.0
 30
0.0
  9
$PUCSORGLEFT
 10
0.0
 20
0.0
 30
0.0
  9
$PUCSORGRIGHT
 10
0.0
 20
0.0
 30
0.0
  9
$PUCSORGFRONT
 10
0.0
 20
0.0
 30
0.0
  9
$PUCSORGBACK
 10
0.0
 20
0.0
 30
0.0
  9
$USERI1
 70
           0
  9
$USERI2
 70
           0
  9
$USERI3
 70
           0
  9
$USERI4
 70
           0
  9
$USERI5
 70
           0
  9
$USERR1
 40
0.0
  9
$USERR2
 40
0.0
  9
$USERR3
 40
0.0
  9
$USERR4
 40
0.0
  9
$USERR5
 40
0.0
  9
$WORLDVIEW
 70
           1
  9
$SHADEDGE
 70
           3
  9
$SHADEDIF
 70
          70
  9
$TILEMODE
 70
           1
  9
$MAXACTVP
 70
          16
  9
$PINSBASE
 10
0.0
 20
0.0
 30
0.0
  9
$PLIMCHECK
 70
           0
  9
$PEXTMIN
 10
0.0
 20
0.0
 30
0.0
  9
$PEXTMAX
 10
11.0
 20
8.5
 30
0.0
  9
$PLIMMIN
 10
0.0
 20
0.0
  9
$PLIMMAX
 10
11.0
 20
8.5
  9
$UNITMODE
 70
           0
  9
$VISRETAIN
 70
           0
  9
$PLINEGEN
 70
           1
  9
$PSLTSCALE
 70
           1
  9
$TREEDEPTH
 70
        3020
  9
$CMLSTYLE
  2
STANDARD
  9
$CMLJUST
 70
           0
  9
$CMLSCALE
 40
1.0
  9
$PROXYGRAPHICS
 70
           0
  9
$MEASUREMENT
 70
           0
  9
$CELWEIGHT
370
           0
  9
$ENDCAPS
280
           0
  9
$JOINSTYLE
280
           0
  9
$LWDISPLAY
290
           0
  9
$INSUNITS
 70
           0
  9
$HYPERLINKBASE
  1

  9
$STYLESHEET
  1

  9
$XEDIT
290
           1
  9
$CEPSNTYPE
380
           0
  9
$PSTYLEMODE
290
           1
  9
$FINGERPRINTGUID
  2

  9
$VERSIONGUID
  2

  9
$EXTNAMES
290
           1
  9
$PSVPSCALE
 40
0.0
  0
ENDSEC
  0
SECTION
  2
CLASSES
  0
CLASS
  1
LWPOLYLINE
  2
AcDbPolyline
  3
AutoCAD 2000
 90
        0
280
           0
281
           1
  0
CLASS
  1
IMAGE
  2
AcDbRasterImage
  3
ISM
 90
    32895
280
           0
281
           1
  0
CLASS
  1
OLE2FRAME
  2
AcDbOle2Frame
  3
AutoCAD 2000
 90
    32768
280
           0
281
           1
  0
CLASS
  1
HATCH
  2
AcDbHatch
  3
AutoCAD 2000
 90
        0
280
           0
281
           1
  0
CLASS
  1
DICTIONARYVAR
  2
AcDbDictionaryVar
  3
AutoCAD 2000
 90
    32768
280
           0
281
           0
  0
CLASS
  1
RASTERVARIABLES
  2
AcDbRasterVariables
  3
ISM
 90
    32768
280
           0
281
           0
  0
CLASS
  1
IMAGEDEF
  2
AcDbRasterImageDef
  3
ISM
 90
    32768
280
           0
281
           0
  0
CLASS
  1
IMAGEDEF_REACTOR
  2
AcDbRasterImageDefReactor
  3
ISM
 90
    32769
280
           0
281
           0
  0
CLASS
  1
IDBUFFER
  2
AcDbIdBuffer
  3
AutoCAD 2000
 90
    32768
280
           0
281
           0
  0
CLASS
  1
SPATIAL_FILTER
  2
AcDbSpatialFilter
  3
AutoCAD 2000
 90
    32768
280
           0
281
           0
  0
CLASS
  1
XRECORD
  2
AcDbXrecord
  3
AutoCAD 2000
 90
    32768
280
           0
281
           0
  0
CLASS
  1
SORTENTSTABLE
  2
AcDbSortentsTable
  3
AutoCAD 2000
 90
    32768
280
           0
281
           0
  0
CLASS
  1
LAYER_INDEX
  2
AcDbLayerIndex
  3
AutoCAD 2000
 90
    32768
280
           0
281
           0
  0
CLASS
  1
SPATIAL_INDEX
  2
AcDbSpatialIndex
  3
AutoCAD 2000
 90
    32768
280
           0
281
           0
  0
CLASS
  1
OBJECT_PTR
  2
CAseDLPNTableRecord
  3
"ASE-LPNTableRecord"
 90
    32769
280
           0
281
           0
  0
CLASS
  1
LAYOUT
  2
AcDbLayout
  3
AutoCAD 2000
 90
        0
280
           0
281
           0
  0
CLASS
  1
PLOTSETTINGS
  2
AcDbPlotSettings
  3
AutoCAD 2000
 90
    32768
280
           0
281
           0
  0
CLASS
  1
ACDBDICTIONARYWDFLT
  2
AcDbDictionaryWithDefault
  3
AutoCAD 2000
 90
        0
280
           0
281
           0
  0
CLASS
  1
ACDBPLACEHOLDER
  2
AcDbPlaceHolder
  3
AutoCAD 2000
 90
        0
280
           0
281
           0
  0
ENDSEC
  0
SECTION
  2
TABLES
  0
TABLE
  2
VPORT
  5
7
100
AcDbSymbolTable
 70
           1
  0
VPORT
  5
15
100
AcDbSymbolTableRecord
100
AcDbViewportTableRecord
  2
*ACTIVE
 70
           0
 10
0.0
 20
0.0
 11
1.0
 21
1.0
 12
0.0
 22
0.0
 13
0.0
 23
0.0
 14
0.5
 24
0.5
 15
0.5
 25
0.5
 16
0.0
 26
0.0
 36
1.0
 17
-0.4556456627
 27
3.4415206734
 37
-1.0
 40
1.15921265565
 41
1.026258205689
 42
50.0
 43
0.0
 44
0.0
 50
0.0
 51
0.0
 71
           0
 72
         100
 73
           1
 74
           1
 75
           0
 76
           1
 77
           0
 78
           0
281
           0
 65
           0
110
0.0
120
0.0
130
0.0
111
1.0
121
0.0
131
0.0
112
0.0
122
1.0
132
0.0
345
0
346
0
 79
           0
146
0.0
  0
ENDTAB
  0
TABLE
  2
LTYPE
  5
4
100
AcDbSymbolTable
 70
          15
  0
LTYPE
  5
11
100
AcDbSymbolTableRecord
100
AcDbLinetypeTableRecord
  2
ByBlock
 70
          64
  3

 72
          65
 73
           0
 40
0.0
  0
LTYPE
  5
12
100
AcDbSymbolTableRecord
100
AcDbLinetypeTableRecord
  2
ByLayer
 70
          64
  3

 72
          65
 73
           0
 40
0.0
  0
LTYPE
  5
13
100
AcDbSymbolTableRecord
100
AcDbLinetypeTableRecord
  2
Continuous
 70
          64
  3
Solid line
 72
          65
 73
           0
 40
0.0
  0
LTYPE
  5
24
100
AcDbSymbolTableRecord
100
AcDbLinetypeTableRecord
  2
BORDER
 70
           0
  3
BORDER
 72
          65
 73
           6
 40
1.75
 49
0.5
 74
           0
 49
-0.25
 74
           0
 49
0.5
 74
           0
 49
-0.25
 74
           0
 49
0.0
 74
           0
 49
-0.25
 74
           0
  0
LTYPE
  5
25
100
AcDbSymbolTableRecord
100
AcDbLinetypeTableRecord
  2
CENTER
 70
           0
  3
CENTER
 72
          65
 73
           4
 40
2.0
 49
1.25
 74
           0
 49
-0.25
 74
           0
 49
0.25
 74
           0
 49
-0.25
 74
           0
  0
LTYPE
  5
26
100
AcDbSymbolTableRecord
100
AcDbLinetypeTableRecord
  2
DASHDOT
 70
           0
  3
DASHDOT
 72
          65
 73
           4
 40
1.0
 49
0.5
 74
           0
 49
-0.25
 74
           0
 49
0.0
 74
           0
 49
-0.25
 74
           0
  0
LTYPE
  5
27
100
AcDbSymbolTableRecord
100
AcDbLinetypeTableRecord
  2
DASHED
 70
           0
  3
DASHED
 72
          65
 73
           2
 40
0.75
 49
0.5
 74
           0
 49
-0.25
 74
           0
  0
LTYPE
  5
28
100
AcDbSymbolTableRecord
100
AcDbLinetypeTableRecord
  2
DIVIDE
 70
           0
  3
DIVIDE
 72
          65
 73
           6
 40
1.25
 49
0.5
 74
           0
 49
-0.25
 74
           0
 49
0.0
 74
           0
 49
-0.25
 74
           0
 49
0.0
 74
           0
 49
-0.25
 74
           0
  0
LTYPE
  5
29
100
AcDbSymbolTableRecord
100
AcDbLinetypeTableRecord
  2
DOT
 70
           0
  3
DOT
 72
          65
 73
           2
 40
0.25
 49
0.0
 74
           0
 49
-0.25
 74
           0
  0
LTYPE
  5
2A
100
AcDbSymbolTableRecord
100
AcDbLinetypeTableRecord
  2
HIDDEN
 70
           0
  3
HIDDEN
 72
          65
 73
           2
 40
0.375
 49
0.25
 74
           0
 49
-0.125
 74
           0
  0
LTYPE
  5
2B
100
AcDbSymbolTableRecord
100
AcDbLinetypeTableRecord
  2
PHANTOM
 70
           0
  3
PHANTOM
 72
          65
 73
           6
 40
2.5
 49
1.25
 74
           0
 49
-0.25
 74
           0
 49
0.25
 74
           0
 49
-0.25
 74
           0
 49
0.25
 74
           0
 49
-0.25
 74
           0
  0
LTYPE
  5
2C
100
AcDbSymbolTableRecord
100
AcDbLinetypeTableRecord
  2
$INVISIBLE
 70
           0
  3
$INVISIBLE
 72
          65
 73
           2
 40
200.0
 49
-100.0
 74
           0
 49
-100.0
 74
           0
  0
LTYPE
  5
2D
100
AcDbSymbolTableRecord
100
AcDbLinetypeTableRecord
  2
$SNAPEXT
 70
           0
  3
$SNAPEXT
 72
          65
 73
           2
 40
0.04
 49
0.02
 74
           0
 49
-0.02
 74
           0
  0
LTYPE
  5
2E
100
AcDbSymbolTableRecord
100
AcDbLinetypeTableRecord
  2
$AUXILIARY
 70
           0
  3
$AUXILIARY
 72
          65
 73
           2
 40
0.1
 49
0.05
 74
           0
 49
-0.05
 74
           0
  0
LTYPE
  5
2F
100
AcDbSymbolTableRecord
100
AcDbLinetypeTableRecord
  2
$CONSTRUCTION
 70
           0
  3
$CONSTRUCTION
 72
          65
 73
           4
 40
0.3
 49
0.2
 74
           0
 49
-0.05
 74
           0
 49
0.0
 74
           0
 49
-0.05
 74
           0
  0
ENDTAB
  0
TABLE
  2
LAYER
  5
2
100
AcDbSymbolTable
 70
           3
  0
LAYER
  5
14
100
AcDbSymbolTableRecord
100
AcDbLayerTableRecord
  2
0
 70
           0
 62
           7
  6
Continuous
290
           1
370
           0
390
0
1001
TCAD
1000
TCW_LAYER_ORDER
1002
{
1071
        0
1002
}
  0
LAYER
  5
30
100
AcDbSymbolTableRecord
100
AcDbLayerTableRecord
  2
$CONSTRUCTION
 70
           0
 62
           1
  6
$CONSTRUCTION
290
           1
370
           0
390
0
1001
TCAD
1000
TCW_LAYER_ORDER
1002
{
1071
        0
1002
}
  0
LAYER
  5
33
100
AcDbSymbolTableRecord
100
AcDbLayerTableRecord
  2
ASHADE
 70
           0
 62
           7
  6
Continuous
290
           1
370
          -3
390
0
  0
ENDTAB
  0
TABLE
  2
STYLE
  5
3
100
AcDbSymbolTable
 70
           2
  0
STYLE
  5
17
100
AcDbSymbolTableRecord
100
AcDbTextStyleTableRecord
  2
STANDARD
 70
           0
 40
0.0
 41
1.0
 50
0.0
 71
           0
 42
0.15000000596
  3
TIMES.TTF
  4

1001
ACAD
1000
Times New Roman
1071
      290
  0
STYLE
  5
32
100
AcDbSymbolTableRecord
100
AcDbTextStyleTableRecord
  2
ASHADE
 70
           0
 40
0.2
 41
1.0
 50
0.0
 71
           0
 42
2.5
  3
simplex.shx
  4

  0
ENDTAB
  0
TABLE
  2
VIEW
  5
5
100
AcDbSymbolTable
 70
           1
  0
VIEW
  5
31
100
AcDbSymbolTableRecord
100
AcDbViewTableRecord
  2
View_0
 70
           0
 40
8.5
 10
-1.402499675751
 20
0.0
 41
11.0
 11
0.0
 21
0.0
 31
1.0
 12
6.902499709278
 22
4.250000104308
 32
-1.0
 42
97.532499545905
 43
0.0
 44
0.0
 50
0.0
 71
           0
281
           0
 72
           0
110
0.0
120
0.0
130
0.0
111
1.0
121
0.0
131
0.0
112
0.0
122
1.0
132
0.0
  0
ENDTAB
  0
TABLE
  2
UCS
  5
6
100
AcDbSymbolTable
 70
           0
  0
ENDTAB
  0
TABLE
  2
APPID
  5
8
100
AcDbSymbolTable
 70
           3
  0
APPID
  5
16
100
AcDbSymbolTableRecord
100
AcDbRegAppTableRecord
  2
ACAD
 70
           0
  0
APPID
  5
23
100
AcDbSymbolTableRecord
100
AcDbRegAppTableRecord
  2
TCAD
 70
           0
  0
APPID
  5
51
100
AcDbSymbolTableRecord
100
AcDbRegAppTableRecord
  2
AVE_RENDER
 70
           0
  0
ENDTAB
  0
TABLE
  2
DIMSTYLE
  5
9
100
AcDbSymbolTable
 70
           1
100
AcDbDimStyleTable
 71
           0
  0
DIMSTYLE
105
18
100
AcDbSymbolTableRecord
100
AcDbDimStyleTableRecord
  2
STANDARD
 70
           0
  3
<>"
  4

 40
1.0
 41
0.05
 42
0.0625
 43
0.375
 44
0.125
 45
0.0001
 46
0.0
 47
0.0
 48
0.0
 71
           0
 72
           0
 73
           1
 74
           1
 75
           0
 76
           0
 77
           1
 78
           8
 79
           0
140
0.02502
141
0.09
142
0.0
143
1.0
144
1.0
145
0.0
146
1.0
147
0.01
148
0.01
170
           0
171
           2
172
           0
173
           0
174
           1
175
           0
176
           7
177
           7
178
           7
179
           2
271
           4
272
           4
273
           2
274
           2
275
           0
276
           0
277
           2
278
          46
279
           0
280
           0
281
           0
282
           0
283
           1
284
           0
285
           0
286
           0
288
           0
340
17
341
0
342
0
343
0
344
0
371
          -2
372
          -2
  0
ENDTAB
  0
TABLE
  2
BLOCK_RECORD
  5
1
100
AcDbSymbolTable
 70
          19
  0
BLOCK_RECORD
  5
A
100
AcDbSymbolTableRecord
100
AcDbBlockTableRecord
  2
*MODEL_SPACE
340
3C1
  0
BLOCK_RECORD
  5
B
100
AcDbSymbolTableRecord
100
AcDbBlockTableRecord
  2
*PAPER_SPACE
340
3C4
  0
BLOCK_RECORD
  5
34
100
AcDbSymbolTableRecord
100
AcDbBlockTableRecord
  2
OVERHEAD
340
0
102
{BLKREFS
331
52
331
5E
331
6A
331
76
331
A2
331
AE
102
}
  0
BLOCK_RECORD
  5
82
100
AcDbSymbolTableRecord
100
AcDbBlockTableRecord
  2
DIRECT
340
0
102
{BLKREFS
331
96
102
}
  0
BLOCK_RECORD
  5
BA
100
AcDbSymbolTableRecord
100
AcDbBlockTableRecord
  2
SH_SPOT
340
0
102
{BLKREFS
331
E2
102
}
  0
BLOCK_RECORD
  5
2BE
100
AcDbSymbolTableRecord
100
AcDbBlockTableRecord
  2
*D3
340
0
  0
BLOCK_RECORD
  5
2CD
100
AcDbSymbolTableRecord
100
AcDbBlockTableRecord
  2
*D4
340
0
  0
BLOCK_RECORD
  5
2D8
100
AcDbSymbolTableRecord
100
AcDbBlockTableRecord
  2
*D5
340
0
  0
BLOCK_RECORD
  5
2E3
100
AcDbSymbolTableRecord
100
AcDbBlockTableRecord
  2
*D6
340
0
  0
BLOCK_RECORD
  5
2F2
100
AcDbSymbolTableRecord
100
AcDbBlockTableRecord
  2
*D7
340
0
  0
BLOCK_RECORD
  5
2FF
100
AcDbSymbolTableRecord
100
AcDbBlockTableRecord
  2
*D8
340
0
  0
BLOCK_RECORD
  5
30E
100
AcDbSymbolTableRecord
100
AcDbBlockTableRecord
  2
*D9
340
0
  0
BLOCK_RECORD
  5
31D
100
AcDbSymbolTableRecord
100
AcDbBlockTableRecord
  2
*D10
340
0
  0
BLOCK_RECORD
  5
32C
100
AcDbSymbolTableRecord
100
AcDbBlockTableRecord
  2
*D11
340
0
  0
BLOCK_RECORD
  5
33B
100
AcDbSymbolTableRecord
100
AcDbBlockTableRecord
  2
*D12
340
0
  0
BLOCK_RECORD
  5
34A
100
AcDbSymbolTableRecord
100
AcDbBlockTableRecord
  2
*D13
340
0
  0
BLOCK_RECORD
  5
359
100
AcDbSymbolTableRecord
100
AcDbBlockTableRecord
  2
*D14
340
0
  0
BLOCK_RECORD
  5
37C
100
AcDbSymbolTableRecord
100
AcDbBlockTableRecord
  2
*D15
340
0
  0
BLOCK_RECORD
  5
38C
100
AcDbSymbolTableRecord
100
AcDbBlockTableRecord
  2
*D16
340
0
  0
BLOCK_RECORD
  5
39C
100
AcDbSymbolTableRecord
100
AcDbBlockTableRecord
  2
*D17
340
0
  0
BLOCK_RECORD
  5
3AC
100
AcDbSymbolTableRecord
100
AcDbBlockTableRecord
  2
*D18
340
0
  0
ENDTAB
  0
ENDSEC
  0
SECTION
  2
BLOCKS
  0
BLOCK
  5
D
100
AcDbEntity
  8
0
100
AcDbBlockBegin
  2
*MODEL_SPACE
 70
           0
 10
0.0
 20
0.0
 30
0.0
  3
*MODEL_SPACE
  1

  0
ENDBLK
  5
E
100
AcDbEntity
  8
0
100
AcDbBlockEnd
  0
BLOCK
  5
F
100
AcDbEntity
 67
           1
  8
0
100
AcDbBlockBegin
  2
*PAPER_SPACE
 70
           0
 10
0.0
 20
0.0
 30
0.0
  3
*PAPER_SPACE
  1

  0
ENDBLK
  5
10
100
AcDbEntity
 67
           1
  8
0
100
AcDbBlockEnd
  0
BLOCK
  5
35
100
AcDbEntity
  8
0
100
AcDbBlockBegin
  2
OVERHEAD
 70
           2
 10
0.0
 20
0.0
 30
0.0
  3
OVERHEAD
  1

  0
ATTDEF
  5
36
100
AcDbEntity
  8
ASHADE
  6
Continuous
 62
           1
100
AcDbText
 10
0.0
 20
-0.1
 30
0.0
 40
0.2
  1

  7
ASHADE
 72
           1
 11
0.0
 21
-0.1
 31
0.0
100
AcDbAttributeDefinition
  3
Light Name
  2
SNAME
 70
           0
  0
ATTDEF
  5
37
100
AcDbEntity
  8
ASHADE
  6
Continuous
 62
           7
100
AcDbText
 10
0.0
 20
0.28
 30
0.0
 40
0.01
  1

100
AcDbAttributeDefinition
  3

  2
GNAME
 70
           1
  0
ATTDEF
  5
38
100
AcDbEntity
  8
ASHADE
  6
Continuous
 62
           7
100
AcDbText
 10
0.0
 20
0.265
 30
0.0
 40
0.01
  1

100
AcDbAttributeDefinition
  3
Look-at X
  2
LAX
 70
           1
  0
ATTDEF
  5
39
100
AcDbEntity
  8
ASHADE
  6
Continuous
 62
           7
100
AcDbText
 10
0.0
 20
0.25
 30
0.0
 40
0.01
  1

100
AcDbAttributeDefinition
  3
Look-at Y
  2
LAY
 70
           1
  0
ATTDEF
  5
3A
100
AcDbEntity
  8
ASHADE
  6
Continuous
 62
           7
100
AcDbText
 10
0.0
 20
0.235
 30
0.0
 40
0.01
  1

100
AcDbAttributeDefinition
  3
Look-at Z
  2
LAZ
 70
           1
  0
ATTDEF
  5
3B
100
AcDbEntity
  8
ASHADE
  6
Continuous
 62
           7
100
AcDbText
 10
0.0
 20
0.22
 30
0.0
 40
0.01
  1
1
100
AcDbAttributeDefinition
  3
Light Intensity
  2
INTENSITY
 70
           1
  0
ATTDEF
  5
3C
100
AcDbEntity
  8
ASHADE
  6
Continuous
 62
           7
100
AcDbText
 10
0.0
 20
0.205
 30
0.0
 40
0.01
  1
1,1,1
100
AcDbAttributeDefinition
  3
Light Color (RGB)
  2
COLOR
 70
           1
  0
ATTDEF
  5
3D
100
AcDbEntity
  8
ASHADE
  6
Continuous
 62
           7
100
AcDbText
 10
0.0
 20
0.19
 30
0.0
 40
0.01
  1
0
100
AcDbAttributeDefinition
  3
Depth Map Size
  2
CONEA
 70
           1
  0
ATTDEF
  5
3E
100
AcDbEntity
  8
ASHADE
  6
Continuous
 62
           7
100
AcDbText
 10
0.0
 20
0.175
 30
0.0
 40
0.01
  1
-1
100
AcDbAttributeDefinition
  3
*not used*
  2
CONED
 70
           1
  0
ATTDEF
  5
3F
100
AcDbEntity
  8
ASHADE
  6
Continuous
 62
           7
100
AcDbText
 10
0.0
 20
0.16
 30
0.0
 40
0.01
  1
-1
100
AcDbAttributeDefinition
  3
*not used*
  2
BEAMD
 70
           1
  0
ARC
  5
40
100
AcDbEntity
  8
ASHADE
  6
Continuous
 62
           7
100
AcDbCircle
 10
0.0
 20
0.0
 30
0.0
 40
0.3
100
AcDbArc
 50
205.679289
 51
334.320711
  0
ARC
  5
41
100
AcDbEntity
  8
ASHADE
  6
Continuous
 62
           7
100
AcDbCircle
 10
0.0
 20
0.0
 30
0.0
 40
0.3
100
AcDbArc
 50
25.679289
 51
154.320711
  0
LINE
  5
42
100
AcDbEntity
  8
ASHADE
  6
Continuous
 62
           7
100
AcDbLine
 10
-0.27037
 20
-0.13
 30
0.0
 11
-0.315432
 21
-0.151667
 31
0.0
  0
LINE
  5
43
100
AcDbEntity
  8
ASHADE
  6
Continuous
 62
           7
100
AcDbLine
 10
-0.204141
 20
-0.219832
 30
0.0
 11
-0.272188
 21
-0.29311
 31
0.0
  0
LINE
  5
44
100
AcDbEntity
  8
ASHADE
  6
Continuous
 62
           7
100
AcDbLine
 10
-0.109659
 20
-0.27924
 30
0.0
 11
-0.127936
 21
-0.32578
 31
0.0
  0
LINE
  5
45
100
AcDbEntity
  8
ASHADE
  6
Continuous
 62
           7
100
AcDbLine
 10
0.0
 20
-0.3
 30
0.0
 11
0.0
 21
-0.4
 31
0.0
  0
LINE
  5
46
100
AcDbEntity
  8
ASHADE
  6
Continuous
 62
           7
100
AcDbLine
 10
0.109659
 20
-0.27924
 30
0.0
 11
0.127936
 21
-0.32578
 31
0.0
  0
LINE
  5
47
100
AcDbEntity
  8
ASHADE
  6
Continuous
 62
           7
100
AcDbLine
 10
0.204141
 20
-0.219832
 30
0.0
 11
0.272188
 21
-0.29311
 31
0.0
  0
LINE
  5
48
100
AcDbEntity
  8
ASHADE
  6
Continuous
 62
           7
100
AcDbLine
 10
0.27037
 20
-0.13
 30
0.0
 11
0.315432
 21
-0.151667
 31
0.0
  0
LINE
  5
49
100
AcDbEntity
  8
ASHADE
  6
Continuous
 62
           7
100
AcDbLine
 10
-0.109659
 20
0.27924
 30
0.0
 11
-0.127936
 21
0.32578
 31
0.0
  0
LINE
  5
4A
100
AcDbEntity
  8
ASHADE
  6
Continuous
 62
           7
100
AcDbLine
 10
-0.204141
 20
0.219832
 30
0.0
 11
-0.272188
 21
0.29311
 31
0.0
  0
LINE
  5
4B
100
AcDbEntity
  8
ASHADE
  6
Continuous
 62
           7
100
AcDbLine
 10
-0.27037
 20
0.13
 30
0.0
 11
-0.315432
 21
0.151667
 31
0.0
  0
LINE
  5
4C
100
AcDbEntity
  8
ASHADE
  6
Continuous
 62
           7
100
AcDbLine
 10
0.27037
 20
0.13
 30
0.0
 11
0.315432
 21
0.151667
 31
0.0
  0
LINE
  5
4D
100
AcDbEntity
  8
ASHADE
  6
Continuous
 62
           7
100
AcDbLine
 10
0.204141
 20
0.219832
 30
0.0
 11
0.272188
 21
0.29311
 31
0.0
  0
LINE
  5
4E
100
AcDbEntity
  8
ASHADE
  6
Continuous
 62
           7
100
AcDbLine
 10
0.109659
 20
0.27924
 30
0.0
 11
0.127936
 21
0.32578
 31
0.0
  0
LINE
  5
4F
100
AcDbEntity
  8
ASHADE
  6
Continuous
 62
           7
100
AcDbLine
 10
0.0
 20
0.3
 30
0.0
 11
0.0
 21
0.4
 31
0.0
  0
ENDBLK
  5
50
100
AcDbEntity
  8
0
100
AcDbBlockEnd
  0
BLOCK
  5
83
100
AcDbEntity
  8
0
100
AcDbBlockBegin
  2
DIRECT
 70
           2
 10
0.0
 20
0.0
 30
0.0
  3
DIRECT
  1

  0
ATTDEF
  5
84
100
AcDbEntity
  8
ASHADE
  6
Continuous
 62
           1
100
AcDbText
 10
0.0
 20
-0.1
 30
0.0
 40
0.2
  1

  7
ASHADE
 72
           1
 11
0.0
 21
-0.1
 31
0.0
100
AcDbAttributeDefinition
  3
Light Name
  2
SNAME
 70
           0
  0
ATTDEF
  5
85
100
AcDbEntity
  8
ASHADE
  6
Continuous
 62
           7
100
AcDbText
 10
0.0
 20
0.28
 30
0.0
 40
0.01
  1

100
AcDbAttributeDefinition
  3

  2
GNAME
 70
           1
  0
ATTDEF
  5
86
100
AcDbEntity
  8
ASHADE
  6
Continuous
 62
           7
100
AcDbText
 10
0.0
 20
0.265
 30
0.0
 40
0.01
  1

100
AcDbAttributeDefinition
  3
Look-at X
  2
LAX
 70
           1
  0
ATTDEF
  5
87
100
AcDbEntity
  8
ASHADE
  6
Continuous
 62
           7
100
AcDbText
 10
0.0
 20
0.25
 30
0.0
 40
0.01
  1

100
AcDbAttributeDefinition
  3
Look-at Y
  2
LAY
 70
           1
  0
ATTDEF
  5
88
100
AcDbEntity
  8
ASHADE
  6
Continuous
 62
           7
100
AcDbText
 10
0.0
 20
0.235
 30
0.0
 40
0.01
  1

100
AcDbAttributeDefinition
  3
Look-at Z
  2
LAZ
 70
           1
  0
ATTDEF
  5
89
100
AcDbEntity
  8
ASHADE
  6
Continuous
 62
           7
100
AcDbText
 10
0.0
 20
0.22
 30
0.0
 40
0.01
  1
1
100
AcDbAttributeDefinition
  3
Light Intensity
  2
INTENSITY
 70
           1
  0
ATTDEF
  5
8A
100
AcDbEntity
  8
ASHADE
  6
Continuous
 62
           7
100
AcDbText
 10
0.0
 20
0.205
 30
0.0
 40
0.01
  1
1,1,1
100
AcDbAttributeDefinition
  3
Light Color (RGB)
  2
COLOR
 70
           1
  0
ATTDEF
  5
8B
100
AcDbEntity
  8
ASHADE
  6
Continuous
 62
           7
100
AcDbText
 10
0.0
 20
0.19
 30
0.0
 40
0.01
  1
0
100
AcDbAttributeDefinition
  3
Depth Map Size
  2
CONEA
 70
           1
  0
ATTDEF
  5
8C
100
AcDbEntity
  8
ASHADE
  6
Continuous
 62
           7
100
AcDbText
 10
0.0
 20
0.175
 30
0.0
 40
0.01
  1
-1
100
AcDbAttributeDefinition
  3
*not used*
  2
CONED
 70
           1
  0
ATTDEF
  5
8D
100
AcDbEntity
  8
ASHADE
  6
Continuous
 62
           7
100
AcDbText
 10
0.0
 20
0.16
 30
0.0
 40
0.01
  1
-1
100
AcDbAttributeDefinition
  3
*not used*
  2
BEAMD
 70
           1
  0
ARC
  5
8E
100
AcDbEntity
  8
ASHADE
  6
Continuous
 62
           7
100
AcDbCircle
 10
0.0
 20
0.0
 30
0.0
 40
0.3
100
AcDbArc
 50
205.679289
 51
334.320711
  0
ARC
  5
8F
100
AcDbEntity
  8
ASHADE
  6
Continuous
 62
           7
100
AcDbCircle
 10
0.0
 20
0.0
 30
0.0
 40
0.3
100
AcDbArc
 50
25.679289
 51
154.320711
  0
LINE
  5
90
100
AcDbEntity
  8
ASHADE
  6
Continuous
 62
           7
100
AcDbLine
 10
0.21
 20
0.214243
 30
0.0
 11
0.21
 21
0.5
 31
0.0
  0
LINE
  5
91
100
AcDbEntity
  8
ASHADE
  6
Continuous
 62
           7
100
AcDbLine
 10
0.11
 20
0.279106
 30
0.0
 11
0.11
 21
0.5
 31
0.0
  0
LINE
  5
92
100
AcDbEntity
  8
ASHADE
  6
Continuous
 62
           7
100
AcDbLine
 10
0.0
 20
0.3
 30
0.0
 11
0.0
 21
0.5
 31
0.0
  0
LINE
  5
93
100
AcDbEntity
  8
ASHADE
  6
Continuous
 62
           7
100
AcDbLine
 10
-0.11
 20
0.279106
 30
0.0
 11
-0.11
 21
0.5
 31
0.0
  0
LINE
  5
94
100
AcDbEntity
  8
ASHADE
  6
Continuous
 62
           7
100
AcDbLine
 10
-0.21
 20
0.214243
 30
0.0
 11
-0.21
 21
0.5
 31
0.0
  0
ENDBLK
  5
95
100
AcDbEntity
  8
0
100
AcDbBlockEnd
  0
BLOCK
  5
BB
100
AcDbEntity
  8
0
100
AcDbBlockBegin
  2
SH_SPOT
 70
           2
 10
0.0
 20
0.0
 30
0.0
  3
SH_SPOT
  1

  0
ATTDEF
  5
BC
100
AcDbEntity
  8
ASHADE
  6
Continuous
 62
           1
100
AcDbText
 10
0.0
 20
-0.1
 30
0.0
 40
0.2
  1

  7
ASHADE
 72
           1
 11
0.0
 21
-0.1
 31
0.0
100
AcDbAttributeDefinition
  3
Light Name
  2
SNAME
 70
           0
  0
ATTDEF
  5
BD
100
AcDbEntity
  8
ASHADE
  6
Continuous
 62
           7
100
AcDbText
 10
0.0
 20
-0.15
 30
0.0
 40
0.01
  1

100
AcDbAttributeDefinition
  3

  2
GNAME
 70
           1
  0
ATTDEF
  5
BE
100
AcDbEntity
  8
ASHADE
  6
Continuous
 62
           7
100
AcDbText
 10
0.0
 20
-0.165
 30
0.0
 40
0.01
  1

100
AcDbAttributeDefinition
  3
Look-at X
  2
LAX
 70
           1
  0
ATTDEF
  5
BF
100
AcDbEntity
  8
ASHADE
  6
Continuous
 62
           7
100
AcDbText
 10
0.0
 20
-0.18
 30
0.0
 40
0.01
  1

100
AcDbAttributeDefinition
  3
Look-at Y
  2
LAY
 70
           1
  0
ATTDEF
  5
C0
100
AcDbEntity
  8
ASHADE
  6
Continuous
 62
           7
100
AcDbText
 10
0.0
 20
-0.195
 30
0.0
 40
0.01
  1

100
AcDbAttributeDefinition
  3
Look-at Z
  2
LAZ
 70
           1
  0
ATTDEF
  5
C1
100
AcDbEntity
  8
ASHADE
  6
Continuous
 62
           7
100
AcDbText
 10
0.0
 20
-0.21
 30
0.0
 40
0.01
  1
1
100
AcDbAttributeDefinition
  3
Light Intensity
  2
INTENSITY
 70
           1
  0
ATTDEF
  5
C2
100
AcDbEntity
  8
ASHADE
  6
Continuous
 62
           7
100
AcDbText
 10
0.0
 20
-0.225
 30
0.0
 40
0.01
  1
1,1,1
100
AcDbAttributeDefinition
  3
Light Color (RGB)
  2
COLOR
 70
           1
  0
ATTDEF
  5
C3
100
AcDbEntity
  8
ASHADE
  6
Continuous
 62
           7
100
AcDbText
 10
0.0
 20
-0.24
 30
0.0
 40
0.01
  1
0
100
AcDbAttributeDefinition
  3
Depth Map Size
  2
ZSIZE
 70
           1
  0
ATTDEF
  5
C4
100
AcDbEntity
  8
ASHADE
  6
Continuous
 62
           7
100
AcDbText
 10
0.0
 20
-0.255
 30
0.0
 40
0.01
  1
-1
100
AcDbAttributeDefinition
  3
*not used*
  2
BIASMIN
 70
           1
  0
ATTDEF
  5
C5
100
AcDbEntity
  8
ASHADE
  6
Continuous
 62
           7
100
AcDbText
 10
0.0
 20
-0.27
 30
0.0
 40
0.01
  1
-1
100
AcDbAttributeDefinition
  3
*not used*
  2
BIASMAX
 70
           1
  0
ATTDEF
  5
C6
100
AcDbEntity
  8
ASHADE
  6
Continuous
 62
           7
100
AcDbText
 10
0.0
 20
-0.285
 30
0.0
 40
0.01
  1
10.0
100
AcDbAttributeDefinition
  3
Cone Angle
  2
CONEAN
 70
           1
  0
ATTDEF
  5
C7
100
AcDbEntity
  8
ASHADE
  6
Continuous
 62
           7
100
AcDbText
 10
0.0
 20
-0.3
 30
0.0
 40
0.01
  1
0.0
100
AcDbAttributeDefinition
  3
Cone Delta
  2
CONEDE
 70
           1
  0
ATTDEF
  5
C8
100
AcDbEntity
  8
ASHADE
  6
Continuous
 62
           7
100
AcDbText
 10
0.0
 20
-0.315
 30
0.0
 40
0.01
  1
0.0
100
AcDbAttributeDefinition
  3
Beam Distribution
  2
BIAMDI
 70
           1
  0
LINE
  5
C9
100
AcDbEntity
  8
ASHADE
  6
Continuous
 62
           7
100
AcDbLine
 10
-0.25
 20
-0.13
 30
0.0
 11
-0.25
 21
-0.34
 31
0.0
  0
LINE
  5
CA
100
AcDbEntity
  8
ASHADE
  6
Continuous
 62
           7
100
AcDbLine
 10
-0.25
 20
-0.34
 30
0.0
 11
0.25
 21
-0.34
 31
0.0
  0
LINE
  5
CB
100
AcDbEntity
  8
ASHADE
  6
Continuous
 62
           7
100
AcDbLine
 10
0.25
 20
-0.34
 30
0.0
 11
0.25
 21
-0.13
 31
0.0
  0
LINE
  5
CC
100
AcDbEntity
  8
ASHADE
  6
Continuous
 62
           7
100
AcDbLine
 10
0.25
 20
0.13
 30
0.0
 11
0.25
 21
0.26
 31
0.0
  0
LINE
  5
CD
100
AcDbEntity
  8
ASHADE
  6
Continuous
 62
           7
100
AcDbLine
 10
0.25
 20
0.26
 30
0.0
 11
-0.25
 21
0.26
 31
0.0
  0
LINE
  5
CE
100
AcDbEntity
  8
ASHADE
  6
Continuous
 62
           7
100
AcDbLine
 10
-0.25
 20
0.26
 30
0.0
 11
-0.25
 21
0.13
 31
0.0
  0
LINE
  5
CF
100
AcDbEntity
  8
ASHADE
  6
Continuous
 62
           7
100
AcDbLine
 10
-0.21
 20
0.26
 30
0.0
 11
-0.301304
 21
0.46
 31
0.0
  0
LINE
  5
D0
100
AcDbEntity
  8
ASHADE
  6
Continuous
 62
           7
100
AcDbLine
 10
-0.104545
 20
0.26
 30
0.0
 11
-0.15
 21
0.46
 31
0.0
  0
LINE
  5
D1
100
AcDbEntity
  8
ASHADE
  6
Continuous
 62
           7
100
AcDbLine
 10
0.0
 20
0.26
 30
0.0
 11
0.0
 21
0.46
 31
0.0
  0
LINE
  5
D2
100
AcDbEntity
  8
ASHADE
  6
Continuous
 62
           7
100
AcDbLine
 10
0.104545
 20
0.26
 30
0.0
 11
0.15
 21
0.46
 31
0.0
  0
LINE
  5
D3
100
AcDbEntity
  8
ASHADE
  6
Continuous
 62
           7
100
AcDbLine
 10
0.21
 20
0.26
 30
0.0
 11
0.301304
 21
0.46
 31
0.0
  0
LINE
  5
D4
100
AcDbEntity
  8
ASHADE
  6
Continuous
 62
           7
100
AcDbLine
 10
-0.29
 20
-0.18
 30
0.0
 11
-0.29
 21
-0.22
 31
0.0
  0
LINE
  5
D5
100
AcDbEntity
  8
ASHADE
  6
Continuous
 62
           7
100
AcDbLine
 10
0.29
 20
-0.18
 30
0.0
 11
0.29
 21
-0.22
 31
0.0
  0
LINE
  5
D6
100
AcDbEntity
  8
ASHADE
  6
Continuous
 62
           7
100
AcDbLine
 10
0.29
 20
0.22
 30
0.0
 11
0.29
 21
0.18
 31
0.0
  0
LINE
  5
D7
100
AcDbEntity
  8
ASHADE
  6
Continuous
 62
           7
100
AcDbLine
 10
-0.29
 20
0.22
 30
0.0
 11
-0.29
 21
0.18
 31
0.0
  0
LINE
  5
D8
100
AcDbEntity
  8
ASHADE
  6
Continuous
 62
           7
100
AcDbLine
 10
-0.29
 20
-0.22
 30
0.0
 11
-0.25
 21
-0.22
 31
0.0
  0
LINE
  5
D9
100
AcDbEntity
  8
ASHADE
  6
Continuous
 62
           7
100
AcDbLine
 10
-0.25
 20
-0.18
 30
0.0
 11
-0.29
 21
-0.18
 31
0.0
  0
LINE
  5
DA
100
AcDbEntity
  8
ASHADE
  6
Continuous
 62
           7
100
AcDbLine
 10
0.29
 20
-0.22
 30
0.0
 11
0.25
 21
-0.22
 31
0.0
  0
LINE
  5
DB
100
AcDbEntity
  8
ASHADE
  6
Continuous
 62
           7
100
AcDbLine
 10
0.25
 20
-0.18
 30
0.0
 11
0.29
 21
-0.18
 31
0.0
  0
LINE
  5
DC
100
AcDbEntity
  8
ASHADE
  6
Continuous
 62
           7
100
AcDbLine
 10
0.29
 20
0.18
 30
0.0
 11
0.25
 21
0.18
 31
0.0
  0
LINE
  5
DD
100
AcDbEntity
  8
ASHADE
  6
Continuous
 62
           7
100
AcDbLine
 10
0.25
 20
0.22
 30
0.0
 11
0.29
 21
0.22
 31
0.0
  0
LINE
  5
DE
100
AcDbEntity
  8
ASHADE
  6
Continuous
 62
           7
100
AcDbLine
 10
-0.29
 20
0.18
 30
0.0
 11
-0.25
 21
0.18
 31
0.0
  0
LINE
  5
DF
100
AcDbEntity
  8
ASHADE
  6
Continuous
 62
           7
100
AcDbLine
 10
-0.25
 20
0.22
 30
0.0
 11
-0.29
 21
0.22
 31
0.0
  0
ATTDEF
  5
E0
100
AcDbEntity
  8
ASHADE
  6
Continuous
 62
           7
100
AcDbText
 10
0.0
 20
-0.33
 30
0.0
 40
0.01
  1
0,0,0
100
AcDbAttributeDefinition
  3
Look-from XYZ
  2
LFXYZ
 70
           1
  0
ENDBLK
  5
E1
100
AcDbEntity
  8
0
100
AcDbBlockEnd
  0
BLOCK
  5
2BF
100
AcDbEntity
  8
0
100
AcDbBlockBegin
  2
*D3
 70
           1
 10
0.0
 20
0.0
 30
0.0
  3
*D3
  1

  0
LINE
  5
2C0
100
AcDbEntity
  8
0
370
           0
  6
Continuous
 62
           7
100
AcDbLine
 10
1.21235
 20
2.099851796556
 30
0.0
 11
1.339067591833
 21
2.319333103823
 31
0.0
1001
TCAD
1000
TCW_ATTRIBUTE
1002
{
1000
<60°>
1002
}
  0
LINE
  5
2C1
100
AcDbEntity
  8
0
370
           0
  6
Continuous
 62
           7
100
AcDbLine
 10
-1.21235
 20
2.099851796556
 30
0.0
 11
-1.339067591833
 21
2.319333103823
 31
0.0
1001
TCAD
1000
TCW_ATTRIBUTE
1002
{
1000
<60°>
1002
}
  0
ARC
  5
2C2
100
AcDbEntity
  8
0
370
           0
  6
Continuous
 62
           7
100
AcDbCircle
 10
0.0
 20
0.0
 30
0.0
 40
2.553135183665
100
AcDbArc
 50
91.18162389929
 51
117.755722341105
1001
TCAD
1000
TCW_ATTRIBUTE
1002
{
1000
<60°>
1002
}
  0
ARC
  5
2C3
100
AcDbEntity
  8
0
370
           0
  6
Continuous
 62
           7
100
AcDbCircle
 10
0.0
 20
0.0
 30
0.0
 40
2.553135183665
100
AcDbArc
 50
62.244277658895
 51
88.81837610071
1001
TCAD
1000
TCW_ATTRIBUTE
1002
{
1000
<60°>
1002
}
  0
LWPOLYLINE
  5
2C6
100
AcDbEntity
  8
0
370
           0
  6
Continuous
 62
           7
100
AcDbPolyline
 90
        4
 70
           0
 10
1.276567591833
 20
2.21107992835
 40
0.0
 41
0.0
 10
1.195280744788
 20
2.270757801113
 40
0.0
 41
0.0
 10
1.182724198925
 20
2.247990869919
 40
0.0
 41
0.0
 10
1.276567591833
 20
2.21107992835
 40
0.0
 41
0.0
1001
TCAD
1000
TCW_ATTRIBUTE
1002
{
1000
<60°>
1002
}
  0
HATCH
  5
2C4
100
AcDbEntity
  8
0
  6
Continuous
 62
           7
100
AcDbHatch
 10
0.0
 20
0.0
 30
0.0
210
0.0
220
0.0
230
1.0
  2
SOLID
 70
           1
 71
           1
 91
        1
 92
        3
 72
           0
 73
           1
 93
        3
 10
1.2765675918327299
 20
2.2110799283501366
 10
1.1952807447880147
 20
2.2707578011132394
 10
1.1827241989248076
 20
2.2479908699193967
 97
        1
330
2C5
 75
           0
 76
           0
 98
        0
1001
TCAD
1000
TCW_ATTRIBUTE
1002
{
1000
<60°>
1002
}
  0
LWPOLYLINE
  5
2C9
100
AcDbEntity
  8
0
370
           0
  6
Continuous
 62
           7
100
AcDbPolyline
 90
        4
 70
           0
 10
-1.276567591833
 20
2.21107992835
 40
0.0
 41
0.0
 10
-1.182724198925
 20
2.247990869919
 40
0.0
 41
0.0
 10
-1.195280744788
 20
2.270757801113
 40
0.0
 41
0.0
 10
-1.276567591833
 20
2.21107992835
 40
0.0
 41
0.0
1001
TCAD
1000
TCW_ATTRIBUTE
1002
{
1000
<60°>
1002
}
  0
HATCH
  5
2C7
100
AcDbEntity
  8
0
  6
Continuous
 62
           7
100
AcDbHatch
 10
0.0
 20
0.0
 30
0.0
210
0.0
220
0.0
230
1.0
  2
SOLID
 70
           1
 71
           1
 91
        1
 92
        3
 72
           0
 73
           1
 93
        3
 10
-1.2765675918327293
 20
2.211079928350137
 10
-1.182724198924807
 20
2.2479908699193971
 10
-1.195280744788014
 20
2.2707578011132399
 97
        1
330
2C8
 75
           0
 76
           0
 98
        0
1001
TCAD
1000
TCW_ATTRIBUTE
1002
{
1000
<60°>
1002
}
  0
MTEXT
  5
2CA
100
AcDbEntity
  8
0
  6
Continuous
 62
           7
100
AcDbMText
 10
0.0
 20
2.553135183665
 30
0.0
 40
0.049980001152
 41
0.0
 71
           5
 72
           1
  1
\A1;60%%d{}
 73
           1
 44
1.0
1001
TCAD
1000
TCW_REFPOINT
1002
{
1010
0.0
1020
2.553135183665
1030
0.0
1002
}
1000
TCW_ATTRIBUTE
1002
{
1000
<60°>
1002
}
  0
ENDBLK
  5
2CB
100
AcDbEntity
  8
0
100
AcDbBlockEnd
  0
BLOCK
  5
2CE
100
AcDbEntity
  8
0
100
AcDbBlockBegin
  2
*D4
 70
           1
 10
0.0
 20
0.0
 30
0.0
  3
*D4
  1

  0
MTEXT
  5
2CF
100
AcDbEntity
  8
0
  6
Continuous
 62
           7
100
AcDbMText
 10
1.293307835376
 20
1.325821134478
 30
0.0
 40
0.049980001152
 41
0.0
 71
           5
 72
           1
  1
\A1;R1.1811{}"
 73
           1
 44
1.0
1001
TCAD
1000
TCW_REFPOINT
1002
{
1010
1.293307835376
1020
1.325821134478
1030
0.0
1002
}
1000
TCW_ATTRIBUTE
1002
{
1000
<R1.1811>
1002
}
  0
LWPOLYLINE
  5
2D0
100
AcDbEntity
  8
0
370
           0
  6
Continuous
 62
           7
100
AcDbPolyline
 90
        3
 70
           0
 10
0.853083132469
 20
0.955754350813
 40
0.0
 41
0.0
 10
1.119442708605
 20
1.254171133519
 40
0.0
 41
0.0
 10
1.437172962148
 20
1.254171133519
 40
0.0
 41
0.0
1001
TCAD
1000
TCW_ATTRIBUTE
1002
{
1000
<R1.1811>
1002
}
  0
LWPOLYLINE
  5
2D3
100
AcDbEntity
  8
0
370
           0
  6
Continuous
 62
           7
100
AcDbPolyline
 90
        4
 70
           0
 10
0.786493238435
 20
0.881150155136
 40
0.0
 41
0.0
 10
0.862781677907
 20
0.947097664588
 40
0.0
 41
0.0
 10
0.843384587031
 20
0.964411037037
 40
0.0
 41
0.0
 10
0.786493238435
 20
0.881150155136
 40
0.0
 41
0.0
1001
TCAD
1000
TCW_ATTRIBUTE
1002
{
1000
<R1.1811>
1002
}
  0
HATCH
  5
2D1
100
AcDbEntity
  8
0
  6
Continuous
 62
           7
100
AcDbHatch
 10
0.0
 20
0.0
 30
0.0
210
0.0
220
0.0
230
1.0
  2
SOLID
 70
           1
 71
           1
 91
        1
 92
        3
 72
           0
 73
           1
 93
        3
 10
0.7864932384348914
 20
0.8811501551359986
 10
0.8627816779067881
 20
0.9470976645881587
 10
0.8433845870308792
 20
0.9644110370369837
 97
        1
330
2D2
 75
           0
 76
           0
 98
        0
1001
TCAD
1000
TCW_ATTRIBUTE
1002
{
1000
<R1.1811>
1002
}
  0
LWPOLYLINE
  5
2D4
100
AcDbEntity
  8
0
370
           0
  6
Continuous
 62
           7
100
AcDbPolyline
 90
        2
 70
           0
 10
-0.05
 20
0.0
 10
0.05
 20
0.0
1001
TCAD
1000
TCW_ATTRIBUTE
1002
{
1000
<R1.1811>
1002
}
  0
LWPOLYLINE
  5
2D5
100
AcDbEntity
  8
0
370
           0
  6
Continuous
 62
           7
100
AcDbPolyline
 90
        2
 70
           0
 10
0.0
 20
-0.05
 40
0.0
 41
0.0
 10
0.0
 20
0.05
 40
0.0
 41
0.0
1001
TCAD
1000
TCW_ATTRIBUTE
1002
{
1000
<R1.1811>
1002
}
  0
ENDBLK
  5
2D6
100
AcDbEntity
  8
0
100
AcDbBlockEnd
  0
BLOCK
  5
2D9
100
AcDbEntity
  8
0
100
AcDbBlockBegin
  2
*D5
 70
           1
 10
0.0
 20
0.0
 30
0.0
  3
*D5
  1

  0
MTEXT
  5
2DA
100
AcDbEntity
  8
0
  6
Continuous
 62
           7
100
AcDbMText
 10
1.806996492085
 20
2.516385903602
 30
0.0
 40
0.049980001152
 41
0.0
 71
           5
 72
           1
  1
\A1;R2.3622{}"
 73
           1
 44
1.0
1001
TCAD
1000
TCW_REFPOINT
1002
{
1010
1.806996492085
1020
2.516385903602
1030
0.0
1002
}
1000
TCW_ATTRIBUTE
1002
{
1000
<R2.3622>
1002
}
  0
LWPOLYLINE
  5
2DB
100
AcDbEntity
  8
0
370
           0
  6
Continuous
 62
           7
100
AcDbPolyline
 90
        3
 70
           0
 10
1.367699831459
 20
2.047394932842
 40
0.0
 41
0.0
 10
1.633131365313
 20
2.444735902643
 40
0.0
 41
0.0
 10
1.950861618856
 20
2.444735902643
 40
0.0
 41
0.0
1001
TCAD
1000
TCW_ATTRIBUTE
1002
{
1000
<R2.3622>
1002
}
  0
LWPOLYLINE
  5
2DE
100
AcDbEntity
  8
0
370
           0
  6
Continuous
 62
           7
100
AcDbPolyline
 90
        4
 70
           0
 10
1.312151954298
 20
1.964241861083
 40
0.0
 41
0.0
 10
1.378509730788
 20
2.040173708811
 40
0.0
 41
0.0
 10
1.356889932131
 20
2.054616156873
 40
0.0
 41
0.0
 10
1.312151954298
 20
1.964241861083
 40
0.0
 41
0.0
1001
TCAD
1000
TCW_ATTRIBUTE
1002
{
1000
<R2.3622>
1002
}
  0
HATCH
  5
2DC
100
AcDbEntity
  8
0
  6
Continuous
 62
           7
100
AcDbHatch
 10
0.0
 20
0.0
 30
0.0
210
0.0
220
0.0
230
1.0
  2
SOLID
 70
           1
 71
           1
 91
        1
 92
        3
 72
           0
 73
           1
 93
        3
 10
1.3121519542982407
 20
1.9642418610831236
 10
1.3785097307879135
 20
2.0401737088108503
 10
1.3568899321306613
 20
2.0546161568727221
 97
        1
330
2DD
 75
           0
 76
           0
 98
        0
1001
TCAD
1000
TCW_ATTRIBUTE
1002
{
1000
<R2.3622>
1002
}
  0
LWPOLYLINE
  5
2DF
100
AcDbEntity
  8
0
370
           0
  6
Continuous
 62
           7
100
AcDbPolyline
 90
        2
 70
           0
 10
-0.05
 20
0.0
 10
0.05
 20
0.0
1001
TCAD
1000
TCW_ATTRIBUTE
1002
{
1000
<R2.3622>
1002
}
  0
LWPOLYLINE
  5
2E0
100
AcDbEntity
  8
0
370
           0
  6
Continuous
 62
           7
100
AcDbPolyline
 90
        2
 70
           0
 10
0.0
 20
-0.05
 40
0.0
 41
0.0
 10
0.0
 20
0.05
 40
0.0
 41
0.0
1001
TCAD
1000
TCW_ATTRIBUTE
1002
{
1000
<R2.3622>
1002
}
  0
ENDBLK
  5
2E1
100
AcDbEntity
  8
0
100
AcDbBlockEnd
  0
BLOCK
  5
2E4
100
AcDbEntity
  8
0
100
AcDbBlockBegin
  2
*D6
 70
           1
 10
0.0
 20
0.0
 30
0.0
  3
*D6
  1

  0
LINE
  5
2E5
100
AcDbEntity
  8
0
370
           0
  6
Continuous
 62
           7
100
AcDbLine
 10
-1.08125
 20
1.872779935684
 30
0.0
 11
-1.533221776617
 21
2.655618016372
 31
0.0
1001
TCAD
1000
TCW_ATTRIBUTE
1002
{
1000
<15°>
1002
}
  0
LINE
  5
2E6
100
AcDbEntity
  8
0
370
           0
  6
Continuous
 62
           7
100
AcDbLine
 10
-0.559696185034
 20
2.08881459935
 30
0.0
 11
-0.793653992309
 21
2.961957022927
 31
0.0
1001
TCAD
1000
TCW_ATTRIBUTE
1002
{
1000
<15°>
1002
}
  0
ARC
  5
2E7
100
AcDbEntity
  8
0
370
           0
  6
Continuous
 62
           7
100
AcDbCircle
 10
0.0
 20
0.0
 30
0.0
 40
2.941443553234
100
AcDbArc
 50
113.614620916654
 51
118.052026561772
1001
TCAD
1000
TCW_ATTRIBUTE
1002
{
1000
<15°>
1002
}
  0
ARC
  5
2E8
100
AcDbEntity
  8
0
370
           0
  6
Continuous
 62
           7
100
AcDbCircle
 10
0.0
 20
0.0
 30
0.0
 40
2.941443553234
100
AcDbArc
 50
106.947973438228
 51
111.394290603715
1001
TCAD
1000
TCW_ATTRIBUTE
1002
{
1000
<15°>
1002
}
  0
LWPOLYLINE
  5
2EB
100
AcDbEntity
  8
0
370
           0
  6
Continuous
 62
           7
100
AcDbPolyline
 90
        4
 70
           0
 10
-0.761301611671
 20
2.84121629464
 40
0.0
 41
0.0
 10
-0.861017897445
 20
2.826194232485
 40
0.0
 41
0.0
 10
-0.8538626741
 20
2.801198177219
 40
0.0
 41
0.0
 10
-0.761301611671
 20
2.84121629464
 40
0.0
 41
0.0
1001
TCAD
1000
TCW_ATTRIBUTE
1002
{
1000
<15°>
1002
}
  0
HATCH
  5
2E9
100
AcDbEntity
  8
0
  6
Continuous
 62
           7
100
AcDbHatch
 10
0.0
 20
0.0
 30
0.0
210
0.0
220
0.0
230
1.0
  2
SOLID
 70
           1
 71
           1
 91
        1
 92
        3
 72
           0
 73
           1
 93
        3
 10
-0.761301611671066
 20
2.8412162946404855
 10
-0.8610178974452462
 20
2.8261942324850406
 10
-0.8538626741001946
 20
2.8011981772186103
 97
        1
330
2EA
 75
           0
 76
           0
 98
        0
1001
TCAD
1000
TCW_ATTRIBUTE
1002
{
1000
<15°>
1002
}
  0
LWPOLYLINE
  5
2EE
100
AcDbEntity
  8
0
370
           0
  6
Continuous
 62
           7
100
AcDbPolyline
 90
        4
 70
           0
 10
-1.470721776617
 20
2.547364840899
 40
0.0
 41
0.0
 10
-1.3769741395
 20
2.584518313617
 40
0.0
 41
0.0
 10
-1.389589512734
 20
2.607252700747
 40
0.0
 41
0.0
 10
-1.470721776617
 20
2.547364840899
 40
0.0
 41
0.0
1001
TCAD
1000
TCW_ATTRIBUTE
1002
{
1000
<15°>
1002
}
  0
HATCH
  5
2EC
100
AcDbEntity
  8
0
  6
Continuous
 62
           7
100
AcDbHatch
 10
0.0
 20
0.0
 30
0.0
210
0.0
220
0.0
230
1.0
  2
SOLID
 70
           1
 71
           1
 91
        1
 92
        3
 72
           0
 73
           1
 93
        3
 10
-1.4707217766171448
 20
2.5473648408988621
 10
-1.3769741395003492
 20
2.5845183136170031
 10
-1.3895895127339655
 20
2.6072527007469994
 97
        1
330
2ED
 75
           0
 76
           0
 98
        0
1001
TCAD
1000
TCW_ATTRIBUTE
1002
{
1000
<15°>
1002
}
  0
MTEXT
  5
2EF
100
AcDbEntity
  8
0
  6
Continuous
 62
           7
100
AcDbMText
 10
-1.12564171506
 20
2.71753949487
 30
0.0
 40
0.049980001152
 41
0.0
 71
           5
 72
           1
  1
\A1;15%%d{}
 73
           1
 44
1.0
1001
TCAD
1000
TCW_REFPOINT
1002
{
1010
-1.12564171506
1020
2.71753949487
1030
0.0
1002
}
1000
TCW_ATTRIBUTE
1002
{
1000
<15°>
1002
}
  0
ENDBLK
  5
2F0
100
AcDbEntity
  8
0
100
AcDbBlockEnd
  0
BLOCK
  5
2F3
100
AcDbEntity
  8
0
100
AcDbBlockBegin
  2
*D7
 70
           1
 10
0.0
 20
0.0
 30
0.0
  3
*D7
  1

  0
MTEXT
  5
2F4
100
AcDbEntity
  8
0
  6
Continuous
 62
           7
100
AcDbMText
 10
1.461148782545
 20
2.773056313844
 30
0.0
 40
0.049980001152
 41
0.0
 71
           5
 72
           1
  1
\A1;two 4/40 threaded through holes \Pon a 4.2" diameter bolt circle{}
 73
           1
 44
1.0
1001
TCAD
1000
TCW_REFPOINT
1002
{
1010
1.461148782545
1020
2.773056313844
1030
0.0
1002
}
1000
TCW_ATTRIBUTE
1002
{
1000
two 4/40 threaded through holes ^M^Jon a 4.2" diameter bolt circle
1002
}
  0
LWPOLYLINE
  5
2F5
100
AcDbEntity
  8
0
370
           0
  6
Continuous
 62
           7
100
AcDbPolyline
 90
        3
 70
           0
 10
0.625758206321
 20
2.158647447732
 40
0.0
 41
0.0
 10
0.955003246422
 20
2.679922911928
 40
0.0
 41
0.0
 10
1.957294318668
 20
2.679922911928
 40
0.0
 41
0.0
1001
TCAD
1000
TCW_ATTRIBUTE
1002
{
1000
two 4/40 threaded through holes ^M^Jon a 4.2" diameter bolt circle
1002
}
  0
LINE
  5
2F6
100
AcDbEntity
  8
0
370
           0
  6
Continuous
 62
           7
100
AcDbLine
 10
0.514683219217
 20
1.982788563283
 30
0.0
 11
0.514683219217
 21
1.982788563283
 31
0.0
1001
TCAD
1000
TCW_ATTRIBUTE
1002
{
1000
two 4/40 threaded through holes ^M^Jon a 4.2" diameter bolt circle
1002
}
  0
LWPOLYLINE
  5
2F9
100
AcDbEntity
  8
0
370
           0
  6
Continuous
 62
           7
100
AcDbPolyline
 90
        4
 70
           0
 10
0.572356770213
 20
2.074099907132
 40
0.0
 41
0.0
 10
0.636749386599
 20
2.151705261038
 40
0.0
 41
0.0
 10
0.614767026043
 20
2.165589634426
 40
0.0
 41
0.0
 10
0.572356770213
 20
2.074099907132
 40
0.0
 41
0.0
1001
TCAD
1000
TCW_ATTRIBUTE
1002
{
1000
two 4/40 threaded through holes ^M^Jon a 4.2" diameter bolt circle
1002
}
  0
HATCH
  5
2F7
100
AcDbEntity
  8
0
  6
Continuous
 62
           7
100
AcDbHatch
 10
0.0
 20
0.0
 30
0.0
210
0.0
220
0.0
230
1.0
  2
SOLID
 70
           1
 71
           1
 91
        1
 92
        3
 72
           0
 73
           1
 93
        3
 10
0.5723567702133174
 20
2.0740999071315276
 10
0.6367493865988891
 20
2.1517052610384622
 10
0.6147670260426541
 20
2.1655896344264005
 97
        1
330
2F8
 75
           0
 76
           0
 98
        0
1001
TCAD
1000
TCW_ATTRIBUTE
1002
{
1000
two 4/40 threaded through holes ^M^Jon a 4.2" diameter bolt circle
1002
}
  0
LWPOLYLINE
  5
2FA
100
AcDbEntity
  8
0
370
           0
  6
Continuous
 62
           7
100
AcDbPolyline
 90
        2
 70
           0
 10
0.493519994715
 20
2.028444235207
 10
0.593519994715
 20
2.028444235207
1001
TCAD
1000
TCW_ATTRIBUTE
1002
{
1000
two 4/40 threaded through holes ^M^Jon a 4.2" diameter bolt circle
1002
}
  0
LWPOLYLINE
  5
2FB
100
AcDbEntity
  8
0
370
           0
  6
Continuous
 62
           7
100
AcDbPolyline
 90
        2
 70
           0
 10
0.543519994715
 20
1.978444235207
 40
0.0
 41
0.0
 10
0.543519994715
 20
2.078444235207
 40
0.0
 41
0.0
1001
TCAD
1000
TCW_ATTRIBUTE
1002
{
1000
two 4/40 threaded through holes ^M^Jon a 4.2" diameter bolt circle
1002
}
  0
ENDBLK
  5
2FC
100
AcDbEntity
  8
0
100
AcDbBlockEnd
  0
BLOCK
  5
300
100
AcDbEntity
  8
0
100
AcDbBlockBegin
  2
*D8
 70
           1
 10
0.0
 20
0.0
 30
0.0
  3
*D8
  1

  0
LINE
  5
301
100
AcDbEntity
  8
0
370
           0
  6
Continuous
 62
           7
100
AcDbLine
 10
-0.662474278231
 20
1.4500576806
 30
0.0
 11
-1.24447663582
 21
1.450594804751
 31
0.0
1001
TCAD
1000
TCW_ATTRIBUTE
1002
{
1000
<1.45>
1002
}
  0
LINE
  5
302
100
AcDbEntity
  8
0
370
           0
  6
Continuous
 62
           7
100
AcDbLine
 10
-0.663812468718
 20
0.0000576806
 30
0.0
 11
-1.245814826307
 21
0.000594804751
 31
0.0
1001
TCAD
1000
TCW_ATTRIBUTE
1002
{
1000
<1.45>
1002
}
  0
LWPOLYLINE
  5
303
100
AcDbEntity
  8
0
370
           0
  6
Continuous
 62
           7
100
AcDbPolyline
 90
        4
 70
           0
 10
-1.119568978013
 20
1.350479486137
 10
-1.119568978013
 20
1.350479486137
 10
-1.119568978013
 20
1.350479486137
 10
-1.12007965924
 20
0.797129431735
1001
TCAD
1000
TCW_ATTRIBUTE
1002
{
1000
<1.45>
1002
}
  0
LWPOLYLINE
  5
304
100
AcDbEntity
  8
0
370
           0
  6
Continuous
 62
           7
100
AcDbPolyline
 90
        4
 70
           0
 10
-1.12072259058
 20
0.100479400965
 10
-1.12072259058
 20
0.100479400965
 10
-1.12072259058
 20
0.100479400965
 10
-1.120211909354
 20
0.653829455367
1001
TCAD
1000
TCW_ATTRIBUTE
1002
{
1000
<1.45>
1002
}
  0
LWPOLYLINE
  5
307
100
AcDbEntity
  8
0
370
           0
  6
Continuous
 62
           7
100
AcDbPolyline
 90
        4
 70
           0
 10
-1.119476689053
 20
1.450479443551
 40
0.0
 41
0.0
 10
-1.132568972477
 20
1.350491483702
 40
0.0
 41
0.0
 10
-1.106568983549
 20
1.350467488572
 40
0.0
 41
0.0
 10
-1.119476689053
 20
1.450479443551
 40
0.0
 41
0.0
1001
TCAD
1000
TCW_ATTRIBUTE
1002
{
1000
<1.45>
1002
}
  0
HATCH
  5
305
100
AcDbEntity
  8
0
  6
Continuous
 62
           7
100
AcDbHatch
 10
0.0
 20
0.0
 30
0.0
210
0.0
220
0.0
230
1.0
  2
SOLID
 70
           1
 71
           1
 91
        1
 92
        3
 72
           0
 73
           1
 93
        3
 10
-1.1194766890529637
 20
1.4504794435508073
 10
-1.1325689724765697
 20
1.3504914837018536
 10
-1.106568983549
 20
1.3504674885723
 97
        1
330
306
 75
           0
 76
           0
 98
        0
1001
TCAD
1000
TCW_ATTRIBUTE
1002
{
1000
<1.45>
1002
}
  0
LWPOLYLINE
  5
30A
100
AcDbEntity
  8
0
370
           0
  6
Continuous
 62
           7
100
AcDbPolyline
 90
        4
 70
           0
 10
-1.12081487954
 20
0.000479443551
 40
0.0
 41
0.0
 10
-1.107722596117
 20
0.1004674034
 40
0.0
 41
0.0
 10
-1.133722585044
 20
0.100491398529
 40
0.0
 41
0.0
 10
-1.12081487954
 20
0.000479443551
 40
0.0
 41
0.0
1001
TCAD
1000
TCW_ATTRIBUTE
1002
{
1000
<1.45>
1002
}
  0
HATCH
  5
308
100
AcDbEntity
  8
0
  6
Continuous
 62
           7
100
AcDbHatch
 10
0.0
 20
0.0
 30
0.0
210
0.0
220
0.0
230
1.0
  2
SOLID
 70
           1
 71
           1
 91
        1
 92
        3
 72
           0
 73
           1
 93
        3
 10
-1.1208148795402575
 20
0.0004794435508068
 10
-1.1077225961166515
 20
0.1004674033997605
 10
-1.1337225850442212
 20
0.100491398529314
 97
        1
330
309
 75
           0
 76
           0
 98
        0
1001
TCAD
1000
TCW_ATTRIBUTE
1002
{
1000
<1.45>
1002
}
  0
MTEXT
  5
30B
100
AcDbEntity
  8
0
  6
Continuous
 62
           7
100
AcDbMText
 10
-1.120145784297
 20
0.725479443551
 30
0.0
 40
0.049980001152
 41
0.0
 71
           5
 72
           1
  1
\A1;1.45{}"
 73
           1
 44
1.0
1001
TCAD
1000
TCW_REFPOINT
1002
{
1010
-1.120145784297
1020
0.725479443551
1030
0.0
1002
}
1000
TCW_ATTRIBUTE
1002
{
1000
<1.45>
1002
}
  0
ENDBLK
  5
30C
100
AcDbEntity
  8
0
100
AcDbBlockEnd
  0
BLOCK
  5
30F
100
AcDbEntity
  8
0
100
AcDbBlockBegin
  2
*D9
 70
           1
 10
0.0
 20
0.0
 30
0.0
  3
*D9
  1

  0
LINE
  5
310
100
AcDbEntity
  8
0
370
           0
  6
Continuous
 62
           7
100
AcDbLine
 10
-0.543519994715
 20
-1.2467
 30
0.0
 11
-0.543519994715
 21
-1.467510949378
 31
0.0
1001
TCAD
1000
TCW_ATTRIBUTE
1002
{
1000
<1.087>
1002
}
  0
LINE
  5
311
100
AcDbEntity
  8
0
370
           0
  6
Continuous
 62
           7
100
AcDbLine
 10
0.543519994715
 20
-1.2467
 30
0.0
 11
0.543519994715
 21
-1.467510949378
 31
0.0
1001
TCAD
1000
TCW_ATTRIBUTE
1002
{
1000
<1.087>
1002
}
  0
LWPOLYLINE
  5
312
100
AcDbEntity
  8
0
370
           0
  6
Continuous
 62
           7
100
AcDbPolyline
 90
        4
 70
           0
 10
-0.443519994715
 20
-1.342510949378
 10
-0.443519994715
 20
-1.342510949378
 10
-0.443519994715
 20
-1.342510949378
 10
-0.0
 20
-1.342510949378
1001
TCAD
1000
TCW_ATTRIBUTE
1002
{
1000
<1.087>
1002
}
  0
LWPOLYLINE
  5
313
100
AcDbEntity
  8
0
370
           0
  6
Continuous
 62
           7
100
AcDbPolyline
 90
        4
 70
           0
 10
0.443519994715
 20
-1.342510949378
 10
0.443519994715
 20
-1.342510949378
 10
0.443519994715
 20
-1.342510949378
 10
-0.0
 20
-1.342510949378
1001
TCAD
1000
TCW_ATTRIBUTE
1002
{
1000
<1.087>
1002
}
  0
LWPOLYLINE
  5
316
100
AcDbEntity
  8
0
370
           0
  6
Continuous
 62
           7
100
AcDbPolyline
 90
        4
 70
           0
 10
-0.543519994715
 20
-1.342510949378
 40
0.0
 41
0.0
 10
-0.443519994715
 20
-1.355510949378
 40
0.0
 41
0.0
 10
-0.443519994715
 20
-1.329510949378
 40
0.0
 41
0.0
 10
-0.543519994715
 20
-1.342510949378
 40
0.0
 41
0.0
1001
TCAD
1000
TCW_ATTRIBUTE
1002
{
1000
<1.087>
1002
}
  0
HATCH
  5
314
100
AcDbEntity
  8
0
  6
Continuous
 62
           7
100
AcDbHatch
 10
0.0
 20
0.0
 30
0.0
210
0.0
220
0.0
230
1.0
  2
SOLID
 70
           1
 71
           1
 91
        1
 92
        3
 72
           0
 73
           1
 93
        3
 10
-0.543519994715294
 20
-1.3425109493781153
 10
-0.443519994715294
 20
-1.3555109493781152
 10
-0.443519994715294
 20
-1.3295109493781154
 97
        1
330
315
 75
           0
 76
           0
 98
        0
1001
TCAD
1000
TCW_ATTRIBUTE
1002
{
1000
<1.087>
1002
}
  0
LWPOLYLINE
  5
319
100
AcDbEntity
  8
0
370
           0
  6
Continuous
 62
           7
100
AcDbPolyline
 90
        4
 70
           0
 10
0.543519994715
 20
-1.342510949378
 40
0.0
 41
0.0
 10
0.443519994715
 20
-1.329510949378
 40
0.0
 41
0.0
 10
0.443519994715
 20
-1.355510949378
 40
0.0
 41
0.0
 10
0.543519994715
 20
-1.342510949378
 40
0.0
 41
0.0
1001
TCAD
1000
TCW_ATTRIBUTE
1002
{
1000
<1.087>
1002
}
  0
HATCH
  5
317
100
AcDbEntity
  8
0
  6
Continuous
 62
           7
100
AcDbHatch
 10
0.0
 20
0.0
 30
0.0
210
0.0
220
0.0
230
1.0
  2
SOLID
 70
           1
 71
           1
 91
        1
 92
        3
 72
           0
 73
           1
 93
        3
 10
0.5435199947152931
 20
-1.3425109493781153
 10
0.4435199947152931
 20
-1.3295109493781154
 10
0.4435199947152931
 20
-1.3555109493781152
 97
        1
330
318
 75
           0
 76
           0
 98
        0
1001
TCAD
1000
TCW_ATTRIBUTE
1002
{
1000
<1.087>
1002
}
  0
MTEXT
  5
31A
100
AcDbEntity
  8
0
  6
Continuous
 62
           7
100
AcDbMText
 10
-0.0
 20
-1.270860948418
 30
0.0
 40
0.049980001152
 41
0.0
 71
           5
 72
           1
  1
\A1;1.087{}"
 73
           1
 44
1.0
1001
TCAD
1000
TCW_REFPOINT
1002
{
1010
-0.0
1020
-1.270860948418
1030
0.0
1002
}
1000
TCW_ATTRIBUTE
1002
{
1000
<1.087>
1002
}
  0
ENDBLK
  5
31B
100
AcDbEntity
  8
0
100
AcDbBlockEnd
  0
BLOCK
  5
31E
100
AcDbEntity
  8
0
100
AcDbBlockBegin
  2
*D10
 70
           1
 10
0.0
 20
0.0
 30
0.0
  3
*D10
  1

  0
LINE
  5
31F
100
AcDbEntity
  8
0
370
           0
  6
Continuous
 62
           7
100
AcDbLine
 10
-0.59055
 20
-1.2467
 30
0.0
 11
-0.59055
 21
-1.618726494268
 31
0.0
1001
TCAD
1000
TCW_ATTRIBUTE
1002
{
1000
<1.1811>
1002
}
  0
LINE
  5
320
100
AcDbEntity
  8
0
370
           0
  6
Continuous
 62
           7
100
AcDbLine
 10
0.59055
 20
-1.2467
 30
0.0
 11
0.59055
 21
-1.618726494268
 31
0.0
1001
TCAD
1000
TCW_ATTRIBUTE
1002
{
1000
<1.1811>
1002
}
  0
LWPOLYLINE
  5
321
100
AcDbEntity
  8
0
370
           0
  6
Continuous
 62
           7
100
AcDbPolyline
 90
        4
 70
           0
 10
-0.49055
 20
-1.493726494268
 10
-0.49055
 20
-1.493726494268
 10
-0.49055
 20
-1.493726494268
 10
-0.0
 20
-1.493726494268
1001
TCAD
1000
TCW_ATTRIBUTE
1002
{
1000
<1.1811>
1002
}
  0
LWPOLYLINE
  5
322
100
AcDbEntity
  8
0
370
           0
  6
Continuous
 62
           7
100
AcDbPolyline
 90
        4
 70
           0
 10
0.49055
 20
-1.493726494268
 10
0.49055
 20
-1.493726494268
 10
0.49055
 20
-1.493726494268
 10
-0.0
 20
-1.493726494268
1001
TCAD
1000
TCW_ATTRIBUTE
1002
{
1000
<1.1811>
1002
}
  0
LWPOLYLINE
  5
325
100
AcDbEntity
  8
0
370
           0
  6
Continuous
 62
           7
100
AcDbPolyline
 90
        4
 70
           0
 10
-0.59055
 20
-1.493726494268
 40
0.0
 41
0.0
 10
-0.49055
 20
-1.506726494268
 40
0.0
 41
0.0
 10
-0.49055
 20
-1.480726494268
 40
0.0
 41
0.0
 10
-0.59055
 20
-1.493726494268
 40
0.0
 41
0.0
1001
TCAD
1000
TCW_ATTRIBUTE
1002
{
1000
<1.1811>
1002
}
  0
HATCH
  5
323
100
AcDbEntity
  8
0
  6
Continuous
 62
           7
100
AcDbHatch
 10
0.0
 20
0.0
 30
0.0
210
0.0
220
0.0
230
1.0
  2
SOLID
 70
           1
 71
           1
 91
        1
 92
        3
 72
           0
 73
           1
 93
        3
 10
-0.5905500000000001
 20
-1.4937264942681121
 10
-0.4905500000000002
 20
-1.506726494268112
 10
-0.4905500000000002
 20
-1.4807264942681122
 97
        1
330
324
 75
           0
 76
           0
 98
        0
1001
TCAD
1000
TCW_ATTRIBUTE
1002
{
1000
<1.1811>
1002
}
  0
LWPOLYLINE
  5
328
100
AcDbEntity
  8
0
370
           0
  6
Continuous
 62
           7
100
AcDbPolyline
 90
        4
 70
           0
 10
0.59055
 20
-1.493726494268
 40
0.0
 41
0.0
 10
0.49055
 20
-1.480726494268
 40
0.0
 41
0.0
 10
0.49055
 20
-1.506726494268
 40
0.0
 41
0.0
 10
0.59055
 20
-1.493726494268
 40
0.0
 41
0.0
1001
TCAD
1000
TCW_ATTRIBUTE
1002
{
1000
<1.1811>
1002
}
  0
HATCH
  5
326
100
AcDbEntity
  8
0
  6
Continuous
 62
           7
100
AcDbHatch
 10
0.0
 20
0.0
 30
0.0
210
0.0
220
0.0
230
1.0
  2
SOLID
 70
           1
 71
           1
 91
        1
 92
        3
 72
           0
 73
           1
 93
        3
 10
0.5905499999999997
 20
-1.4937264942681123
 10
0.4905499999999997
 20
-1.4807264942681124
 10
0.4905499999999997
 20
-1.5067264942681122
 97
        1
330
327
 75
           0
 76
           0
 98
        0
1001
TCAD
1000
TCW_ATTRIBUTE
1002
{
1000
<1.1811>
1002
}
  0
MTEXT
  5
329
100
AcDbEntity
  8
0
  6
Continuous
 62
           7
100
AcDbMText
 10
-0.0
 20
-1.422076493308
 30
0.0
 40
0.049980001152
 41
0.0
 71
           5
 72
           1
  1
\A1;1.1811{}"
 73
           1
 44
1.0
1001
TCAD
1000
TCW_REFPOINT
1002
{
1010
-0.0
1020
-1.422076493308
1030
0.0
1002
}
1000
TCW_ATTRIBUTE
1002
{
1000
<1.1811>
1002
}
  0
ENDBLK
  5
32A
100
AcDbEntity
  8
0
100
AcDbBlockEnd
  0
BLOCK
  5
32D
100
AcDbEntity
  8
0
100
AcDbBlockBegin
  2
*D11
 70
           1
 10
0.0
 20
0.0
 30
0.0
  3
*D11
  1

  0
LINE
  5
32E
100
AcDbEntity
  8
0
370
           0
  6
Continuous
 62
           7
100
AcDbLine
 10
-1.1811
 20
-0.8068
 30
0.0
 11
-1.1811
 21
-0.038564974706
 31
0.0
1001
TCAD
1000
TCW_ATTRIBUTE
1002
{
1000
<2.3622>
1002
}
  0
LINE
  5
32F
100
AcDbEntity
  8
0
370
           0
  6
Continuous
 62
           7
100
AcDbLine
 10
1.1811
 20
-0.8068
 30
0.0
 11
1.1811
 21
-0.038564974706
 31
0.0
1001
TCAD
1000
TCW_ATTRIBUTE
1002
{
1000
<2.3622>
1002
}
  0
LWPOLYLINE
  5
330
100
AcDbEntity
  8
0
370
           0
  6
Continuous
 62
           7
100
AcDbPolyline
 90
        4
 70
           0
 10
-1.0811
 20
-0.163564974706
 10
-1.0811
 20
-0.163564974706
 10
-1.0811
 20
-0.163564974706
 10
0.0
 20
-0.163564974706
1001
TCAD
1000
TCW_ATTRIBUTE
1002
{
1000
<2.3622>
1002
}
  0
LWPOLYLINE
  5
331
100
AcDbEntity
  8
0
370
           0
  6
Continuous
 62
           7
100
AcDbPolyline
 90
        4
 70
           0
 10
1.0811
 20
-0.163564974706
 10
1.0811
 20
-0.163564974706
 10
1.0811
 20
-0.163564974706
 10
0.0
 20
-0.163564974706
1001
TCAD
1000
TCW_ATTRIBUTE
1002
{
1000
<2.3622>
1002
}
  0
LWPOLYLINE
  5
334
100
AcDbEntity
  8
0
370
           0
  6
Continuous
 62
           7
100
AcDbPolyline
 90
        4
 70
           0
 10
-1.1811
 20
-0.163564974706
 40
0.0
 41
0.0
 10
-1.0811
 20
-0.176564974706
 40
0.0
 41
0.0
 10
-1.0811
 20
-0.150564974706
 40
0.0
 41
0.0
 10
-1.1811
 20
-0.163564974706
 40
0.0
 41
0.0
1001
TCAD
1000
TCW_ATTRIBUTE
1002
{
1000
<2.3622>
1002
}
  0
HATCH
  5
332
100
AcDbEntity
  8
0
  6
Continuous
 62
           7
100
AcDbHatch
 10
0.0
 20
0.0
 30
0.0
210
0.0
220
0.0
230
1.0
  2
SOLID
 70
           1
 71
           1
 91
        1
 92
        3
 72
           0
 73
           1
 93
        3
 10
-1.1810999999999998
 20
-0.1635649747061874
 10
-1.0810999999999997
 20
-0.1765649747061874
 10
-1.0810999999999997
 20
-0.1505649747061874
 97
        1
330
333
 75
           0
 76
           0
 98
        0
1001
TCAD
1000
TCW_ATTRIBUTE
1002
{
1000
<2.3622>
1002
}
  0
LWPOLYLINE
  5
337
100
AcDbEntity
  8
0
370
           0
  6
Continuous
 62
           7
100
AcDbPolyline
 90
        4
 70
           0
 10
1.1811
 20
-0.163564974706
 40
0.0
 41
0.0
 10
1.0811
 20
-0.150564974706
 40
0.0
 41
0.0
 10
1.0811
 20
-0.176564974706
 40
0.0
 41
0.0
 10
1.1811
 20
-0.163564974706
 40
0.0
 41
0.0
1001
TCAD
1000
TCW_ATTRIBUTE
1002
{
1000
<2.3622>
1002
}
  0
HATCH
  5
335
100
AcDbEntity
  8
0
  6
Continuous
 62
           7
100
AcDbHatch
 10
0.0
 20
0.0
 30
0.0
210
0.0
220
0.0
230
1.0
  2
SOLID
 70
           1
 71
           1
 91
        1
 92
        3
 72
           0
 73
           1
 93
        3
 10
1.1810999999999998
 20
-0.1635649747061871
 10
1.0810999999999997
 20
-0.1505649747061871
 10
1.0810999999999997
 20
-0.1765649747061872
 97
        1
330
336
 75
           0
 76
           0
 98
        0
1001
TCAD
1000
TCW_ATTRIBUTE
1002
{
1000
<2.3622>
1002
}
  0
MTEXT
  5
338
100
AcDbEntity
  8
0
  6
Continuous
 62
           7
100
AcDbMText
 10
0.0
 20
-0.091914973747
 30
0.0
 40
0.049980001152
 41
0.0
 71
           5
 72
           1
  1
\A1;2.3622{}"
 73
           1
 44
1.0
1001
TCAD
1000
TCW_REFPOINT
1002
{
1010
0.0
1020
-0.091914973747
1030
0.0
1002
}
1000
TCW_ATTRIBUTE
1002
{
1000
<2.3622>
1002
}
  0
ENDBLK
  5
339
100
AcDbEntity
  8
0
100
AcDbBlockEnd
  0
BLOCK
  5
33C
100
AcDbEntity
  8
0
100
AcDbBlockBegin
  2
*D12
 70
           1
 10
0.0
 20
0.0
 30
0.0
  3
*D12
  1

  0
LINE
  5
33D
100
AcDbEntity
  8
0
370
           0
  6
Continuous
 62
           7
100
AcDbLine
 10
2.5
 20
0.9675
 30
0.0
 11
2.5
 21
0.786671223712
 31
0.0
1001
TCAD
1000
TCW_ATTRIBUTE
1002
{
1000
<0.6693>
1002
}
  0
LINE
  5
33E
100
AcDbEntity
  8
0
370
           0
  6
Continuous
 62
           7
100
AcDbLine
 10
3.1693
 20
0.9675
 30
0.0
 11
3.1693
 21
0.786671223712
 31
0.0
1001
TCAD
1000
TCW_ATTRIBUTE
1002
{
1000
<0.6693>
1002
}
  0
LWPOLYLINE
  5
33F
100
AcDbEntity
  8
0
370
           0
  6
Continuous
 62
           7
100
AcDbPolyline
 90
        4
 70
           0
 10
2.6
 20
0.911671223712
 10
2.6
 20
0.911671223712
 10
2.6
 20
0.911671223712
 10
2.83465
 20
0.911671223712
1001
TCAD
1000
TCW_ATTRIBUTE
1002
{
1000
<0.6693>
1002
}
  0
LWPOLYLINE
  5
340
100
AcDbEntity
  8
0
370
           0
  6
Continuous
 62
           7
100
AcDbPolyline
 90
        4
 70
           0
 10
3.0693
 20
0.911671223712
 10
3.0693
 20
0.911671223712
 10
3.0693
 20
0.911671223712
 10
2.83465
 20
0.911671223712
1001
TCAD
1000
TCW_ATTRIBUTE
1002
{
1000
<0.6693>
1002
}
  0
LWPOLYLINE
  5
343
100
AcDbEntity
  8
0
370
           0
  6
Continuous
 62
           7
100
AcDbPolyline
 90
        4
 70
           0
 10
2.5
 20
0.911671223712
 40
0.0
 41
0.0
 10
2.6
 20
0.898671223712
 40
0.0
 41
0.0
 10
2.6
 20
0.924671223712
 40
0.0
 41
0.0
 10
2.5
 20
0.911671223712
 40
0.0
 41
0.0
1001
TCAD
1000
TCW_ATTRIBUTE
1002
{
1000
<0.6693>
1002
}
  0
HATCH
  5
341
100
AcDbEntity
  8
0
  6
Continuous
 62
           7
100
AcDbHatch
 10
0.0
 20
0.0
 30
0.0
210
0.0
220
0.0
230
1.0
  2
SOLID
 70
           1
 71
           1
 91
        1
 92
        3
 72
           0
 73
           1
 93
        3
 10
2.5
 20
0.9116712237117997
 10
2.6000000000000001
 20
0.8986712237117998
 10
2.6000000000000001
 20
0.9246712237117998
 97
        1
330
342
 75
           0
 76
           0
 98
        0
1001
TCAD
1000
TCW_ATTRIBUTE
1002
{
1000
<0.6693>
1002
}
  0
LWPOLYLINE
  5
346
100
AcDbEntity
  8
0
370
           0
  6
Continuous
 62
           7
100
AcDbPolyline
 90
        4
 70
           0
 10
3.1693
 20
0.911671223712
 40
0.0
 41
0.0
 10
3.0693
 20
0.924671223712
 40
0.0
 41
0.0
 10
3.0693
 20
0.898671223712
 40
0.0
 41
0.0
 10
3.1693
 20
0.911671223712
 40
0.0
 41
0.0
1001
TCAD
1000
TCW_ATTRIBUTE
1002
{
1000
<0.6693>
1002
}
  0
HATCH
  5
344
100
AcDbEntity
  8
0
  6
Continuous
 62
           7
100
AcDbHatch
 10
0.0
 20
0.0
 30
0.0
210
0.0
220
0.0
230
1.0
  2
SOLID
 70
           1
 71
           1
 91
        1
 92
        3
 72
           0
 73
           1
 93
        3
 10
3.1693000000000007
 20
0.9116712237118001
 10
3.0693000000000006
 20
0.9246712237118
 10
3.0693000000000006
 20
0.8986712237118
 97
        1
330
345
 75
           0
 76
           0
 98
        0
1001
TCAD
1000
TCW_ATTRIBUTE
1002
{
1000
<0.6693>
1002
}
  0
MTEXT
  5
347
100
AcDbEntity
  8
0
  6
Continuous
 62
           7
100
AcDbMText
 10
2.83465
 20
0.983321224671
 30
0.0
 40
0.049980001152
 41
0.0
 71
           5
 72
           1
  1
\A1;0.6693{}"
 73
           1
 44
1.0
1001
TCAD
1000
TCW_REFPOINT
1002
{
1010
2.83465
1020
0.983321224671
1030
0.0
1002
}
1000
TCW_ATTRIBUTE
1002
{
1000
<0.6693>
1002
}
  0
ENDBLK
  5
348
100
AcDbEntity
  8
0
100
AcDbBlockEnd
  0
BLOCK
  5
34B
100
AcDbEntity
  8
0
100
AcDbBlockBegin
  2
*D13
 70
           1
 10
0.0
 20
0.0
 30
0.0
  3
*D13
  1

  0
LINE
  5
34C
100
AcDbEntity
  8
0
370
           0
  6
Continuous
 62
           7
100
AcDbLine
 10
2.5
 20
0.96036260441
 30
0.0
 11
2.5
 21
0.656197633942
 31
0.0
1001
TCAD
1000
TCW_ATTRIBUTE
1002
{
1000
<0.9842>
1002
}
  0
LINE
  5
34D
100
AcDbEntity
  8
0
370
           0
  6
Continuous
 62
           7
100
AcDbLine
 10
3.4842
 20
0.96036260441
 30
0.0
 11
3.4842
 21
0.656197633942
 31
0.0
1001
TCAD
1000
TCW_ATTRIBUTE
1002
{
1000
<0.9842>
1002
}
  0
LWPOLYLINE
  5
34E
100
AcDbEntity
  8
0
370
           0
  6
Continuous
 62
           7
100
AcDbPolyline
 90
        4
 70
           0
 10
2.6
 20
0.781197633942
 10
2.6
 20
0.781197633942
 10
2.6
 20
0.781197633942
 10
2.9921
 20
0.781197633942
1001
TCAD
1000
TCW_ATTRIBUTE
1002
{
1000
<0.9842>
1002
}
  0
LWPOLYLINE
  5
34F
100
AcDbEntity
  8
0
370
           0
  6
Continuous
 62
           7
100
AcDbPolyline
 90
        4
 70
           0
 10
3.3842
 20
0.781197633942
 10
3.3842
 20
0.781197633942
 10
3.3842
 20
0.781197633942
 10
2.9921
 20
0.781197633942
1001
TCAD
1000
TCW_ATTRIBUTE
1002
{
1000
<0.9842>
1002
}
  0
LWPOLYLINE
  5
352
100
AcDbEntity
  8
0
370
           0
  6
Continuous
 62
           7
100
AcDbPolyline
 90
        4
 70
           0
 10
2.5
 20
0.781197633942
 40
0.0
 41
0.0
 10
2.6
 20
0.768197633942
 40
0.0
 41
0.0
 10
2.6
 20
0.794197633942
 40
0.0
 41
0.0
 10
2.5
 20
0.781197633942
 40
0.0
 41
0.0
1001
TCAD
1000
TCW_ATTRIBUTE
1002
{
1000
<0.9842>
1002
}
  0
HATCH
  5
350
100
AcDbEntity
  8
0
  6
Continuous
 62
           7
100
AcDbHatch
 10
0.0
 20
0.0
 30
0.0
210
0.0
220
0.0
230
1.0
  2
SOLID
 70
           1
 71
           1
 91
        1
 92
        3
 72
           0
 73
           1
 93
        3
 10
2.5
 20
0.781197633941502
 10
2.6000000000000001
 20
0.768197633941502
 10
2.6000000000000001
 20
0.794197633941502
 97
        1
330
351
 75
           0
 76
           0
 98
        0
1001
TCAD
1000
TCW_ATTRIBUTE
1002
{
1000
<0.9842>
1002
}
  0
LWPOLYLINE
  5
355
100
AcDbEntity
  8
0
370
           0
  6
Continuous
 62
           7
100
AcDbPolyline
 90
        4
 70
           0
 10
3.4842
 20
0.781197633942
 40
0.0
 41
0.0
 10
3.3842
 20
0.794197633942
 40
0.0
 41
0.0
 10
3.3842
 20
0.768197633942
 40
0.0
 41
0.0
 10
3.4842
 20
0.781197633942
 40
0.0
 41
0.0
1001
TCAD
1000
TCW_ATTRIBUTE
1002
{
1000
<0.9842>
1002
}
  0
HATCH
  5
353
100
AcDbEntity
  8
0
  6
Continuous
 62
           7
100
AcDbHatch
 10
0.0
 20
0.0
 30
0.0
210
0.0
220
0.0
230
1.0
  2
SOLID
 70
           1
 71
           1
 91
        1
 92
        3
 72
           0
 73
           1
 93
        3
 10
3.4842
 20
0.781197633941502
 10
3.3841999999999999
 20
0.794197633941502
 10
3.3841999999999999
 20
0.768197633941502
 97
        1
330
354
 75
           0
 76
           0
 98
        0
1001
TCAD
1000
TCW_ATTRIBUTE
1002
{
1000
<0.9842>
1002
}
  0
MTEXT
  5
356
100
AcDbEntity
  8
0
  6
Continuous
 62
           7
100
AcDbMText
 10
2.9921
 20
0.852847634901
 30
0.0
 40
0.049980001152
 41
0.0
 71
           5
 72
           1
  1
\A1;0.9842{}"
 73
           1
 44
1.0
1001
TCAD
1000
TCW_REFPOINT
1002
{
1010
2.9921
1020
0.852847634901
1030
0.0
1002
}
1000
TCW_ATTRIBUTE
1002
{
1000
<0.9842>
1002
}
  0
ENDBLK
  5
357
100
AcDbEntity
  8
0
100
AcDbBlockEnd
  0
BLOCK
  5
35A
100
AcDbEntity
  8
0
100
AcDbBlockBegin
  2
*D14
 70
           1
 10
0.0
 20
0.0
 30
0.0
  3
*D14
  1

  0
LINE
  5
35B
100
AcDbEntity
  8
0
370
           0
  6
Continuous
 62
           7
100
AcDbLine
 10
3.1693
 20
2.4247
 30
0.0
 11
3.1693
 21
2.609714348822
 31
0.0
1001
TCAD
1000
TCW_ATTRIBUTE
1002
{
1000
<0.3149>
1002
}
  0
LINE
  5
35C
100
AcDbEntity
  8
0
370
           0
  6
Continuous
 62
           7
100
AcDbLine
 10
3.4842
 20
2.4247
 30
0.0
 11
3.4842
 21
2.609714348822
 31
0.0
1001
TCAD
1000
TCW_ATTRIBUTE
1002
{
1000
<0.3149>
1002
}
  0
LWPOLYLINE
  5
35D
100
AcDbEntity
  8
0
370
           0
  6
Continuous
 62
           7
100
AcDbPolyline
 90
        2
 70
           0
 10
2.721740735267
 20
2.484714348822
 10
3.0693
 20
2.484714348822
1001
TCAD
1000
TCW_ATTRIBUTE
1002
{
1000
<0.3149>
1002
}
  0
LWPOLYLINE
  5
35E
100
AcDbEntity
  8
0
370
           0
  6
Continuous
 62
           7
100
AcDbPolyline
 90
        2
 70
           0
 10
3.0693
 20
2.484714348822
 40
0.0
 41
0.0
 10
3.0693
 20
2.484714348822
 40
0.0
 41
0.0
1001
TCAD
1000
TCW_ATTRIBUTE
1002
{
1000
<0.3149>
1002
}
  0
LWPOLYLINE
  5
35F
100
AcDbEntity
  8
0
370
           0
  6
Continuous
 62
           7
100
AcDbPolyline
 90
        4
 70
           0
 10
3.7842
 20
2.484714348822
 10
3.6842
 20
2.484714348822
 10
3.5842
 20
2.484714348822
 10
3.5842
 20
2.484714348822
1001
TCAD
1000
TCW_ATTRIBUTE
1002
{
1000
<0.3149>
1002
}
  0
LWPOLYLINE
  5
362
100
AcDbEntity
  8
0
370
           0
  6
Continuous
 62
           7
100
AcDbPolyline
 90
        4
 70
           0
 10
3.4842
 20
2.484714348822
 40
0.0
 41
0.0
 10
3.5842
 20
2.471714348822
 40
0.0
 41
0.0
 10
3.5842
 20
2.497714348822
 40
0.0
 41
0.0
 10
3.4842
 20
2.484714348822
 40
0.0
 41
0.0
1001
TCAD
1000
TCW_ATTRIBUTE
1002
{
1000
<0.3149>
1002
}
  0
HATCH
  5
360
100
AcDbEntity
  8
0
  6
Continuous
 62
           7
100
AcDbHatch
 10
0.0
 20
0.0
 30
0.0
210
0.0
220
0.0
230
1.0
  2
SOLID
 70
           1
 71
           1
 91
        1
 92
        3
 72
           0
 73
           1
 93
        3
 10
3.4842
 20
2.484714348822298
 10
3.5842000000000001
 20
2.4717143488222981
 10
3.5842000000000001
 20
2.4977143488222979
 97
        1
330
361
 75
           0
 76
           0
 98
        0
1001
TCAD
1000
TCW_ATTRIBUTE
1002
{
1000
<0.3149>
1002
}
  0
LWPOLYLINE
  5
365
100
AcDbEntity
  8
0
370
           0
  6
Continuous
 62
           7
100
AcDbPolyline
 90
        4
 70
           0
 10
3.1693
 20
2.484714348822
 40
0.0
 41
0.0
 10
3.0693
 20
2.497714348822
 40
0.0
 41
0.0
 10
3.0693
 20
2.471714348822
 40
0.0
 41
0.0
 10
3.1693
 20
2.484714348822
 40
0.0
 41
0.0
1001
TCAD
1000
TCW_ATTRIBUTE
1002
{
1000
<0.3149>
1002
}
  0
HATCH
  5
363
100
AcDbEntity
  8
0
  6
Continuous
 62
           7
100
AcDbHatch
 10
0.0
 20
0.0
 30
0.0
210
0.0
220
0.0
230
1.0
  2
SOLID
 70
           1
 71
           1
 91
        1
 92
        3
 72
           0
 73
           1
 93
        3
 10
3.1692999999999998
 20
2.484714348822298
 10
3.0692999999999997
 20
2.4977143488222979
 10
3.0692999999999997
 20
2.4717143488222981
 97
        1
330
364
 75
           0
 76
           0
 98
        0
1001
TCAD
1000
TCW_ATTRIBUTE
1002
{
1000
<0.3149>
1002
}
  0
MTEXT
  5
366
100
AcDbEntity
  8
0
  6
Continuous
 62
           7
100
AcDbMText
 10
2.840520367634
 20
2.536364349782
 30
0.0
 40
0.049980001152
 41
0.0
 71
           5
 72
           1
  1
\A1;0.3149{}"
 73
           1
 44
1.0
1001
TCAD
1000
TCW_REFPOINT
1002
{
1010
2.840520367634
1020
2.536364349782
1030
0.0
1002
}
1000
TCW_ATTRIBUTE
1002
{
1000
<0.3149>
1002
}
  0
ENDBLK
  5
367
100
AcDbEntity
  8
0
100
AcDbBlockEnd
  0
BLOCK
  5
37D
100
AcDbEntity
  8
0
100
AcDbBlockBegin
  2
*D15
 70
           1
 10
0.0
 20
0.0
 30
0.0
  3
*D15
  1

  0
LINE
  5
37E
100
AcDbEntity
  8
0
370
           0
  6
Continuous
 62
           7
100
AcDbLine
 10
-0.6
 20
3.0375
 30
0.0
 11
-0.6
 21
2.915732569562
 31
0.0
1001
TCAD
1000
TCW_ATTRIBUTE
1002
{
1000
0.02"
1002
}
  0
LINE
  5
37F
100
AcDbEntity
  8
0
370
           0
  6
Continuous
 62
           7
100
AcDbLine
 10
-0.5
 20
3.0375
 30
0.0
 11
-0.5
 21
2.915732569562
 31
0.0
1001
TCAD
1000
TCW_ATTRIBUTE
1002
{
1000
0.02"
1002
}
  0
LWPOLYLINE
  5
380
100
AcDbEntity
  8
0
370
           0
  6
Continuous
 62
           7
100
AcDbPolyline
 90
        2
 70
           0
 10
-0.7
 20
3.040732569562
 10
-0.65
 20
3.040732569562
1001
TCAD
1000
TCW_ATTRIBUTE
1002
{
1000
0.02"
1002
}
  0
LWPOLYLINE
  5
381
100
AcDbEntity
  8
0
370
           0
  6
Continuous
 62
           7
100
AcDbPolyline
 90
        2
 70
           0
 10
-0.65
 20
3.040732569562
 40
0.0
 41
0.0
 10
-0.65
 20
3.040732569562
 40
0.0
 41
0.0
1001
TCAD
1000
TCW_ATTRIBUTE
1002
{
1000
0.02"
1002
}
  0
LWPOLYLINE
  5
382
100
AcDbEntity
  8
0
370
           0
  6
Continuous
 62
           7
100
AcDbPolyline
 90
        4
 70
           0
 10
-0.318732800713
 20
3.040732569562
 10
-0.4
 20
3.040732569562
 10
-0.45
 20
3.040732569562
 10
-0.45
 20
3.040732569562
1001
TCAD
1000
TCW_ATTRIBUTE
1002
{
1000
0.02"
1002
}
  0
LWPOLYLINE
  5
385
100
AcDbEntity
  8
0
370
           0
  6
Continuous
 62
           7
100
AcDbPolyline
 90
        4
 70
           0
 10
-0.5
 20
3.040732569562
 40
0.0
 41
0.0
 10
-0.45
 20
3.034232569562
 40
0.0
 41
0.0
 10
-0.45
 20
3.047232569562
 40
0.0
 41
0.0
 10
-0.5
 20
3.040732569562
 40
0.0
 41
0.0
1001
TCAD
1000
TCW_ATTRIBUTE
1002
{
1000
0.02"
1002
}
  0
HATCH
  5
383
100
AcDbEntity
  8
0
  6
Continuous
 62
           7
100
AcDbHatch
 10
0.0
 20
0.0
 30
0.0
210
0.0
220
0.0
230
1.0
  2
SOLID
 70
           1
 71
           1
 91
        1
 92
        3
 72
           0
 73
           1
 93
        3
 10
-0.5000000000000002
 20
3.0407325695615008
 10
-0.4500000000000003
 20
3.0342325695615004
 10
-0.4500000000000002
 20
3.0472325695615003
 97
        1
330
384
 75
           0
 76
           0
 98
        0
1001
TCAD
1000
TCW_ATTRIBUTE
1002
{
1000
0.02"
1002
}
  0
LWPOLYLINE
  5
388
100
AcDbEntity
  8
0
370
           0
  6
Continuous
 62
           7
100
AcDbPolyline
 90
        4
 70
           0
 10
-0.6
 20
3.040732569562
 40
0.0
 41
0.0
 10
-0.65
 20
3.047232569562
 40
0.0
 41
0.0
 10
-0.65
 20
3.034232569562
 40
0.0
 41
0.0
 10
-0.6
 20
3.040732569562
 40
0.0
 41
0.0
1001
TCAD
1000
TCW_ATTRIBUTE
1002
{
1000
0.02"
1002
}
  0
HATCH
  5
386
100
AcDbEntity
  8
0
  6
Continuous
 62
           7
100
AcDbHatch
 10
0.0
 20
0.0
 30
0.0
210
0.0
220
0.0
230
1.0
  2
SOLID
 70
           1
 71
           1
 91
        1
 92
        3
 72
           0
 73
           1
 93
        3
 10
-0.6000000000000001
 20
3.0407325695615013
 10
-0.6500000000000001
 20
3.0472325695615012
 10
-0.6500000000000001
 20
3.0342325695615013
 97
        1
330
387
 75
           0
 76
           0
 98
        0
1001
TCAD
1000
TCW_ATTRIBUTE
1002
{
1000
0.02"
1002
}
  0
MTEXT
  5
389
100
AcDbEntity
  8
0
  6
Continuous
 62
           7
100
AcDbMText
 10
-0.55
 20
3.061582570465
 30
0.0
 40
0.025020001084
 41
0.0
 71
           5
 72
           1
  1
\A1;0.02"{}
 73
           1
 44
1.0
1001
TCAD
1000
TCW_REFPOINT
1002
{
1010
-0.55
1020
3.061582570465
1030
0.0
1002
}
1000
TCW_ATTRIBUTE
1002
{
1000
0.02"
1002
}
  0
ENDBLK
  5
38A
100
AcDbEntity
  8
0
100
AcDbBlockEnd
  0
BLOCK
  5
38D
100
AcDbEntity
  8
0
100
AcDbBlockBegin
  2
*D16
 70
           1
 10
0.0
 20
0.0
 30
0.0
  3
*D16
  1

  0
LINE
  5
38E
100
AcDbEntity
  8
0
370
           0
  6
Continuous
 62
           7
100
AcDbLine
 10
-0.6625
 20
3.3
 30
0.0
 11
-0.772006927556
 21
3.3
 31
0.0
1001
TCAD
1000
TCW_ATTRIBUTE
1002
{
1000
0.02"
1002
}
  0
LINE
  5
38F
100
AcDbEntity
  8
0
370
           0
  6
Continuous
 62
           7
100
AcDbLine
 10
-0.6625
 20
3.2
 30
0.0
 11
-0.772006927556
 21
3.2
 31
0.0
1001
TCAD
1000
TCW_ATTRIBUTE
1002
{
1000
0.02"
1002
}
  0
LWPOLYLINE
  5
390
100
AcDbEntity
  8
0
370
           0
  6
Continuous
 62
           7
100
AcDbPolyline
 90
        2
 70
           0
 10
-0.647006927556
 20
3.4
 10
-0.647006927556
 20
3.35
1001
TCAD
1000
TCW_ATTRIBUTE
1002
{
1000
0.02"
1002
}
  0
LWPOLYLINE
  5
391
100
AcDbEntity
  8
0
370
           0
  6
Continuous
 62
           7
100
AcDbPolyline
 90
        2
 70
           0
 10
-0.647006927556
 20
3.35
 40
0.0
 41
0.0
 10
-0.647006927556
 20
3.35
 40
0.0
 41
0.0
1001
TCAD
1000
TCW_ATTRIBUTE
1002
{
1000
0.02"
1002
}
  0
LWPOLYLINE
  5
392
100
AcDbEntity
  8
0
370
           0
  6
Continuous
 62
           7
100
AcDbPolyline
 90
        4
 70
           0
 10
-0.647006927556
 20
3.1
 10
-0.647006927556
 20
3.1
 10
-0.647006927556
 20
3.15
 10
-0.647006927556
 20
3.15
1001
TCAD
1000
TCW_ATTRIBUTE
1002
{
1000
0.02"
1002
}
  0
LWPOLYLINE
  5
395
100
AcDbEntity
  8
0
370
           0
  6
Continuous
 62
           7
100
AcDbPolyline
 90
        4
 70
           0
 10
-0.647006927556
 20
3.2
 40
0.0
 41
0.0
 10
-0.653506927556
 20
3.15
 40
0.0
 41
0.0
 10
-0.640506927556
 20
3.15
 40
0.0
 41
0.0
 10
-0.647006927556
 20
3.2
 40
0.0
 41
0.0
1001
TCAD
1000
TCW_ATTRIBUTE
1002
{
1000
0.02"
1002
}
  0
HATCH
  5
393
100
AcDbEntity
  8
0
  6
Continuous
 62
           7
100
AcDbHatch
 10
0.0
 20
0.0
 30
0.0
210
0.0
220
0.0
230
1.0
  2
SOLID
 70
           1
 71
           1
 91
        1
 92
        3
 72
           0
 73
           1
 93
        3
 10
-0.6470069275555876
 20
3.1999999999999997
 10
-0.6535069275555876
 20
3.1499999999999999
 10
-0.6405069275555877
 20
3.1499999999999999
 97
        1
330
394
 75
           0
 76
           0
 98
        0
1001
TCAD
1000
TCW_ATTRIBUTE
1002
{
1000
0.02"
1002
}
  0
LWPOLYLINE
  5
398
100
AcDbEntity
  8
0
370
           0
  6
Continuous
 62
           7
100
AcDbPolyline
 90
        4
 70
           0
 10
-0.647006927556
 20
3.3
 40
0.0
 41
0.0
 10
-0.640506927556
 20
3.35
 40
0.0
 41
0.0
 10
-0.653506927556
 20
3.35
 40
0.0
 41
0.0
 10
-0.647006927556
 20
3.3
 40
0.0
 41
0.0
1001
TCAD
1000
TCW_ATTRIBUTE
1002
{
1000
0.02"
1002
}
  0
HATCH
  5
396
100
AcDbEntity
  8
0
  6
Continuous
 62
           7
100
AcDbHatch
 10
0.0
 20
0.0
 30
0.0
210
0.0
220
0.0
230
1.0
  2
SOLID
 70
           1
 71
           1
 91
        1
 92
        3
 72
           0
 73
           1
 93
        3
 10
-0.6470069275555876
 20
3.2999999999999998
 10
-0.6405069275555877
 20
3.3499999999999996
 10
-0.6535069275555876
 20
3.3499999999999996
 97
        1
330
397
 75
           0
 76
           0
 98
        0
1001
TCAD
1000
TCW_ATTRIBUTE
1002
{
1000
0.02"
1002
}
  0
MTEXT
  5
399
100
AcDbEntity
  8
0
  6
Continuous
 62
           7
100
AcDbMText
 10
-0.647006927556
 20
3.25
 30
0.0
 40
0.025020001084
 41
0.0
 71
           5
 72
           1
  1
\A1;0.02"{}
 73
           1
 44
1.0
1001
TCAD
1000
TCW_REFPOINT
1002
{
1010
-0.647006927556
1020
3.25
1030
0.0
1002
}
1000
TCW_ATTRIBUTE
1002
{
1000
0.02"
1002
}
  0
ENDBLK
  5
39A
100
AcDbEntity
  8
0
100
AcDbBlockEnd
  0
BLOCK
  5
39D
100
AcDbEntity
  8
0
100
AcDbBlockBegin
  2
*D17
 70
           1
 10
0.0
 20
0.0
 30
0.0
  3
*D17
  1

  0
LINE
  5
39E
100
AcDbEntity
  8
0
370
           0
  6
Continuous
 62
           7
100
AcDbLine
 10
-0.5
 20
3.4625
 30
0.0
 11
-0.5
 21
3.569866150029
 31
0.0
1001
TCAD
1000
TCW_ATTRIBUTE
1002
{
1000
0.02"
1002
}
  0
LINE
  5
39F
100
AcDbEntity
  8
0
370
           0
  6
Continuous
 62
           7
100
AcDbLine
 10
-0.4
 20
3.4625
 30
0.0
 11
-0.4
 21
3.569866150029
 31
0.0
1001
TCAD
1000
TCW_ATTRIBUTE
1002
{
1000
0.02"
1002
}
  0
LWPOLYLINE
  5
3A0
100
AcDbEntity
  8
0
370
           0
  6
Continuous
 62
           7
100
AcDbPolyline
 90
        2
 70
           0
 10
-0.6
 20
3.444866150029
 10
-0.55
 20
3.444866150029
1001
TCAD
1000
TCW_ATTRIBUTE
1002
{
1000
0.02"
1002
}
  0
LWPOLYLINE
  5
3A1
100
AcDbEntity
  8
0
370
           0
  6
Continuous
 62
           7
100
AcDbPolyline
 90
        2
 70
           0
 10
-0.55
 20
3.444866150029
 40
0.0
 41
0.0
 10
-0.55
 20
3.444866150029
 40
0.0
 41
0.0
1001
TCAD
1000
TCW_ATTRIBUTE
1002
{
1000
0.02"
1002
}
  0
LWPOLYLINE
  5
3A2
100
AcDbEntity
  8
0
370
           0
  6
Continuous
 62
           7
100
AcDbPolyline
 90
        4
 70
           0
 10
-0.208732800713
 20
3.444866150029
 10
-0.3
 20
3.444866150029
 10
-0.35
 20
3.444866150029
 10
-0.35
 20
3.444866150029
1001
TCAD
1000
TCW_ATTRIBUTE
1002
{
1000
0.02"
1002
}
  0
LWPOLYLINE
  5
3A5
100
AcDbEntity
  8
0
370
           0
  6
Continuous
 62
           7
100
AcDbPolyline
 90
        4
 70
           0
 10
-0.4
 20
3.444866150029
 40
0.0
 41
0.0
 10
-0.35
 20
3.438366150029
 40
0.0
 41
0.0
 10
-0.35
 20
3.451366150029
 40
0.0
 41
0.0
 10
-0.4
 20
3.444866150029
 40
0.0
 41
0.0
1001
TCAD
1000
TCW_ATTRIBUTE
1002
{
1000
0.02"
1002
}
  0
HATCH
  5
3A3
100
AcDbEntity
  8
0
  6
Continuous
 62
           7
100
AcDbHatch
 10
0.0
 20
0.0
 30
0.0
210
0.0
220
0.0
230
1.0
  2
SOLID
 70
           1
 71
           1
 91
        1
 92
        3
 72
           0
 73
           1
 93
        3
 10
-0.4000000000000002
 20
3.4448661500293607
 10
-0.3500000000000002
 20
3.4383661500293607
 10
-0.3500000000000003
 20
3.4513661500293606
 97
        1
330
3A4
 75
           0
 76
           0
 98
        0
1001
TCAD
1000
TCW_ATTRIBUTE
1002
{
1000
0.02"
1002
}
  0
LWPOLYLINE
  5
3A8
100
AcDbEntity
  8
0
370
           0
  6
Continuous
 62
           7
100
AcDbPolyline
 90
        4
 70
           0
 10
-0.5
 20
3.444866150029
 40
0.0
 41
0.0
 10
-0.55
 20
3.451366150029
 40
0.0
 41
0.0
 10
-0.55
 20
3.438366150029
 40
0.0
 41
0.0
 10
-0.5
 20
3.444866150029
 40
0.0
 41
0.0
1001
TCAD
1000
TCW_ATTRIBUTE
1002
{
1000
0.02"
1002
}
  0
HATCH
  5
3A6
100
AcDbEntity
  8
0
  6
Continuous
 62
           7
100
AcDbHatch
 10
0.0
 20
0.0
 30
0.0
210
0.0
220
0.0
230
1.0
  2
SOLID
 70
           1
 71
           1
 91
        1
 92
        3
 72
           0
 73
           1
 93
        3
 10
-0.5000000000000002
 20
3.4448661500293603
 10
-0.5500000000000003
 20
3.4513661500293598
 10
-0.5500000000000003
 20
3.4383661500293599
 97
        1
330
3A7
 75
           0
 76
           0
 98
        0
1001
TCAD
1000
TCW_ATTRIBUTE
1002
{
1000
0.02"
1002
}
  0
MTEXT
  5
3A9
100
AcDbEntity
  8
0
  6
Continuous
 62
           7
100
AcDbMText
 10
-0.45
 20
3.475716150932
 30
0.0
 40
0.025020001084
 41
0.0
 71
           5
 72
           1
  1
\A1;0.02"{}
 73
           1
 44
1.0
1001
TCAD
1000
TCW_REFPOINT
1002
{
1010
-0.45
1020
3.475716150932
1030
0.0
1002
}
1000
TCW_ATTRIBUTE
1002
{
1000
0.02"
1002
}
  0
ENDBLK
  5
3AA
100
AcDbEntity
  8
0
100
AcDbBlockEnd
  0
BLOCK
  5
3AD
100
AcDbEntity
  8
0
100
AcDbBlockBegin
  2
*D18
 70
           1
 10
0.0
 20
0.0
 30
0.0
  3
*D18
  1

  0
LINE
  5
3AE
100
AcDbEntity
  8
0
370
           0
  6
Continuous
 62
           7
100
AcDbLine
 10
-0.2375
 20
3.2
 30
0.0
 11
-0.133931635053
 21
3.2
 31
0.0
1001
TCAD
1000
TCW_ATTRIBUTE
1002
{
1000
0.02"
1002
}
  0
LINE
  5
3AF
100
AcDbEntity
  8
0
370
           0
  6
Continuous
 62
           7
100
AcDbLine
 10
-0.2375
 20
3.1
 30
0.0
 11
-0.133931635053
 21
3.1
 31
0.0
1001
TCAD
1000
TCW_ATTRIBUTE
1002
{
1000
0.02"
1002
}
  0
LWPOLYLINE
  5
3B0
100
AcDbEntity
  8
0
370
           0
  6
Continuous
 62
           7
100
AcDbPolyline
 90
        2
 70
           0
 10
-0.258931635053
 20
3.3
 10
-0.258931635053
 20
3.25
1001
TCAD
1000
TCW_ATTRIBUTE
1002
{
1000
0.02"
1002
}
  0
LWPOLYLINE
  5
3B1
100
AcDbEntity
  8
0
370
           0
  6
Continuous
 62
           7
100
AcDbPolyline
 90
        2
 70
           0
 10
-0.258931635053
 20
3.25
 40
0.0
 41
0.0
 10
-0.258931635053
 20
3.25
 40
0.0
 41
0.0
1001
TCAD
1000
TCW_ATTRIBUTE
1002
{
1000
0.02"
1002
}
  0
LWPOLYLINE
  5
3B2
100
AcDbEntity
  8
0
370
           0
  6
Continuous
 62
           7
100
AcDbPolyline
 90
        4
 70
           0
 10
-0.258931635053
 20
3.0
 10
-0.258931635053
 20
3.0
 10
-0.258931635053
 20
3.05
 10
-0.258931635053
 20
3.05
1001
TCAD
1000
TCW_ATTRIBUTE
1002
{
1000
0.02"
1002
}
  0
LWPOLYLINE
  5
3B5
100
AcDbEntity
  8
0
370
           0
  6
Continuous
 62
           7
100
AcDbPolyline
 90
        4
 70
           0
 10
-0.258931635053
 20
3.1
 40
0.0
 41
0.0
 10
-0.265431635053
 20
3.05
 40
0.0
 41
0.0
 10
-0.252431635053
 20
3.05
 40
0.0
 41
0.0
 10
-0.258931635053
 20
3.1
 40
0.0
 41
0.0
1001
TCAD
1000
TCW_ATTRIBUTE
1002
{
1000
0.02"
1002
}
  0
HATCH
  5
3B3
100
AcDbEntity
  8
0
  6
Continuous
 62
           7
100
AcDbHatch
 10
0.0
 20
0.0
 30
0.0
210
0.0
220
0.0
230
1.0
  2
SOLID
 70
           1
 71
           1
 91
        1
 92
        3
 72
           0
 73
           1
 93
        3
 10
-0.2589316350533381
 20
3.1000000000000001
 10
-0.2654316350533382
 20
3.0500000000000003
 10
-0.2524316350533382
 20
3.0500000000000003
 97
        1
330
3B4
 75
           0
 76
           0
 98
        0
1001
TCAD
1000
TCW_ATTRIBUTE
1002
{
1000
0.02"
1002
}
  0
LWPOLYLINE
  5
3B8
100
AcDbEntity
  8
0
370
           0
  6
Continuous
 62
           7
100
AcDbPolyline
 90
        4
 70
           0
 10
-0.258931635053
 20
3.2
 40
0.0
 41
0.0
 10
-0.252431635053
 20
3.25
 40
0.0
 41
0.0
 10
-0.265431635053
 20
3.25
 40
0.0
 41
0.0
 10
-0.258931635053
 20
3.2
 40
0.0
 41
0.0
1001
TCAD
1000
TCW_ATTRIBUTE
1002
{
1000
0.02"
1002
}
  0
HATCH
  5
3B6
100
AcDbEntity
  8
0
  6
Continuous
 62
           7
100
AcDbHatch
 10
0.0
 20
0.0
 30
0.0
210
0.0
220
0.0
230
1.0
  2
SOLID
 70
           1
 71
           1
 91
        1
 92
        3
 72
           0
 73
           1
 93
        3
 10
-0.2589316350533378
 20
3.2000000000000002
 10
-0.2524316350533377
 20
3.25
 10
-0.2654316350533377
 20
3.25
 97
        1
330
3B7
 75
           0
 76
           0
 98
        0
1001
TCAD
1000
TCW_ATTRIBUTE
1002
{
1000
0.02"
1002
}
  0
MTEXT
  5
3B9
100
AcDbEntity
  8
0
  6
Continuous
 62
           7
100
AcDbMText
 10
-0.258931635053
 20
3.15
 30
0.0
 40
0.025020001084
 41
0.0
 71
           5
 72
           1
  1
\A1;0.02"{}
 73
           1
 44
1.0
1001
TCAD
1000
TCW_REFPOINT
1002
{
1010
-0.258931635053
1020
3.15
1030
0.0
1002
}
1000
TCW_ATTRIBUTE
1002
{
1000
0.02"
1002
}
  0
ENDBLK
  5
3BA
100
AcDbEntity
  8
0
100
AcDbBlockEnd
  0
ENDSEC
  0
SECTION
  2
ENTITIES
  0
VIEWPORT
  5
3C2
100
AcDbEntity
 67
           1
  8
0
100
AcDbViewport
 10
5.49999982865
 20
4.2500002235
 30
0.0
 40
12.4151968421
 41
9.4723353684
 68
           1
 69
           1
 12
5.49999982865
 22
4.2500002235
 13
0.0
 23
0.0
 14
0.5
 24
0.5
 15
0.5
 25
0.5
 16
0.0
 26
0.0
 36
1.0
 17
0.0
 27
0.0
 37
0.0
 42
50.0
 43
0.0
 44
0.0
 45
9.4723353684
 50
0.0
 51
0.0
 72
         100
 90
    32800
340
0
  1

281
           0
 71
           0
 74
           1
110
0.0
120
0.0
130
0.0
111
1.0
121
0.0
131
0.0
112
0.0
122
1.0
132
0.0
345
0
346
0
 79
           0
146
0.0
  0
VIEWPORT
  5
3C3
100
AcDbEntity
 67
           1
  8
0
  6
Continuous
100
AcDbViewport
 10
5.5
 20
4.25
 30
0.0
 40
11.0
 41
8.5
 68
           2
 69
           2
 12
0.0
 22
0.0
 13
0.0
 23
0.0
 14
0.5
 24
0.5
 15
0.5
 25
0.5
 16
0.0
 26
0.0
 36
1.0
 17
5.500000033528
 27
4.250000104308
 37
-1.0
 42
97.532499545905
 43
0.0
 44
0.0
 45
8.5
 50
0.0
 51
0.0
 72
         100
341
30
 90
    32800
340
0
  1

281
           0
 71
           0
 74
           1
110
0.0
120
0.0
130
0.0
111
1.0
121
0.0
131
0.0
112
0.0
122
1.0
132
0.0
345
0
346
0
 79
           0
146
0.0
  0
INSERT
  5
52
100
AcDbEntity
  8
0
 60
           1
100
AcDbBlockReference
 66
           1
  2
OVERHEAD
 10
-11.0
 20
-8.5
 30
0.0
1001
AVE_RENDER
1002
{
1070
           0
1000
LIGHT_0
1011
-10.0
1021
-8.5
1031
0.0
1041
100.0
1010
0.109803921569
1020
0.109803921569
1030
0.109803921569
1002
{
1070
           0
1070
           0
1040
0.0
1040
0.0
1040
3.0
1002
}
1002
{
1070
           9
1070
          21
1070
          15
1070
           0
1040
37.62
1040
122.37
1002
}
1002
}
1001
TCAD
1000
TCW_LIGTH
1002
{
1070
           0
1002
}
  0
ATTRIB
  5
53
100
AcDbEntity
  8
ASHADE
  6
Continuous
 62
           1
100
AcDbText
 10
-11.0
 20
-8.5
 30
0.0
 40
0.2
  1
LIGHT_0
  7
ASHADE
 72
           1
 11
-11.0
 21
-8.6
 31
0.0
100
AcDbAttribute
  2
SNAME
 70
           0
  0
ATTRIB
  5
54
100
AcDbEntity
  8
ASHADE
  6
Continuous
 62
           7
100
AcDbText
 10
-11.0
 20
-8.5
 30
0.0
 40
0.01
  1

100
AcDbAttribute
  2
GNAME
 70
           1
  0
ATTRIB
  5
55
100
AcDbEntity
  8
ASHADE
  6
Continuous
 62
           7
100
AcDbText
 10
-11.0
 20
-8.5
 30
0.0
 40
0.01
  1

100
AcDbAttribute
  2
LAX
 70
           1
  0
ATTRIB
  5
56
100
AcDbEntity
  8
ASHADE
  6
Continuous
 62
           7
100
AcDbText
 10
-11.0
 20
-8.5
 30
0.0
 40
0.01
  1

100
AcDbAttribute
  2
LAY
 70
           1
  0
ATTRIB
  5
57
100
AcDbEntity
  8
ASHADE
  6
Continuous
 62
           7
100
AcDbText
 10
-11.0
 20
-8.5
 30
0.0
 40
0.01
  1

100
AcDbAttribute
  2
LAZ
 70
           1
  0
ATTRIB
  5
58
100
AcDbEntity
  8
ASHADE
  6
Continuous
 62
           7
100
AcDbText
 10
-11.0
 20
-8.5
 30
0.0
 40
0.01
  1
1
100
AcDbAttribute
  2
INTENSITY
 70
           1
  0
ATTRIB
  5
59
100
AcDbEntity
  8
ASHADE
  6
Continuous
 62
           7
100
AcDbText
 10
-11.0
 20
-8.5
 30
0.0
 40
0.01
  1
1,1,1
100
AcDbAttribute
  2
COLOR
 70
           1
  0
ATTRIB
  5
5A
100
AcDbEntity
  8
ASHADE
  6
Continuous
 62
           7
100
AcDbText
 10
-11.0
 20
-8.5
 30
0.0
 40
0.01
  1
0
100
AcDbAttribute
  2
CONEA
 70
           1
  0
ATTRIB
  5
5B
100
AcDbEntity
  8
ASHADE
  6
Continuous
 62
           7
100
AcDbText
 10
-11.0
 20
-8.5
 30
0.0
 40
0.01
  1
-1
100
AcDbAttribute
  2
CONED
 70
           1
  0
ATTRIB
  5
5C
100
AcDbEntity
  8
ASHADE
  6
Continuous
 62
           7
100
AcDbText
 10
-11.0
 20
-8.5
 30
0.0
 40
0.01
  1
-1
100
AcDbAttribute
  2
BEAMD
 70
           1
  0
SEQEND
  5
5D
100
AcDbEntity
  8
0
  0
INSERT
  5
5E
100
AcDbEntity
  8
0
 60
           1
100
AcDbBlockReference
 66
           1
  2
OVERHEAD
 10
22.0
 20
19.5
 30
0.0
1001
AVE_RENDER
1002
{
1070
           0
1000
LIGHT_1
1011
23.0
1021
19.5
1031
0.0
1041
100.0
1010
0.109803921569
1020
0.109803921569
1030
0.109803921569
1002
{
1070
           0
1070
           0
1040
0.0
1040
0.0
1040
3.0
1002
}
1002
{
1070
           9
1070
          21
1070
          15
1070
           0
1040
37.62
1040
122.37
1002
}
1002
}
1001
TCAD
1000
TCW_LIGTH
1002
{
1070
           0
1002
}
  0
ATTRIB
  5
5F
100
AcDbEntity
  8
ASHADE
  6
Continuous
 62
           1
100
AcDbText
 10
22.0
 20
19.5
 30
0.0
 40
0.2
  1
LIGHT_1
  7
ASHADE
 72
           1
 11
22.0
 21
19.4
 31
0.0
100
AcDbAttribute
  2
SNAME
 70
           0
  0
ATTRIB
  5
60
100
AcDbEntity
  8
ASHADE
  6
Continuous
 62
           7
100
AcDbText
 10
22.0
 20
19.5
 30
0.0
 40
0.01
  1

100
AcDbAttribute
  2
GNAME
 70
           1
  0
ATTRIB
  5
61
100
AcDbEntity
  8
ASHADE
  6
Continuous
 62
           7
100
AcDbText
 10
22.0
 20
19.5
 30
0.0
 40
0.01
  1

100
AcDbAttribute
  2
LAX
 70
           1
  0
ATTRIB
  5
62
100
AcDbEntity
  8
ASHADE
  6
Continuous
 62
           7
100
AcDbText
 10
22.0
 20
19.5
 30
0.0
 40
0.01
  1

100
AcDbAttribute
  2
LAY
 70
           1
  0
ATTRIB
  5
63
100
AcDbEntity
  8
ASHADE
  6
Continuous
 62
           7
100
AcDbText
 10
22.0
 20
19.5
 30
0.0
 40
0.01
  1

100
AcDbAttribute
  2
LAZ
 70
           1
  0
ATTRIB
  5
64
100
AcDbEntity
  8
ASHADE
  6
Continuous
 62
           7
100
AcDbText
 10
22.0
 20
19.5
 30
0.0
 40
0.01
  1
1
100
AcDbAttribute
  2
INTENSITY
 70
           1
  0
ATTRIB
  5
65
100
AcDbEntity
  8
ASHADE
  6
Continuous
 62
           7
100
AcDbText
 10
22.0
 20
19.5
 30
0.0
 40
0.01
  1
1,1,1
100
AcDbAttribute
  2
COLOR
 70
           1
  0
ATTRIB
  5
66
100
AcDbEntity
  8
ASHADE
  6
Continuous
 62
           7
100
AcDbText
 10
22.0
 20
19.5
 30
0.0
 40
0.01
  1
0
100
AcDbAttribute
  2
CONEA
 70
           1
  0
ATTRIB
  5
67
100
AcDbEntity
  8
ASHADE
  6
Continuous
 62
           7
100
AcDbText
 10
22.0
 20
19.5
 30
0.0
 40
0.01
  1
-1
100
AcDbAttribute
  2
CONED
 70
           1
  0
ATTRIB
  5
68
100
AcDbEntity
  8
ASHADE
  6
Continuous
 62
           7
100
AcDbText
 10
22.0
 20
19.5
 30
0.0
 40
0.01
  1
-1
100
AcDbAttribute
  2
BEAMD
 70
           1
  0
SEQEND
  5
69
100
AcDbEntity
  8
0
  0
INSERT
  5
6A
100
AcDbEntity
  8
0
 60
           1
100
AcDbBlockReference
 66
           1
  2
OVERHEAD
 10
22.0
 20
-8.5
 30
0.0
1001
AVE_RENDER
1002
{
1070
           0
1000
LIGHT_2
1011
23.0
1021
-8.5
1031
0.0
1041
100.0
1010
0.109803921569
1020
0.109803921569
1030
0.109803921569
1002
{
1070
           0
1070
           0
1040
0.0
1040
0.0
1040
3.0
1002
}
1002
{
1070
           9
1070
          21
1070
          15
1070
           0
1040
37.62
1040
122.37
1002
}
1002
}
1001
TCAD
1000
TCW_LIGTH
1002
{
1070
           0
1002
}
  0
ATTRIB
  5
6B
100
AcDbEntity
  8
ASHADE
  6
Continuous
 62
           1
100
AcDbText
 10
22.0
 20
-8.5
 30
0.0
 40
0.2
  1
LIGHT_2
  7
ASHADE
 72
           1
 11
22.0
 21
-8.6
 31
0.0
100
AcDbAttribute
  2
SNAME
 70
           0
  0
ATTRIB
  5
6C
100
AcDbEntity
  8
ASHADE
  6
Continuous
 62
           7
100
AcDbText
 10
22.0
 20
-8.5
 30
0.0
 40
0.01
  1

100
AcDbAttribute
  2
GNAME
 70
           1
  0
ATTRIB
  5
6D
100
AcDbEntity
  8
ASHADE
  6
Continuous
 62
           7
100
AcDbText
 10
22.0
 20
-8.5
 30
0.0
 40
0.01
  1

100
AcDbAttribute
  2
LAX
 70
           1
  0
ATTRIB
  5
6E
100
AcDbEntity
  8
ASHADE
  6
Continuous
 62
           7
100
AcDbText
 10
22.0
 20
-8.5
 30
0.0
 40
0.01
  1

100
AcDbAttribute
  2
LAY
 70
           1
  0
ATTRIB
  5
6F
100
AcDbEntity
  8
ASHADE
  6
Continuous
 62
           7
100
AcDbText
 10
22.0
 20
-8.5
 30
0.0
 40
0.01
  1

100
AcDbAttribute
  2
LAZ
 70
           1
  0
ATTRIB
  5
70
100
AcDbEntity
  8
ASHADE
  6
Continuous
 62
           7
100
AcDbText
 10
22.0
 20
-8.5
 30
0.0
 40
0.01
  1
1
100
AcDbAttribute
  2
INTENSITY
 70
           1
  0
ATTRIB
  5
71
100
AcDbEntity
  8
ASHADE
  6
Continuous
 62
           7
100
AcDbText
 10
22.0
 20
-8.5
 30
0.0
 40
0.01
  1
1,1,1
100
AcDbAttribute
  2
COLOR
 70
           1
  0
ATTRIB
  5
72
100
AcDbEntity
  8
ASHADE
  6
Continuous
 62
           7
100
AcDbText
 10
22.0
 20
-8.5
 30
0.0
 40
0.01
  1
0
100
AcDbAttribute
  2
CONEA
 70
           1
  0
ATTRIB
  5
73
100
AcDbEntity
  8
ASHADE
  6
Continuous
 62
           7
100
AcDbText
 10
22.0
 20
-8.5
 30
0.0
 40
0.01
  1
-1
100
AcDbAttribute
  2
CONED
 70
           1
  0
ATTRIB
  5
74
100
AcDbEntity
  8
ASHADE
  6
Continuous
 62
           7
100
AcDbText
 10
22.0
 20
-8.5
 30
0.0
 40
0.01
  1
-1
100
AcDbAttribute
  2
BEAMD
 70
           1
  0
SEQEND
  5
75
100
AcDbEntity
  8
0
  0
INSERT
  5
76
100
AcDbEntity
  8
0
 60
           1
100
AcDbBlockReference
 66
           1
  2
OVERHEAD
 10
-11.0
 20
17.0
 30
35.0
1001
AVE_RENDER
1002
{
1070
           0
1000
LIGHT_3
1011
-10.0
1021
17.0
1031
35.0
1041
100.0
1010
0.501960784314
1020
0.501960784314
1030
0.501960784314
1002
{
1070
           0
1070
           0
1040
0.0
1040
0.0
1040
3.0
1002
}
1002
{
1070
           9
1070
          21
1070
          15
1070
           0
1040
37.62
1040
122.37
1002
}
1002
}
1001
TCAD
1000
TCW_LIGTH
1002
{
1070
           1
1002
}
  0
ATTRIB
  5
77
100
AcDbEntity
  8
ASHADE
  6
Continuous
 62
           1
100
AcDbText
 10
-11.0
 20
17.0
 30
35.0
 40
0.2
  1
LIGHT_3
  7
ASHADE
 72
           1
 11
-11.0
 21
16.9
 31
35.0
100
AcDbAttribute
  2
SNAME
 70
           0
  0
ATTRIB
  5
78
100
AcDbEntity
  8
ASHADE
  6
Continuous
 62
           7
100
AcDbText
 10
-11.0
 20
17.0
 30
35.0
 40
0.01
  1

100
AcDbAttribute
  2
GNAME
 70
           1
  0
ATTRIB
  5
79
100
AcDbEntity
  8
ASHADE
  6
Continuous
 62
           7
100
AcDbText
 10
-11.0
 20
17.0
 30
35.0
 40
0.01
  1

100
AcDbAttribute
  2
LAX
 70
           1
  0
ATTRIB
  5
7A
100
AcDbEntity
  8
ASHADE
  6
Continuous
 62
           7
100
AcDbText
 10
-11.0
 20
17.0
 30
35.0
 40
0.01
  1

100
AcDbAttribute
  2
LAY
 70
           1
  0
ATTRIB
  5
7B
100
AcDbEntity
  8
ASHADE
  6
Continuous
 62
           7
100
AcDbText
 10
-11.0
 20
17.0
 30
35.0
 40
0.01
  1

100
AcDbAttribute
  2
LAZ
 70
           1
  0
ATTRIB
  5
7C
100
AcDbEntity
  8
ASHADE
  6
Continuous
 62
           7
100
AcDbText
 10
-11.0
 20
17.0
 30
35.0
 40
0.01
  1
1
100
AcDbAttribute
  2
INTENSITY
 70
           1
  0
ATTRIB
  5
7D
100
AcDbEntity
  8
ASHADE
  6
Continuous
 62
           7
100
AcDbText
 10
-11.0
 20
17.0
 30
35.0
 40
0.01
  1
1,1,1
100
AcDbAttribute
  2
COLOR
 70
           1
  0
ATTRIB
  5
7E
100
AcDbEntity
  8
ASHADE
  6
Continuous
 62
           7
100
AcDbText
 10
-11.0
 20
17.0
 30
35.0
 40
0.01
  1
0
100
AcDbAttribute
  2
CONEA
 70
           1
  0
ATTRIB
  5
7F
100
AcDbEntity
  8
ASHADE
  6
Continuous
 62
           7
100
AcDbText
 10
-11.0
 20
17.0
 30
35.0
 40
0.01
  1
-1
100
AcDbAttribute
  2
CONED
 70
           1
  0
ATTRIB
  5
80
100
AcDbEntity
  8
ASHADE
  6
Continuous
 62
           7
100
AcDbText
 10
-11.0
 20
17.0
 30
35.0
 40
0.01
  1
-1
100
AcDbAttribute
  2
BEAMD
 70
           1
  0
SEQEND
  5
81
100
AcDbEntity
  8
0
  0
INSERT
  5
96
100
AcDbEntity
  8
0
 60
           1
100
AcDbBlockReference
 66
           1
  2
DIRECT
 10
93.5
 20
38.25
 30
0.0
 50
-52.305759533311
1001
AVE_RENDER
1002
{
1070
           0
1000
LIGHT_4
1011
99.0
1021
42.5
1031
0.0
1041
100.0
1010
0.501960784314
1020
0.501960784314
1030
0.501960784314
1002
{
1070
           0
1070
           0
1040
0.0
1040
0.0
1040
3.0
1002
}
1002
{
1070
           9
1070
          21
1070
          15
1070
           0
1040
37.62
1040
122.37
1002
}
1002
}
1001
TCAD
1000
TCW_LIGTH
1002
{
1070
           1
1002
}
  0
ATTRIB
  5
97
100
AcDbEntity
  8
ASHADE
  6
Continuous
 62
           1
100
AcDbText
 10
93.5
 20
38.25
 30
0.0
 40
0.2
  1
LIGHT_4
 50
-52.305759533311
  7
ASHADE
 72
           1
 11
93.420871499861
 21
38.188855249892
 31
0.0
100
AcDbAttribute
  2
SNAME
 70
           0
  0
ATTRIB
  5
98
100
AcDbEntity
  8
ASHADE
  6
Continuous
 62
           7
100
AcDbText
 10
93.5
 20
38.25
 30
0.0
 40
0.01
  1

 50
-52.305759533311
100
AcDbAttribute
  2
GNAME
 70
           1
  0
ATTRIB
  5
99
100
AcDbEntity
  8
ASHADE
  6
Continuous
 62
           7
100
AcDbText
 10
93.5
 20
38.25
 30
0.0
 40
0.01
  1

 50
-52.305759533311
100
AcDbAttribute
  2
LAX
 70
           1
  0
ATTRIB
  5
9A
100
AcDbEntity
  8
ASHADE
  6
Continuous
 62
           7
100
AcDbText
 10
93.5
 20
38.25
 30
0.0
 40
0.01
  1

 50
-52.305759533311
100
AcDbAttribute
  2
LAY
 70
           1
  0
ATTRIB
  5
9B
100
AcDbEntity
  8
ASHADE
  6
Continuous
 62
           7
100
AcDbText
 10
93.5
 20
38.25
 30
0.0
 40
0.01
  1

 50
-52.305759533311
100
AcDbAttribute
  2
LAZ
 70
           1
  0
ATTRIB
  5
9C
100
AcDbEntity
  8
ASHADE
  6
Continuous
 62
           7
100
AcDbText
 10
93.5
 20
38.25
 30
0.0
 40
0.01
  1
1
 50
-52.305759533311
100
AcDbAttribute
  2
INTENSITY
 70
           1
  0
ATTRIB
  5
9D
100
AcDbEntity
  8
ASHADE
  6
Continuous
 62
           7
100
AcDbText
 10
93.5
 20
38.25
 30
0.0
 40
0.01
  1
1,1,1
 50
-52.305759533311
100
AcDbAttribute
  2
COLOR
 70
           1
  0
ATTRIB
  5
9E
100
AcDbEntity
  8
ASHADE
  6
Continuous
 62
           7
100
AcDbText
 10
93.5
 20
38.25
 30
0.0
 40
0.01
  1
0
 50
-52.305759533311
100
AcDbAttribute
  2
CONEA
 70
           1
  0
ATTRIB
  5
9F
100
AcDbEntity
  8
ASHADE
  6
Continuous
 62
           7
100
AcDbText
 10
93.5
 20
38.25
 30
0.0
 40
0.01
  1
-1
 50
-52.305759533311
100
AcDbAttribute
  2
CONED
 70
           1
  0
ATTRIB
  5
A0
100
AcDbEntity
  8
ASHADE
  6
Continuous
 62
           7
100
AcDbText
 10
93.5
 20
38.25
 30
0.0
 40
0.01
  1
-1
 50
-52.305759533311
100
AcDbAttribute
  2
BEAMD
 70
           1
  0
SEQEND
  5
A1
100
AcDbEntity
  8
0
  0
INSERT
  5
A2
100
AcDbEntity
  8
0
 60
           1
100
AcDbBlockReference
 66
           1
  2
OVERHEAD
 10
0.0
 20
0.0
 30
0.0
1001
AVE_RENDER
1002
{
1070
           0
1000
LIGHT_5
1011
1.0
1021
0.0
1031
0.0
1041
100.0
1010
0.501960784314
1020
0.501960784314
1030
0.501960784314
1002
{
1070
           0
1070
           0
1040
0.0
1040
0.0
1040
3.0
1002
}
1002
{
1070
           9
1070
          21
1070
          15
1070
           0
1040
37.62
1040
122.37
1002
}
1002
}
1001
TCAD
1000
TCW_LIGTH
1002
{
1070
           0
1002
}
  0
ATTRIB
  5
A3
100
AcDbEntity
  8
ASHADE
  6
Continuous
 62
           1
100
AcDbText
 10
0.0
 20
0.0
 30
0.0
 40
0.2
  1
LIGHT_5
  7
ASHADE
 72
           1
 11
0.0
 21
-0.1
 31
0.0
100
AcDbAttribute
  2
SNAME
 70
           0
  0
ATTRIB
  5
A4
100
AcDbEntity
  8
ASHADE
  6
Continuous
 62
           7
100
AcDbText
 10
0.0
 20
0.0
 30
0.0
 40
0.01
  1

100
AcDbAttribute
  2
GNAME
 70
           1
  0
ATTRIB
  5
A5
100
AcDbEntity
  8
ASHADE
  6
Continuous
 62
           7
100
AcDbText
 10
0.0
 20
0.0
 30
0.0
 40
0.01
  1

100
AcDbAttribute
  2
LAX
 70
           1
  0
ATTRIB
  5
A6
100
AcDbEntity
  8
ASHADE
  6
Continuous
 62
           7
100
AcDbText
 10
0.0
 20
0.0
 30
0.0
 40
0.01
  1

100
AcDbAttribute
  2
LAY
 70
           1
  0
ATTRIB
  5
A7
100
AcDbEntity
  8
ASHADE
  6
Continuous
 62
           7
100
AcDbText
 10
0.0
 20
0.0
 30
0.0
 40
0.01
  1

100
AcDbAttribute
  2
LAZ
 70
           1
  0
ATTRIB
  5
A8
100
AcDbEntity
  8
ASHADE
  6
Continuous
 62
           7
100
AcDbText
 10
0.0
 20
0.0
 30
0.0
 40
0.01
  1
1
100
AcDbAttribute
  2
INTENSITY
 70
           1
  0
ATTRIB
  5
A9
100
AcDbEntity
  8
ASHADE
  6
Continuous
 62
           7
100
AcDbText
 10
0.0
 20
0.0
 30
0.0
 40
0.01
  1
1,1,1
100
AcDbAttribute
  2
COLOR
 70
           1
  0
ATTRIB
  5
AA
100
AcDbEntity
  8
ASHADE
  6
Continuous
 62
           7
100
AcDbText
 10
0.0
 20
0.0
 30
0.0
 40
0.01
  1
0
100
AcDbAttribute
  2
CONEA
 70
           1
  0
ATTRIB
  5
AB
100
AcDbEntity
  8
ASHADE
  6
Continuous
 62
           7
100
AcDbText
 10
0.0
 20
0.0
 30
0.0
 40
0.01
  1
-1
100
AcDbAttribute
  2
CONED
 70
           1
  0
ATTRIB
  5
AC
100
AcDbEntity
  8
ASHADE
  6
Continuous
 62
           7
100
AcDbText
 10
0.0
 20
0.0
 30
0.0
 40
0.01
  1
-1
100
AcDbAttribute
  2
BEAMD
 70
           1
  0
SEQEND
  5
AD
100
AcDbEntity
  8
0
  0
INSERT
  5
AE
100
AcDbEntity
  8
0
 60
           1
100
AcDbBlockReference
 66
           1
  2
OVERHEAD
 10
0.0
 20
0.0
 30
0.0
1001
AVE_RENDER
1002
{
1070
           0
1000
LIGHT_6
1011
1.0
1021
0.0
1031
0.0
1041
100.0
1010
0.752941176471
1020
0.752941176471
1030
0.752941176471
1002
{
1070
           0
1070
           0
1040
0.0
1040
0.0
1040
3.0
1002
}
1002
{
1070
           9
1070
          21
1070
          15
1070
           0
1040
37.62
1040
122.37
1002
}
1002
}
1001
TCAD
1000
TCW_LIGTH
1002
{
1070
           1
1002
}
  0
ATTRIB
  5
AF
100
AcDbEntity
  8
ASHADE
  6
Continuous
 62
           1
100
AcDbText
 10
0.0
 20
0.0
 30
0.0
 40
0.2
  1
LIGHT_6
  7
ASHADE
 72
           1
 11
0.0
 21
-0.1
 31
0.0
100
AcDbAttribute
  2
SNAME
 70
           0
  0
ATTRIB
  5
B0
100
AcDbEntity
  8
ASHADE
  6
Continuous
 62
           7
100
AcDbText
 10
0.0
 20
0.0
 30
0.0
 40
0.01
  1

100
AcDbAttribute
  2
GNAME
 70
           1
  0
ATTRIB
  5
B1
100
AcDbEntity
  8
ASHADE
  6
Continuous
 62
           7
100
AcDbText
 10
0.0
 20
0.0
 30
0.0
 40
0.01
  1

100
AcDbAttribute
  2
LAX
 70
           1
  0
ATTRIB
  5
B2
100
AcDbEntity
  8
ASHADE
  6
Continuous
 62
           7
100
AcDbText
 10
0.0
 20
0.0
 30
0.0
 40
0.01
  1

100
AcDbAttribute
  2
LAY
 70
           1
  0
ATTRIB
  5
B3
100
AcDbEntity
  8
ASHADE
  6
Continuous
 62
           7
100
AcDbText
 10
0.0
 20
0.0
 30
0.0
 40
0.01
  1

100
AcDbAttribute
  2
LAZ
 70
           1
  0
ATTRIB
  5
B4
100
AcDbEntity
  8
ASHADE
  6
Continuous
 62
           7
100
AcDbText
 10
0.0
 20
0.0
 30
0.0
 40
0.01
  1
1
100
AcDbAttribute
  2
INTENSITY
 70
           1
  0
ATTRIB
  5
B5
100
AcDbEntity
  8
ASHADE
  6
Continuous
 62
           7
100
AcDbText
 10
0.0
 20
0.0
 30
0.0
 40
0.01
  1
1,1,1
100
AcDbAttribute
  2
COLOR
 70
           1
  0
ATTRIB
  5
B6
100
AcDbEntity
  8
ASHADE
  6
Continuous
 62
           7
100
AcDbText
 10
0.0
 20
0.0
 30
0.0
 40
0.01
  1
0
100
AcDbAttribute
  2
CONEA
 70
           1
  0
ATTRIB
  5
B7
100
AcDbEntity
  8
ASHADE
  6
Continuous
 62
           7
100
AcDbText
 10
0.0
 20
0.0
 30
0.0
 40
0.01
  1
-1
100
AcDbAttribute
  2
CONED
 70
           1
  0
ATTRIB
  5
B8
100
AcDbEntity
  8
ASHADE
  6
Continuous
 62
           7
100
AcDbText
 10
0.0
 20
0.0
 30
0.0
 40
0.01
  1
-1
100
AcDbAttribute
  2
BEAMD
 70
           1
  0
SEQEND
  5
B9
100
AcDbEntity
  8
0
  0
INSERT
  5
E2
100
AcDbEntity
  8
0
 60
           1
100
AcDbBlockReference
 66
           1
  2
SH_SPOT
 10
-5.5
 20
0.0
 30
4.25
210
0.0
220
1.0
230
0.0
1001
AVE_RENDER
1002
{
1070
           0
1000
LIGHT_7
1011
5.5
1021
4.25
1031
1.0
1041
100.0
1010
0.501960784314
1020
0.501960784314
1030
0.501960784314
1002
{
1070
           1
1070
           0
1040
0.0
1040
0.0
1040
3.0
1002
}
1002
{
1070
           9
1070
          21
1070
          15
1070
           0
1040
37.62
1040
122.37
1002
}
1002
}
1001
TCAD
1000
TCW_LIGTH
1002
{
1070
           0
1002
}
  0
ATTRIB
  5
E3
100
AcDbEntity
  8
ASHADE
  6
Continuous
 62
           1
100
AcDbText
 10
-5.5
 20
0.0
 30
4.25
 40
0.2
  1
LIGHT_7
  7
ASHADE
 72
           1
 11
-5.5
 21
-0.1
 31
4.25
210
0.0
220
1.0
230
0.0
100
AcDbAttribute
  2
SNAME
 70
           0
  0
ATTRIB
  5
E4
100
AcDbEntity
  8
ASHADE
  6
Continuous
 62
           7
100
AcDbText
 10
-5.5
 20
0.0
 30
4.25
 40
0.01
  1

210
0.0
220
1.0
230
0.0
100
AcDbAttribute
  2
GNAME
 70
           1
  0
ATTRIB
  5
E5
100
AcDbEntity
  8
ASHADE
  6
Continuous
 62
           7
100
AcDbText
 10
-5.5
 20
0.0
 30
4.25
 40
0.01
  1

210
0.0
220
1.0
230
0.0
100
AcDbAttribute
  2
LAX
 70
           1
  0
ATTRIB
  5
E6
100
AcDbEntity
  8
ASHADE
  6
Continuous
 62
           7
100
AcDbText
 10
-5.5
 20
0.0
 30
4.25
 40
0.01
  1

210
0.0
220
1.0
230
0.0
100
AcDbAttribute
  2
LAY
 70
           1
  0
ATTRIB
  5
E7
100
AcDbEntity
  8
ASHADE
  6
Continuous
 62
           7
100
AcDbText
 10
-5.5
 20
0.0
 30
4.25
 40
0.01
  1

210
0.0
220
1.0
230
0.0
100
AcDbAttribute
  2
LAZ
 70
           1
  0
ATTRIB
  5
E8
100
AcDbEntity
  8
ASHADE
  6
Continuous
 62
           7
100
AcDbText
 10
-5.5
 20
0.0
 30
4.25
 40
0.01
  1
1
210
0.0
220
1.0
230
0.0
100
AcDbAttribute
  2
INTENSITY
 70
           1
  0
ATTRIB
  5
E9
100
AcDbEntity
  8
ASHADE
  6
Continuous
 62
           7
100
AcDbText
 10
-5.5
 20
0.0
 30
4.25
 40
0.01
  1
1,1,1
210
0.0
220
1.0
230
0.0
100
AcDbAttribute
  2
COLOR
 70
           1
  0
ATTRIB
  5
EA
100
AcDbEntity
  8
ASHADE
  6
Continuous
 62
           7
100
AcDbText
 10
-5.5
 20
0.0
 30
4.25
 40
0.01
  1
0
210
0.0
220
1.0
230
0.0
100
AcDbAttribute
  2
ZSIZE
 70
           1
  0
ATTRIB
  5
EB
100
AcDbEntity
  8
ASHADE
  6
Continuous
 62
           7
100
AcDbText
 10
-5.5
 20
0.0
 30
4.25
 40
0.01
  1
-1
210
0.0
220
1.0
230
0.0
100
AcDbAttribute
  2
BIASMIN
 70
           1
  0
ATTRIB
  5
EC
100
AcDbEntity
  8
ASHADE
  6
Continuous
 62
           7
100
AcDbText
 10
-5.5
 20
0.0
 30
4.25
 40
0.01
  1
-1
210
0.0
220
1.0
230
0.0
100
AcDbAttribute
  2
BIASMAX
 70
           1
  0
ATTRIB
  5
ED
100
AcDbEntity
  8
ASHADE
  6
Continuous
 62
           7
100
AcDbText
 10
-5.5
 20
0.0
 30
4.25
 40
0.01
  1
10.0
210
0.0
220
1.0
230
0.0
100
AcDbAttribute
  2
CONEAN
 70
           1
  0
ATTRIB
  5
EE
100
AcDbEntity
  8
ASHADE
  6
Continuous
 62
           7
100
AcDbText
 10
-5.5
 20
0.0
 30
4.25
 40
0.01
  1
0.0
210
0.0
220
1.0
230
0.0
100
AcDbAttribute
  2
CONEDE
 70
           1
  0
ATTRIB
  5
EF
100
AcDbEntity
  8
ASHADE
  6
Continuous
 62
           7
100
AcDbText
 10
-5.5
 20
0.0
 30
4.25
 40
0.01
  1
0.0
210
0.0
220
1.0
230
0.0
100
AcDbAttribute
  2
BEAMDI
 70
           1
  0
ATTRIB
  5
F0
100
AcDbEntity
  8
ASHADE
  6
Continuous
 62
           7
100
AcDbText
 10
-5.5
 20
0.0
 30
4.25
 40
0.01
  1
0,0,0
210
0.0
220
1.0
230
0.0
100
AcDbAttribute
  2
LFXYZ
 70
           1
  0
SEQEND
  5
F1
100
AcDbEntity
  8
0
  0
XLINE
  5
F2
100
AcDbEntity
  8
$CONSTRUCTION
100
AcDbXline
 10
-6.4840325658
 20
0.0
 30
0.0
 11
1.0
 21
0.0
 31
0.0
1001
TCAD
1000
TCW_CUSTOM_DATA
1002
{
1000
#$AUX@_ToolInfo Properties
1070
           8
1000
Insert^JConstruction^JHorizontalLine@Construction HorizontalLine
1002
}
  0
XLINE
  5
F3
100
AcDbEntity
  8
$CONSTRUCTION
100
AcDbXline
 10
0.0
 20
-5.740082822592
 30
0.0
 11
0.0
 21
1.0
 31
0.0
1001
TCAD
1000
TCW_CUSTOM_DATA
1002
{
1000
#$AUX@_ToolInfo Properties
1070
           8
1000
Insert^JConstruction^JVerticalLine@Construction VerticalLine
1002
}
  0
CIRCLE
  5
F4
100
AcDbEntity
  8
$CONSTRUCTION
370
           0
100
AcDbCircle
 10
0.0
 20
0.0
 30
0.0
 40
1.1811
1001
TCAD
1000
TCW_CUSTOM_DATA
1002
{
1000
#$AUX@_ToolInfo Properties
1070
           8
1000
Insert^JConstruction^JCenterAndPointCircle@Construction CenterAndPointCircle
1002
}
  0
CIRCLE
  5
F5
100
AcDbEntity
  8
$CONSTRUCTION
370
           0
100
AcDbCircle
 10
0.0
 20
0.0
 30
0.0
 40
2.3622
1001
TCAD
1000
TCW_CUSTOM_DATA
1002
{
1000
#$AUX@_ToolInfo Properties
1070
           8
1000
Insert^JConstruction^JCenterAndPointCircle@Construction CenterAndPointCircle
1002
}
  0
XLINE
  5
F6
100
AcDbEntity
  8
$CONSTRUCTION
100
AcDbXline
 10
-3.314038362794
 20
-5.740082822592
 30
0.0
 11
0.5000000000000001
 21
0.8660254037844386
 31
0.0
1001
TCAD
1000
TCW_CUSTOM_DATA
1002
{
1000
#$AUX@_ToolInfo Properties
1070
           8
1000
Insert^JConstruction^JAngularLine@Construction AngularLine
1002
}
  0
XLINE
  5
F7
100
AcDbEntity
  8
$CONSTRUCTION
100
AcDbXline
 10
3.314038362794
 20
-5.740082822592
 30
0.0
 11
-0.4999999999999998
 21
0.8660254037844387
 31
0.0
1001
TCAD
1000
TCW_CUSTOM_DATA
1002
{
1000
#$AUX@_ToolInfo Properties
1070
           8
1000
Insert^JConstruction^JAngularLine@Construction AngularLine
1002
}
  0
LWPOLYLINE
  5
F8
100
AcDbEntity
  8
0
370
           0
  6
Continuous
 62
           7
100
AcDbPolyline
 90
        4
 70
           1
 10
-1.1811
 20
2.04572520882
 42
-0.267949192431
 10
1.1811
 20
2.04572520882
 10
0.59055
 20
1.02286260441
 42
0.267949192431
 10
-0.59055
 20
1.02286260441
  0
LWPOLYLINE
  5
F9
100
AcDbEntity
  8
0
370
           0
  6
Continuous
 62
           7
100
AcDbPolyline
 90
        4
 70
           1
 10
-0.01
 20
1.21
 10
0.01
 20
1.21
 10
0.01
 20
1.19
 10
-0.01
 20
1.19
1001
TCAD
1000
TCW_CUSTOM_DATA
1002
{
1000
#$AUX@_ToolInfo Properties
1070
           8
1000
Insert^JLine^JRectangle@Line Rectangle
1002
}
  0
LWPOLYLINE
  5
FA
100
AcDbEntity
  8
0
370
           0
  6
Continuous
 62
           7
100
AcDbPolyline
 90
        4
 70
           1
 10
-0.01
 20
1.25
 10
0.01
 20
1.25
 10
0.01
 20
1.23
 10
-0.01
 20
1.23
1001
TCAD
1000
TCW_CUSTOM_DATA
1002
{
1000
#$AUX@_ToolInfo Properties
1070
           8
1000
Insert^JLine^JRectangle@Line Rectangle
1002
}
  0
LWPOLYLINE
  5
FB
100
AcDbEntity
  8
0
370
           0
  6
Continuous
 62
           7
100
AcDbPolyline
 90
        4
 70
           1
 10
-0.01
 20
1.29
 10
0.01
 20
1.29
 10
0.01
 20
1.27
 10
-0.01
 20
1.27
1001
TCAD
1000
TCW_CUSTOM_DATA
1002
{
1000
#$AUX@_ToolInfo Properties
1070
           8
1000
Insert^JLine^JRectangle@Line Rectangle
1002
}
  0
LWPOLYLINE
  5
FC
100
AcDbEntity
  8
0
370
           0
  6
Continuous
 62
           7
100
AcDbPolyline
 90
        4
 70
           1
 10
-0.01
 20
1.33
 10
0.01
 20
1.33
 10
0.01
 20
1.31
 10
-0.01
 20
1.31
1001
TCAD
1000
TCW_CUSTOM_DATA
1002
{
1000
#$AUX@_ToolInfo Properties
1070
           8
1000
Insert^JLine^JRectangle@Line Rectangle
1002
}
  0
LWPOLYLINE
  5
FD
100
AcDbEntity
  8
0
370
           0
  6
Continuous
 62
           7
100
AcDbPolyline
 90
        4
 70
           1
 10
-0.01
 20
1.37
 10
0.01
 20
1.37
 10
0.01
 20
1.35
 10
-0.01
 20
1.35
1001
TCAD
1000
TCW_CUSTOM_DATA
1002
{
1000
#$AUX@_ToolInfo Properties
1070
           8
1000
Insert^JLine^JRectangle@Line Rectangle
1002
}
  0
LWPOLYLINE
  5
FE
100
AcDbEntity
  8
0
370
           0
  6
Continuous
 62
           7
100
AcDbPolyline
 90
        4
 70
           1
 10
-0.01
 20
1.41
 10
0.01
 20
1.41
 10
0.01
 20
1.39
 10
-0.01
 20
1.39
1001
TCAD
1000
TCW_CUSTOM_DATA
1002
{
1000
#$AUX@_ToolInfo Properties
1070
           8
1000
Insert^JLine^JRectangle@Line Rectangle
1002
}
  0
LWPOLYLINE
  5
FF
100
AcDbEntity
  8
0
370
           0
  6
Continuous
 62
           7
100
AcDbPolyline
 90
        4
 70
           1
 10
-0.01
 20
1.45
 10
0.01
 20
1.45
 10
0.01
 20
1.43
 10
-0.01
 20
1.43
1001
TCAD
1000
TCW_CUSTOM_DATA
1002
{
1000
#$AUX@_ToolInfo Properties
1070
           8
1000
Insert^JLine^JRectangle@Line Rectangle
1002
}
  0
LWPOLYLINE
  5
100
102
{ACAD_REACTORS
330
1A0
102
}
100
AcDbEntity
  8
0
370
           0
  6
Continuous
 62
           7
100
AcDbPolyline
 90
        4
 70
           1
 10
0.35
 20
1.17
 10
0.37
 20
1.17
 10
0.37
 20
1.15
 10
0.35
 20
1.15
1001
TCAD
1000
TCW_CUSTOM_DATA
1002
{
1000
#$AUX@_ToolInfo Properties
1070
           8
1000
Insert^JLine^JRectangle@Line Rectangle
1002
}
  0
LWPOLYLINE
  5
101
102
{ACAD_REACTORS
330
1A0
102
}
100
AcDbEntity
  8
0
370
           0
  6
Continuous
 62
           7
100
AcDbPolyline
 90
        4
 70
           1
 10
0.31
 20
1.17
 10
0.33
 20
1.17
 10
0.33
 20
1.15
 10
0.31
 20
1.15
1001
TCAD
1000
TCW_CUSTOM_DATA
1002
{
1000
#$AUX@_ToolInfo Properties
1070
           8
1000
Insert^JLine^JRectangle@Line Rectangle
1002
}
  0
LWPOLYLINE
  5
102
102
{ACAD_REACTORS
330
1A0
102
}
100
AcDbEntity
  8
0
370
           0
  6
Continuous
 62
           7
100
AcDbPolyline
 90
        4
 70
           1
 10
0.39
 20
1.17
 10
0.41
 20
1.17
 10
0.41
 20
1.15
 10
0.39
 20
1.15
1001
TCAD
1000
TCW_CUSTOM_DATA
1002
{
1000
#$AUX@_ToolInfo Properties
1070
           8
1000
Insert^JLine^JRectangle@Line Rectangle
1002
}
  0
LWPOLYLINE
  5
103
102
{ACAD_REACTORS
330
1A0
102
}
100
AcDbEntity
  8
0
370
           0
  6
Continuous
 62
           7
100
AcDbPolyline
 90
        4
 70
           1
 10
0.43
 20
1.17
 10
0.45
 20
1.17
 10
0.45
 20
1.15
 10
0.43
 20
1.15
1001
TCAD
1000
TCW_CUSTOM_DATA
1002
{
1000
#$AUX@_ToolInfo Properties
1070
           8
1000
Insert^JLine^JRectangle@Line Rectangle
1002
}
  0
LWPOLYLINE
  5
104
102
{ACAD_REACTORS
330
1A0
102
}
100
AcDbEntity
  8
0
370
           0
  6
Continuous
 62
           7
100
AcDbPolyline
 90
        4
 70
           1
 10
0.43
 20
1.13
 10
0.45
 20
1.13
 10
0.45
 20
1.11
 10
0.43
 20
1.11
1001
TCAD
1000
TCW_CUSTOM_DATA
1002
{
1000
#$AUX@_ToolInfo Properties
1070
           8
1000
Insert^JLine^JRectangle@Line Rectangle
1002
}
  0
LWPOLYLINE
  5
105
102
{ACAD_REACTORS
330
1A0
102
}
100
AcDbEntity
  8
0
370
           0
  6
Continuous
 62
           7
100
AcDbPolyline
 90
        4
 70
           1
 10
0.47
 20
1.13
 10
0.49
 20
1.13
 10
0.49
 20
1.11
 10
0.47
 20
1.11
1001
TCAD
1000
TCW_CUSTOM_DATA
1002
{
1000
#$AUX@_ToolInfo Properties
1070
           8
1000
Insert^JLine^JRectangle@Line Rectangle
1002
}
  0
LWPOLYLINE
  5
106
102
{ACAD_REACTORS
330
1A0
102
}
100
AcDbEntity
  8
0
370
           0
  6
Continuous
 62
           7
100
AcDbPolyline
 90
        4
 70
           1
 10
0.51
 20
1.13
 10
0.53
 20
1.13
 10
0.53
 20
1.11
 10
0.51
 20
1.11
1001
TCAD
1000
TCW_CUSTOM_DATA
1002
{
1000
#$AUX@_ToolInfo Properties
1070
           8
1000
Insert^JLine^JRectangle@Line Rectangle
1002
}
  0
LWPOLYLINE
  5
107
102
{ACAD_REACTORS
330
1A0
102
}
100
AcDbEntity
  8
0
370
           0
  6
Continuous
 62
           7
100
AcDbPolyline
 90
        4
 70
           1
 10
0.55
 20
1.13
 10
0.57
 20
1.13
 10
0.57
 20
1.11
 10
0.55
 20
1.11
1001
TCAD
1000
TCW_CUSTOM_DATA
1002
{
1000
#$AUX@_ToolInfo Properties
1070
           8
1000
Insert^JLine^JRectangle@Line Rectangle
1002
}
  0
LWPOLYLINE
  5
108
102
{ACAD_REACTORS
330
1A0
102
}
100
AcDbEntity
  8
0
370
           0
  6
Continuous
 62
           7
100
AcDbPolyline
 90
        4
 70
           1
 10
0.59
 20
1.13
 10
0.61
 20
1.13
 10
0.61
 20
1.11
 10
0.59
 20
1.11
1001
TCAD
1000
TCW_CUSTOM_DATA
1002
{
1000
#$AUX@_ToolInfo Properties
1070
           8
1000
Insert^JLine^JRectangle@Line Rectangle
1002
}
  0
LWPOLYLINE
  5
109
102
{ACAD_REACTORS
330
1A0
102
}
100
AcDbEntity
  8
0
370
           0
  6
Continuous
 62
           7
100
AcDbPolyline
 90
        4
 70
           1
 10
0.51
 20
1.09
 10
0.53
 20
1.09
 10
0.53
 20
1.07
 10
0.51
 20
1.07
1001
TCAD
1000
TCW_CUSTOM_DATA
1002
{
1000
#$AUX@_ToolInfo Properties
1070
           8
1000
Insert^JLine^JRectangle@Line Rectangle
1002
}
  0
LWPOLYLINE
  5
10A
102
{ACAD_REACTORS
330
1A0
102
}
100
AcDbEntity
  8
0
370
           0
  6
Continuous
 62
           7
100
AcDbPolyline
 90
        4
 70
           1
 10
0.55
 20
1.09
 10
0.57
 20
1.09
 10
0.57
 20
1.07
 10
0.55
 20
1.07
1001
TCAD
1000
TCW_CUSTOM_DATA
1002
{
1000
#$AUX@_ToolInfo Properties
1070
           8
1000
Insert^JLine^JRectangle@Line Rectangle
1002
}
  0
LWPOLYLINE
  5
10B
102
{ACAD_REACTORS
330
1A0
102
}
100
AcDbEntity
  8
0
370
           0
  6
Continuous
 62
           7
100
AcDbPolyline
 90
        4
 70
           1
 10
0.59
 20
1.09
 10
0.61
 20
1.09
 10
0.61
 20
1.07
 10
0.59
 20
1.07
1001
TCAD
1000
TCW_CUSTOM_DATA
1002
{
1000
#$AUX@_ToolInfo Properties
1070
           8
1000
Insert^JLine^JRectangle@Line Rectangle
1002
}
  0
LWPOLYLINE
  5
10C
102
{ACAD_REACTORS
330
1A0
102
}
100
AcDbEntity
  8
0
370
           0
  6
Continuous
 62
           7
100
AcDbPolyline
 90
        4
 70
           1
 10
0.47
 20
1.17
 10
0.49
 20
1.17
 10
0.49
 20
1.15
 10
0.47
 20
1.15
1001
TCAD
1000
TCW_CUSTOM_DATA
1002
{
1000
#$AUX@_ToolInfo Properties
1070
           8
1000
Insert^JLine^JRectangle@Line Rectangle
1002
}
  0
LWPOLYLINE
  5
10D
102
{ACAD_REACTORS
330
1A0
102
}
100
AcDbEntity
  8
0
370
           0
  6
Continuous
 62
           7
100
AcDbPolyline
 90
        4
 70
           1
 10
0.51
 20
1.17
 10
0.53
 20
1.17
 10
0.53
 20
1.15
 10
0.51
 20
1.15
1001
TCAD
1000
TCW_CUSTOM_DATA
1002
{
1000
#$AUX@_ToolInfo Properties
1070
           8
1000
Insert^JLine^JRectangle@Line Rectangle
1002
}
  0
LWPOLYLINE
  5
10E
102
{ACAD_REACTORS
330
1A0
102
}
100
AcDbEntity
  8
0
370
           0
  6
Continuous
 62
           7
100
AcDbPolyline
 90
        4
 70
           1
 10
0.55
 20
1.17
 10
0.57
 20
1.17
 10
0.57
 20
1.15
 10
0.55
 20
1.15
1001
TCAD
1000
TCW_CUSTOM_DATA
1002
{
1000
#$AUX@_ToolInfo Properties
1070
           8
1000
Insert^JLine^JRectangle@Line Rectangle
1002
}
  0
LWPOLYLINE
  5
10F
102
{ACAD_REACTORS
330
1A0
102
}
100
AcDbEntity
  8
0
370
           0
  6
Continuous
 62
           7
100
AcDbPolyline
 90
        4
 70
           1
 10
0.59
 20
1.17
 10
0.61
 20
1.17
 10
0.61
 20
1.15
 10
0.59
 20
1.15
1001
TCAD
1000
TCW_CUSTOM_DATA
1002
{
1000
#$AUX@_ToolInfo Properties
1070
           8
1000
Insert^JLine^JRectangle@Line Rectangle
1002
}
  0
LWPOLYLINE
  5
110
102
{ACAD_REACTORS
330
1A0
102
}
100
AcDbEntity
  8
0
370
           0
  6
Continuous
 62
           7
100
AcDbPolyline
 90
        4
 70
           1
 10
0.63
 20
1.17
 10
0.65
 20
1.17
 10
0.65
 20
1.15
 10
0.63
 20
1.15
1001
TCAD
1000
TCW_CUSTOM_DATA
1002
{
1000
#$AUX@_ToolInfo Properties
1070
           8
1000
Insert^JLine^JRectangle@Line Rectangle
1002
}
  0
LWPOLYLINE
  5
111
102
{ACAD_REACTORS
330
1A0
102
}
100
AcDbEntity
  8
0
370
           0
  6
Continuous
 62
           7
100
AcDbPolyline
 90
        4
 70
           1
 10
0.71
 20
1.29
 10
0.73
 20
1.29
 10
0.73
 20
1.27
 10
0.71
 20
1.27
1001
TCAD
1000
TCW_CUSTOM_DATA
1002
{
1000
#$AUX@_ToolInfo Properties
1070
           8
1000
Insert^JLine^JRectangle@Line Rectangle
1002
}
  0
LWPOLYLINE
  5
112
102
{ACAD_REACTORS
330
1A0
102
}
100
AcDbEntity
  8
0
370
           0
  6
Continuous
 62
           7
100
AcDbPolyline
 90
        4
 70
           1
 10
0.71
 20
1.33
 10
0.73
 20
1.33
 10
0.73
 20
1.31
 10
0.71
 20
1.31
1001
TCAD
1000
TCW_CUSTOM_DATA
1002
{
1000
#$AUX@_ToolInfo Properties
1070
           8
1000
Insert^JLine^JRectangle@Line Rectangle
1002
}
  0
LWPOLYLINE
  5
113
102
{ACAD_REACTORS
330
1A0
102
}
100
AcDbEntity
  8
0
370
           0
  6
Continuous
 62
           7
100
AcDbPolyline
 90
        4
 70
           1
 10
0.71
 20
1.37
 10
0.73
 20
1.37
 10
0.73
 20
1.35
 10
0.71
 20
1.35
1001
TCAD
1000
TCW_CUSTOM_DATA
1002
{
1000
#$AUX@_ToolInfo Properties
1070
           8
1000
Insert^JLine^JRectangle@Line Rectangle
1002
}
  0
LWPOLYLINE
  5
114
102
{ACAD_REACTORS
330
1A0
102
}
100
AcDbEntity
  8
0
370
           0
  6
Continuous
 62
           7
100
AcDbPolyline
 90
        4
 70
           1
 10
0.71
 20
1.41
 10
0.73
 20
1.41
 10
0.73
 20
1.39
 10
0.71
 20
1.39
1001
TCAD
1000
TCW_CUSTOM_DATA
1002
{
1000
#$AUX@_ToolInfo Properties
1070
           8
1000
Insert^JLine^JRectangle@Line Rectangle
1002
}
  0
LWPOLYLINE
  5
115
102
{ACAD_REACTORS
330
1A0
102
}
100
AcDbEntity
  8
0
370
           0
  6
Continuous
 62
           7
100
AcDbPolyline
 90
        4
 70
           1
 10
0.71
 20
1.45
 10
0.73
 20
1.45
 10
0.73
 20
1.43
 10
0.71
 20
1.43
1001
TCAD
1000
TCW_CUSTOM_DATA
1002
{
1000
#$AUX@_ToolInfo Properties
1070
           8
1000
Insert^JLine^JRectangle@Line Rectangle
1002
}
  0
LWPOLYLINE
  5
116
102
{ACAD_REACTORS
330
1A0
102
}
100
AcDbEntity
  8
0
370
           0
  6
Continuous
 62
           7
100
AcDbPolyline
 90
        4
 70
           1
 10
0.75
 20
1.45
 10
0.77
 20
1.45
 10
0.77
 20
1.43
 10
0.75
 20
1.43
1001
TCAD
1000
TCW_CUSTOM_DATA
1002
{
1000
#$AUX@_ToolInfo Properties
1070
           8
1000
Insert^JLine^JRectangle@Line Rectangle
1002
}
  0
LWPOLYLINE
  5
117
102
{ACAD_REACTORS
330
1A0
102
}
100
AcDbEntity
  8
0
370
           0
  6
Continuous
 62
           7
100
AcDbPolyline
 90
        4
 70
           1
 10
0.79
 20
1.45
 10
0.81
 20
1.45
 10
0.81
 20
1.43
 10
0.79
 20
1.43
1001
TCAD
1000
TCW_CUSTOM_DATA
1002
{
1000
#$AUX@_ToolInfo Properties
1070
           8
1000
Insert^JLine^JRectangle@Line Rectangle
1002
}
  0
LWPOLYLINE
  5
118
102
{ACAD_REACTORS
330
1A0
102
}
100
AcDbEntity
  8
0
370
           0
  6
Continuous
 62
           7
100
AcDbPolyline
 90
        4
 70
           1
 10
0.75
 20
1.41
 10
0.77
 20
1.41
 10
0.77
 20
1.39
 10
0.75
 20
1.39
1001
TCAD
1000
TCW_CUSTOM_DATA
1002
{
1000
#$AUX@_ToolInfo Properties
1070
           8
1000
Insert^JLine^JRectangle@Line Rectangle
1002
}
  0
LWPOLYLINE
  5
119
102
{ACAD_REACTORS
330
1A0
102
}
100
AcDbEntity
  8
0
370
           0
  6
Continuous
 62
           7
100
AcDbPolyline
 90
        4
 70
           1
 10
0.75
 20
1.37
 10
0.77
 20
1.37
 10
0.77
 20
1.35
 10
0.75
 20
1.35
1001
TCAD
1000
TCW_CUSTOM_DATA
1002
{
1000
#$AUX@_ToolInfo Properties
1070
           8
1000
Insert^JLine^JRectangle@Line Rectangle
1002
}
  0
LWPOLYLINE
  5
11A
102
{ACAD_REACTORS
330
1A0
102
}
100
AcDbEntity
  8
0
370
           0
  6
Continuous
 62
           7
100
AcDbPolyline
 90
        4
 70
           0
 10
0.837157890325
 20
1.45
 10
0.83
 20
1.437602170282
 10
0.83
 20
1.45
 10
0.837157890325
 20
1.45
1001
TCAD
1000
TCW_CUSTOM_DATA
1002
{
1000
#$AUX@_ToolInfo Properties
1070
           8
1000
Insert^JLine^JPolyline@Line Polyline
1002
}
  0
LWPOLYLINE
  5
11B
102
{ACAD_REACTORS
330
1A0
102
}
100
AcDbEntity
  8
0
370
           0
  6
Continuous
 62
           7
100
AcDbPolyline
 90
        6
 70
           0
 10
0.79
 20
1.41
 10
0.81
 20
1.41
 10
0.81
 20
1.402961154131
 10
0.802516874174
 20
1.39
 10
0.79
 20
1.39
 10
0.79
 20
1.41
1001
TCAD
1000
TCW_CUSTOM_DATA
1002
{
1000
#$AUX@_ToolInfo Properties
1070
           8
1000
Insert^JLine^JPolyline@Line Polyline
1002
}
  0
LWPOLYLINE
  5
11C
102
{ACAD_REACTORS
330
1A0
102
}
100
AcDbEntity
  8
0
370
           0
  6
Continuous
 62
           7
100
AcDbPolyline
 90
        5
 70
           0
 10
0.75
 20
1.33
 10
0.767875858022
 20
1.33
 10
0.756328852638
 20
1.31
 10
0.75
 20
1.31
 10
0.75
 20
1.33
1001
TCAD
1000
TCW_CUSTOM_DATA
1002
{
1000
#$AUX@_ToolInfo Properties
1070
           8
1000
Insert^JLine^JPolyline@Line Polyline
1002
}
  0
LWPOLYLINE
  5
11D
102
{ACAD_REACTORS
330
1A0
102
}
100
AcDbEntity
  8
0
370
           0
  6
Continuous
 62
           7
100
AcDbPolyline
 90
        4
 70
           0
 10
0.71
 20
1.25
 10
0.721687836487
 20
1.25
 10
0.710140831103
 20
1.23
 10
0.71
 20
1.25
1001
TCAD
1000
TCW_CUSTOM_DATA
1002
{
1000
#$AUX@_ToolInfo Properties
1070
           8
1000
Insert^JLine^JPolyline@Line Polyline
1002
}
  0
LWPOLYLINE
  5
11E
102
{ACAD_REACTORS
330
1A0
102
}
100
AcDbEntity
  8
0
370
           0
  6
Continuous
 62
           7
100
AcDbPolyline
 90
        4
 70
           1
 10
0.03
 20
1.45
 10
0.05
 20
1.45
 10
0.05
 20
1.43
 10
0.03
 20
1.43
1001
TCAD
1000
TCW_CUSTOM_DATA
1002
{
1000
#$AUX@_ToolInfo Properties
1070
           8
1000
Insert^JLine^JRectangle@Line Rectangle
1002
}
  0
LWPOLYLINE
  5
11F
102
{ACAD_REACTORS
330
1A0
102
}
100
AcDbEntity
  8
0
370
           0
  6
Continuous
 62
           7
100
AcDbPolyline
 90
        4
 70
           1
 10
0.03
 20
1.41
 10
0.05
 20
1.41
 10
0.05
 20
1.39
 10
0.03
 20
1.39
1001
TCAD
1000
TCW_CUSTOM_DATA
1002
{
1000
#$AUX@_ToolInfo Properties
1070
           8
1000
Insert^JLine^JRectangle@Line Rectangle
1002
}
  0
LWPOLYLINE
  5
120
102
{ACAD_REACTORS
330
1A0
102
}
100
AcDbEntity
  8
0
370
           0
  6
Continuous
 62
           7
100
AcDbPolyline
 90
        4
 70
           1
 10
0.03
 20
1.37
 10
0.05
 20
1.37
 10
0.05
 20
1.35
 10
0.03
 20
1.35
1001
TCAD
1000
TCW_CUSTOM_DATA
1002
{
1000
#$AUX@_ToolInfo Properties
1070
           8
1000
Insert^JLine^JRectangle@Line Rectangle
1002
}
  0
LWPOLYLINE
  5
121
102
{ACAD_REACTORS
330
1A0
102
}
100
AcDbEntity
  8
0
370
           0
  6
Continuous
 62
           7
100
AcDbPolyline
 90
        4
 70
           1
 10
0.03
 20
1.33
 10
0.05
 20
1.33
 10
0.05
 20
1.31
 10
0.03
 20
1.31
1001
TCAD
1000
TCW_CUSTOM_DATA
1002
{
1000
#$AUX@_ToolInfo Properties
1070
           8
1000
Insert^JLine^JRectangle@Line Rectangle
1002
}
  0
LWPOLYLINE
  5
122
102
{ACAD_REACTORS
330
1A0
102
}
100
AcDbEntity
  8
0
370
           0
  6
Continuous
 62
           7
100
AcDbPolyline
 90
        4
 70
           1
 10
0.03
 20
1.29
 10
0.05
 20
1.29
 10
0.05
 20
1.27
 10
0.03
 20
1.27
1001
TCAD
1000
TCW_CUSTOM_DATA
1002
{
1000
#$AUX@_ToolInfo Properties
1070
           8
1000
Insert^JLine^JRectangle@Line Rectangle
1002
}
  0
LWPOLYLINE
  5
123
102
{ACAD_REACTORS
330
1A0
102
}
100
AcDbEntity
  8
0
370
           0
  6
Continuous
 62
           7
100
AcDbPolyline
 90
        4
 70
           1
 10
0.03
 20
1.25
 10
0.05
 20
1.25
 10
0.05
 20
1.23
 10
0.03
 20
1.23
1001
TCAD
1000
TCW_CUSTOM_DATA
1002
{
1000
#$AUX@_ToolInfo Properties
1070
           8
1000
Insert^JLine^JRectangle@Line Rectangle
1002
}
  0
LWPOLYLINE
  5
124
102
{ACAD_REACTORS
330
1A0
102
}
100
AcDbEntity
  8
0
370
           0
  6
Continuous
 62
           7
100
AcDbPolyline
 90
        4
 70
           1
 10
0.03
 20
1.21
 10
0.05
 20
1.21
 10
0.05
 20
1.19
 10
0.03
 20
1.19
1001
TCAD
1000
TCW_CUSTOM_DATA
1002
{
1000
#$AUX@_ToolInfo Properties
1070
           8
1000
Insert^JLine^JRectangle@Line Rectangle
1002
}
  0
LWPOLYLINE
  5
125
102
{ACAD_REACTORS
330
1A0
102
}
100
AcDbEntity
  8
0
370
           0
  6
Continuous
 62
           7
100
AcDbPolyline
 90
        4
 70
           1
 10
0.07
 20
1.21
 10
0.09
 20
1.21
 10
0.09
 20
1.19
 10
0.07
 20
1.19
1001
TCAD
1000
TCW_CUSTOM_DATA
1002
{
1000
#$AUX@_ToolInfo Properties
1070
           8
1000
Insert^JLine^JRectangle@Line Rectangle
1002
}
  0
LWPOLYLINE
  5
126
102
{ACAD_REACTORS
330
1A0
102
}
100
AcDbEntity
  8
0
370
           0
  6
Continuous
 62
           7
100
AcDbPolyline
 90
        4
 70
           1
 10
0.07
 20
1.25
 10
0.09
 20
1.25
 10
0.09
 20
1.23
 10
0.07
 20
1.23
1001
TCAD
1000
TCW_CUSTOM_DATA
1002
{
1000
#$AUX@_ToolInfo Properties
1070
           8
1000
Insert^JLine^JRectangle@Line Rectangle
1002
}
  0
LWPOLYLINE
  5
127
102
{ACAD_REACTORS
330
1A0
102
}
100
AcDbEntity
  8
0
370
           0
  6
Continuous
 62
           7
100
AcDbPolyline
 90
        4
 70
           1
 10
0.07
 20
1.29
 10
0.09
 20
1.29
 10
0.09
 20
1.27
 10
0.07
 20
1.27
1001
TCAD
1000
TCW_CUSTOM_DATA
1002
{
1000
#$AUX@_ToolInfo Properties
1070
           8
1000
Insert^JLine^JRectangle@Line Rectangle
1002
}
  0
LWPOLYLINE
  5
128
102
{ACAD_REACTORS
330
1A0
102
}
100
AcDbEntity
  8
0
370
           0
  6
Continuous
 62
           7
100
AcDbPolyline
 90
        4
 70
           1
 10
0.07
 20
1.33
 10
0.09
 20
1.33
 10
0.09
 20
1.31
 10
0.07
 20
1.31
1001
TCAD
1000
TCW_CUSTOM_DATA
1002
{
1000
#$AUX@_ToolInfo Properties
1070
           8
1000
Insert^JLine^JRectangle@Line Rectangle
1002
}
  0
LWPOLYLINE
  5
129
102
{ACAD_REACTORS
330
1A0
102
}
100
AcDbEntity
  8
0
370
           0
  6
Continuous
 62
           7
100
AcDbPolyline
 90
        4
 70
           1
 10
0.07
 20
1.37
 10
0.09
 20
1.37
 10
0.09
 20
1.35
 10
0.07
 20
1.35
1001
TCAD
1000
TCW_CUSTOM_DATA
1002
{
1000
#$AUX@_ToolInfo Properties
1070
           8
1000
Insert^JLine^JRectangle@Line Rectangle
1002
}
  0
LWPOLYLINE
  5
12A
102
{ACAD_REACTORS
330
1A0
102
}
100
AcDbEntity
  8
0
370
           0
  6
Continuous
 62
           7
100
AcDbPolyline
 90
        4
 70
           1
 10
0.07
 20
1.41
 10
0.09
 20
1.41
 10
0.09
 20
1.39
 10
0.07
 20
1.39
1001
TCAD
1000
TCW_CUSTOM_DATA
1002
{
1000
#$AUX@_ToolInfo Properties
1070
           8
1000
Insert^JLine^JRectangle@Line Rectangle
1002
}
  0
LWPOLYLINE
  5
12B
102
{ACAD_REACTORS
330
1A0
102
}
100
AcDbEntity
  8
0
370
           0
  6
Continuous
 62
           7
100
AcDbPolyline
 90
        4
 70
           1
 10
0.07
 20
1.45
 10
0.09
 20
1.45
 10
0.09
 20
1.43
 10
0.07
 20
1.43
1001
TCAD
1000
TCW_CUSTOM_DATA
1002
{
1000
#$AUX@_ToolInfo Properties
1070
           8
1000
Insert^JLine^JRectangle@Line Rectangle
1002
}
  0
LWPOLYLINE
  5
12C
102
{ACAD_REACTORS
330
1A0
102
}
100
AcDbEntity
  8
0
370
           0
  6
Continuous
 62
           7
100
AcDbPolyline
 90
        4
 70
           1
 10
0.11
 20
1.45
 10
0.13
 20
1.45
 10
0.13
 20
1.43
 10
0.11
 20
1.43
1001
TCAD
1000
TCW_CUSTOM_DATA
1002
{
1000
#$AUX@_ToolInfo Properties
1070
           8
1000
Insert^JLine^JRectangle@Line Rectangle
1002
}
  0
LWPOLYLINE
  5
12D
102
{ACAD_REACTORS
330
1A0
102
}
100
AcDbEntity
  8
0
370
           0
  6
Continuous
 62
           7
100
AcDbPolyline
 90
        4
 70
           1
 10
0.11
 20
1.41
 10
0.13
 20
1.41
 10
0.13
 20
1.39
 10
0.11
 20
1.39
1001
TCAD
1000
TCW_CUSTOM_DATA
1002
{
1000
#$AUX@_ToolInfo Properties
1070
           8
1000
Insert^JLine^JRectangle@Line Rectangle
1002
}
  0
LWPOLYLINE
  5
12E
102
{ACAD_REACTORS
330
1A0
102
}
100
AcDbEntity
  8
0
370
           0
  6
Continuous
 62
           7
100
AcDbPolyline
 90
        4
 70
           1
 10
0.11
 20
1.37
 10
0.13
 20
1.37
 10
0.13
 20
1.35
 10
0.11
 20
1.35
1001
TCAD
1000
TCW_CUSTOM_DATA
1002
{
1000
#$AUX@_ToolInfo Properties
1070
           8
1000
Insert^JLine^JRectangle@Line Rectangle
1002
}
  0
LWPOLYLINE
  5
12F
102
{ACAD_REACTORS
330
1A0
102
}
100
AcDbEntity
  8
0
370
           0
  6
Continuous
 62
           7
100
AcDbPolyline
 90
        4
 70
           1
 10
0.11
 20
1.33
 10
0.13
 20
1.33
 10
0.13
 20
1.31
 10
0.11
 20
1.31
1001
TCAD
1000
TCW_CUSTOM_DATA
1002
{
1000
#$AUX@_ToolInfo Properties
1070
           8
1000
Insert^JLine^JRectangle@Line Rectangle
1002
}
  0
LWPOLYLINE
  5
130
102
{ACAD_REACTORS
330
1A0
102
}
100
AcDbEntity
  8
0
370
           0
  6
Continuous
 62
           7
100
AcDbPolyline
 90
        4
 70
           1
 10
0.11
 20
1.29
 10
0.13
 20
1.29
 10
0.13
 20
1.27
 10
0.11
 20
1.27
1001
TCAD
1000
TCW_CUSTOM_DATA
1002
{
1000
#$AUX@_ToolInfo Properties
1070
           8
1000
Insert^JLine^JRectangle@Line Rectangle
1002
}
  0
LWPOLYLINE
  5
131
102
{ACAD_REACTORS
330
1A0
102
}
100
AcDbEntity
  8
0
370
           0
  6
Continuous
 62
           7
100
AcDbPolyline
 90
        4
 70
           1
 10
0.11
 20
1.25
 10
0.13
 20
1.25
 10
0.13
 20
1.23
 10
0.11
 20
1.23
1001
TCAD
1000
TCW_CUSTOM_DATA
1002
{
1000
#$AUX@_ToolInfo Properties
1070
           8
1000
Insert^JLine^JRectangle@Line Rectangle
1002
}
  0
LWPOLYLINE
  5
132
102
{ACAD_REACTORS
330
1A0
102
}
100
AcDbEntity
  8
0
370
           0
  6
Continuous
 62
           7
100
AcDbPolyline
 90
        4
 70
           1
 10
0.11
 20
1.21
 10
0.13
 20
1.21
 10
0.13
 20
1.19
 10
0.11
 20
1.19
1001
TCAD
1000
TCW_CUSTOM_DATA
1002
{
1000
#$AUX@_ToolInfo Properties
1070
           8
1000
Insert^JLine^JRectangle@Line Rectangle
1002
}
  0
LWPOLYLINE
  5
133
102
{ACAD_REACTORS
330
1A0
102
}
100
AcDbEntity
  8
0
370
           0
  6
Continuous
 62
           7
100
AcDbPolyline
 90
        4
 70
           1
 10
0.15
 20
1.21
 10
0.17
 20
1.21
 10
0.17
 20
1.19
 10
0.15
 20
1.19
1001
TCAD
1000
TCW_CUSTOM_DATA
1002
{
1000
#$AUX@_ToolInfo Properties
1070
           8
1000
Insert^JLine^JRectangle@Line Rectangle
1002
}
  0
LWPOLYLINE
  5
134
102
{ACAD_REACTORS
330
1A0
102
}
100
AcDbEntity
  8
0
370
           0
  6
Continuous
 62
           7
100
AcDbPolyline
 90
        4
 70
           1
 10
0.15
 20
1.25
 10
0.17
 20
1.25
 10
0.17
 20
1.23
 10
0.15
 20
1.23
1001
TCAD
1000
TCW_CUSTOM_DATA
1002
{
1000
#$AUX@_ToolInfo Properties
1070
           8
1000
Insert^JLine^JRectangle@Line Rectangle
1002
}
  0
LWPOLYLINE
  5
135
102
{ACAD_REACTORS
330
1A0
102
}
100
AcDbEntity
  8
0
370
           0
  6
Continuous
 62
           7
100
AcDbPolyline
 90
        4
 70
           1
 10
0.15
 20
1.29
 10
0.17
 20
1.29
 10
0.17
 20
1.27
 10
0.15
 20
1.27
1001
TCAD
1000
TCW_CUSTOM_DATA
1002
{
1000
#$AUX@_ToolInfo Properties
1070
           8
1000
Insert^JLine^JRectangle@Line Rectangle
1002
}
  0
LWPOLYLINE
  5
136
102
{ACAD_REACTORS
330
1A0
102
}
100
AcDbEntity
  8
0
370
           0
  6
Continuous
 62
           7
100
AcDbPolyline
 90
        4
 70
           1
 10
0.15
 20
1.33
 10
0.17
 20
1.33
 10
0.17
 20
1.31
 10
0.15
 20
1.31
1001
TCAD
1000
TCW_CUSTOM_DATA
1002
{
1000
#$AUX@_ToolInfo Properties
1070
           8
1000
Insert^JLine^JRectangle@Line Rectangle
1002
}
  0
LWPOLYLINE
  5
137
102
{ACAD_REACTORS
330
1A0
102
}
100
AcDbEntity
  8
0
370
           0
  6
Continuous
 62
           7
100
AcDbPolyline
 90
        4
 70
           1
 10
0.15
 20
1.37
 10
0.17
 20
1.37
 10
0.17
 20
1.35
 10
0.15
 20
1.35
1001
TCAD
1000
TCW_CUSTOM_DATA
1002
{
1000
#$AUX@_ToolInfo Properties
1070
           8
1000
Insert^JLine^JRectangle@Line Rectangle
1002
}
  0
LWPOLYLINE
  5
138
102
{ACAD_REACTORS
330
1A0
102
}
100
AcDbEntity
  8
0
370
           0
  6
Continuous
 62
           7
100
AcDbPolyline
 90
        4
 70
           1
 10
0.15
 20
1.41
 10
0.17
 20
1.41
 10
0.17
 20
1.39
 10
0.15
 20
1.39
1001
TCAD
1000
TCW_CUSTOM_DATA
1002
{
1000
#$AUX@_ToolInfo Properties
1070
           8
1000
Insert^JLine^JRectangle@Line Rectangle
1002
}
  0
LWPOLYLINE
  5
139
102
{ACAD_REACTORS
330
1A0
102
}
100
AcDbEntity
  8
0
370
           0
  6
Continuous
 62
           7
100
AcDbPolyline
 90
        4
 70
           1
 10
0.15
 20
1.45
 10
0.17
 20
1.45
 10
0.17
 20
1.43
 10
0.15
 20
1.43
1001
TCAD
1000
TCW_CUSTOM_DATA
1002
{
1000
#$AUX@_ToolInfo Properties
1070
           8
1000
Insert^JLine^JRectangle@Line Rectangle
1002
}
  0
LWPOLYLINE
  5
13A
102
{ACAD_REACTORS
330
1A0
102
}
100
AcDbEntity
  8
0
370
           0
  6
Continuous
 62
           7
100
AcDbPolyline
 90
        4
 70
           1
 10
0.19
 20
1.45
 10
0.21
 20
1.45
 10
0.21
 20
1.43
 10
0.19
 20
1.43
1001
TCAD
1000
TCW_CUSTOM_DATA
1002
{
1000
#$AUX@_ToolInfo Properties
1070
           8
1000
Insert^JLine^JRectangle@Line Rectangle
1002
}
  0
LWPOLYLINE
  5
13B
102
{ACAD_REACTORS
330
1A0
102
}
100
AcDbEntity
  8
0
370
           0
  6
Continuous
 62
           7
100
AcDbPolyline
 90
        4
 70
           1
 10
0.19
 20
1.41
 10
0.21
 20
1.41
 10
0.21
 20
1.39
 10
0.19
 20
1.39
1001
TCAD
1000
TCW_CUSTOM_DATA
1002
{
1000
#$AUX@_ToolInfo Properties
1070
           8
1000
Insert^JLine^JRectangle@Line Rectangle
1002
}
  0
LWPOLYLINE
  5
13C
102
{ACAD_REACTORS
330
1A0
102
}
100
AcDbEntity
  8
0
370
           0
  6
Continuous
 62
           7
100
AcDbPolyline
 90
        4
 70
           1
 10
0.19
 20
1.37
 10
0.21
 20
1.37
 10
0.21
 20
1.35
 10
0.19
 20
1.35
1001
TCAD
1000
TCW_CUSTOM_DATA
1002
{
1000
#$AUX@_ToolInfo Properties
1070
           8
1000
Insert^JLine^JRectangle@Line Rectangle
1002
}
  0
LWPOLYLINE
  5
13D
102
{ACAD_REACTORS
330
1A0
102
}
100
AcDbEntity
  8
0
370
           0
  6
Continuous
 62
           7
100
AcDbPolyline
 90
        4
 70
           1
 10
0.19
 20
1.33
 10
0.21
 20
1.33
 10
0.21
 20
1.31
 10
0.19
 20
1.31
1001
TCAD
1000
TCW_CUSTOM_DATA
1002
{
1000
#$AUX@_ToolInfo Properties
1070
           8
1000
Insert^JLine^JRectangle@Line Rectangle
1002
}
  0
LWPOLYLINE
  5
13E
102
{ACAD_REACTORS
330
1A0
102
}
100
AcDbEntity
  8
0
370
           0
  6
Continuous
 62
           7
100
AcDbPolyline
 90
        4
 70
           1
 10
0.19
 20
1.29
 10
0.21
 20
1.29
 10
0.21
 20
1.27
 10
0.19
 20
1.27
1001
TCAD
1000
TCW_CUSTOM_DATA
1002
{
1000
#$AUX@_ToolInfo Properties
1070
           8
1000
Insert^JLine^JRectangle@Line Rectangle
1002
}
  0
LWPOLYLINE
  5
13F
102
{ACAD_REACTORS
330
1A0
102
}
100
AcDbEntity
  8
0
370
           0
  6
Continuous
 62
           7
100
AcDbPolyline
 90
        4
 70
           1
 10
0.19
 20
1.25
 10
0.21
 20
1.25
 10
0.21
 20
1.23
 10
0.19
 20
1.23
1001
TCAD
1000
TCW_CUSTOM_DATA
1002
{
1000
#$AUX@_ToolInfo Properties
1070
           8
1000
Insert^JLine^JRectangle@Line Rectangle
1002
}
  0
LWPOLYLINE
  5
140
102
{ACAD_REACTORS
330
1A0
102
}
100
AcDbEntity
  8
0
370
           0
  6
Continuous
 62
           7
100
AcDbPolyline
 90
        4
 70
           1
 10
0.19
 20
1.21
 10
0.21
 20
1.21
 10
0.21
 20
1.19
 10
0.19
 20
1.19
1001
TCAD
1000
TCW_CUSTOM_DATA
1002
{
1000
#$AUX@_ToolInfo Properties
1070
           8
1000
Insert^JLine^JRectangle@Line Rectangle
1002
}
  0
LWPOLYLINE
  5
141
102
{ACAD_REACTORS
330
1A0
102
}
100
AcDbEntity
  8
0
370
           0
  6
Continuous
 62
           7
100
AcDbPolyline
 90
        4
 70
           1
 10
0.23
 20
1.21
 10
0.25
 20
1.21
 10
0.25
 20
1.19
 10
0.23
 20
1.19
1001
TCAD
1000
TCW_CUSTOM_DATA
1002
{
1000
#$AUX@_ToolInfo Properties
1070
           8
1000
Insert^JLine^JRectangle@Line Rectangle
1002
}
  0
LWPOLYLINE
  5
142
102
{ACAD_REACTORS
330
1A0
102
}
100
AcDbEntity
  8
0
370
           0
  6
Continuous
 62
           7
100
AcDbPolyline
 90
        4
 70
           1
 10
0.23
 20
1.25
 10
0.25
 20
1.25
 10
0.25
 20
1.23
 10
0.23
 20
1.23
1001
TCAD
1000
TCW_CUSTOM_DATA
1002
{
1000
#$AUX@_ToolInfo Properties
1070
           8
1000
Insert^JLine^JRectangle@Line Rectangle
1002
}
  0
LWPOLYLINE
  5
143
102
{ACAD_REACTORS
330
1A0
102
}
100
AcDbEntity
  8
0
370
           0
  6
Continuous
 62
           7
100
AcDbPolyline
 90
        4
 70
           1
 10
0.23
 20
1.29
 10
0.25
 20
1.29
 10
0.25
 20
1.27
 10
0.23
 20
1.27
1001
TCAD
1000
TCW_CUSTOM_DATA
1002
{
1000
#$AUX@_ToolInfo Properties
1070
           8
1000
Insert^JLine^JRectangle@Line Rectangle
1002
}
  0
LWPOLYLINE
  5
144
102
{ACAD_REACTORS
330
1A0
102
}
100
AcDbEntity
  8
0
370
           0
  6
Continuous
 62
           7
100
AcDbPolyline
 90
        4
 70
           1
 10
0.23
 20
1.33
 10
0.25
 20
1.33
 10
0.25
 20
1.31
 10
0.23
 20
1.31
1001
TCAD
1000
TCW_CUSTOM_DATA
1002
{
1000
#$AUX@_ToolInfo Properties
1070
           8
1000
Insert^JLine^JRectangle@Line Rectangle
1002
}
  0
LWPOLYLINE
  5
145
102
{ACAD_REACTORS
330
1A0
102
}
100
AcDbEntity
  8
0
370
           0
  6
Continuous
 62
           7
100
AcDbPolyline
 90
        4
 70
           1
 10
0.23
 20
1.37
 10
0.25
 20
1.37
 10
0.25
 20
1.35
 10
0.23
 20
1.35
1001
TCAD
1000
TCW_CUSTOM_DATA
1002
{
1000
#$AUX@_ToolInfo Properties
1070
           8
1000
Insert^JLine^JRectangle@Line Rectangle
1002
}
  0
LWPOLYLINE
  5
146
102
{ACAD_REACTORS
330
1A0
102
}
100
AcDbEntity
  8
0
370
           0
  6
Continuous
 62
           7
100
AcDbPolyline
 90
        4
 70
           1
 10
0.23
 20
1.41
 10
0.25
 20
1.41
 10
0.25
 20
1.39
 10
0.23
 20
1.39
1001
TCAD
1000
TCW_CUSTOM_DATA
1002
{
1000
#$AUX@_ToolInfo Properties
1070
           8
1000
Insert^JLine^JRectangle@Line Rectangle
1002
}
  0
LWPOLYLINE
  5
147
102
{ACAD_REACTORS
330
1A0
102
}
100
AcDbEntity
  8
0
370
           0
  6
Continuous
 62
           7
100
AcDbPolyline
 90
        4
 70
           1
 10
0.23
 20
1.45
 10
0.25
 20
1.45
 10
0.25
 20
1.43
 10
0.23
 20
1.43
1001
TCAD
1000
TCW_CUSTOM_DATA
1002
{
1000
#$AUX@_ToolInfo Properties
1070
           8
1000
Insert^JLine^JRectangle@Line Rectangle
1002
}
  0
LWPOLYLINE
  5
148
102
{ACAD_REACTORS
330
1A0
102
}
100
AcDbEntity
  8
0
370
           0
  6
Continuous
 62
           7
100
AcDbPolyline
 90
        4
 70
           1
 10
0.27
 20
1.45
 10
0.29
 20
1.45
 10
0.29
 20
1.43
 10
0.27
 20
1.43
1001
TCAD
1000
TCW_CUSTOM_DATA
1002
{
1000
#$AUX@_ToolInfo Properties
1070
           8
1000
Insert^JLine^JRectangle@Line Rectangle
1002
}
  0
LWPOLYLINE
  5
149
102
{ACAD_REACTORS
330
1A0
102
}
100
AcDbEntity
  8
0
370
           0
  6
Continuous
 62
           7
100
AcDbPolyline
 90
        4
 70
           1
 10
0.27
 20
1.41
 10
0.29
 20
1.41
 10
0.29
 20
1.39
 10
0.27
 20
1.39
1001
TCAD
1000
TCW_CUSTOM_DATA
1002
{
1000
#$AUX@_ToolInfo Properties
1070
           8
1000
Insert^JLine^JRectangle@Line Rectangle
1002
}
  0
LWPOLYLINE
  5
14A
102
{ACAD_REACTORS
330
1A0
102
}
100
AcDbEntity
  8
0
370
           0
  6
Continuous
 62
           7
100
AcDbPolyline
 90
        4
 70
           1
 10
0.27
 20
1.37
 10
0.29
 20
1.37
 10
0.29
 20
1.35
 10
0.27
 20
1.35
1001
TCAD
1000
TCW_CUSTOM_DATA
1002
{
1000
#$AUX@_ToolInfo Properties
1070
           8
1000
Insert^JLine^JRectangle@Line Rectangle
1002
}
  0
LWPOLYLINE
  5
14B
102
{ACAD_REACTORS
330
1A0
102
}
100
AcDbEntity
  8
0
370
           0
  6
Continuous
 62
           7
100
AcDbPolyline
 90
        4
 70
           1
 10
0.27
 20
1.33
 10
0.29
 20
1.33
 10
0.29
 20
1.31
 10
0.27
 20
1.31
1001
TCAD
1000
TCW_CUSTOM_DATA
1002
{
1000
#$AUX@_ToolInfo Properties
1070
           8
1000
Insert^JLine^JRectangle@Line Rectangle
1002
}
  0
LWPOLYLINE
  5
14C
102
{ACAD_REACTORS
330
1A0
102
}
100
AcDbEntity
  8
0
370
           0
  6
Continuous
 62
           7
100
AcDbPolyline
 90
        4
 70
           1
 10
0.27
 20
1.29
 10
0.29
 20
1.29
 10
0.29
 20
1.27
 10
0.27
 20
1.27
1001
TCAD
1000
TCW_CUSTOM_DATA
1002
{
1000
#$AUX@_ToolInfo Properties
1070
           8
1000
Insert^JLine^JRectangle@Line Rectangle
1002
}
  0
LWPOLYLINE
  5
14D
102
{ACAD_REACTORS
330
1A0
102
}
100
AcDbEntity
  8
0
370
           0
  6
Continuous
 62
           7
100
AcDbPolyline
 90
        4
 70
           1
 10
0.27
 20
1.25
 10
0.29
 20
1.25
 10
0.29
 20
1.23
 10
0.27
 20
1.23
1001
TCAD
1000
TCW_CUSTOM_DATA
1002
{
1000
#$AUX@_ToolInfo Properties
1070
           8
1000
Insert^JLine^JRectangle@Line Rectangle
1002
}
  0
LWPOLYLINE
  5
14E
102
{ACAD_REACTORS
330
1A0
102
}
100
AcDbEntity
  8
0
370
           0
  6
Continuous
 62
           7
100
AcDbPolyline
 90
        4
 70
           1
 10
0.27
 20
1.21
 10
0.29
 20
1.21
 10
0.29
 20
1.19
 10
0.27
 20
1.19
1001
TCAD
1000
TCW_CUSTOM_DATA
1002
{
1000
#$AUX@_ToolInfo Properties
1070
           8
1000
Insert^JLine^JRectangle@Line Rectangle
1002
}
  0
LWPOLYLINE
  5
14F
102
{ACAD_REACTORS
330
1A0
102
}
100
AcDbEntity
  8
0
370
           0
  6
Continuous
 62
           7
100
AcDbPolyline
 90
        4
 70
           1
 10
0.31
 20
1.21
 10
0.33
 20
1.21
 10
0.33
 20
1.19
 10
0.31
 20
1.19
1001
TCAD
1000
TCW_CUSTOM_DATA
1002
{
1000
#$AUX@_ToolInfo Properties
1070
           8
1000
Insert^JLine^JRectangle@Line Rectangle
1002
}
  0
LWPOLYLINE
  5
150
102
{ACAD_REACTORS
330
1A0
102
}
100
AcDbEntity
  8
0
370
           0
  6
Continuous
 62
           7
100
AcDbPolyline
 90
        4
 70
           1
 10
0.31
 20
1.25
 10
0.33
 20
1.25
 10
0.33
 20
1.23
 10
0.31
 20
1.23
1001
TCAD
1000
TCW_CUSTOM_DATA
1002
{
1000
#$AUX@_ToolInfo Properties
1070
           8
1000
Insert^JLine^JRectangle@Line Rectangle
1002
}
  0
LWPOLYLINE
  5
151
102
{ACAD_REACTORS
330
1A0
102
}
100
AcDbEntity
  8
0
370
           0
  6
Continuous
 62
           7
100
AcDbPolyline
 90
        4
 70
           1
 10
0.31
 20
1.29
 10
0.33
 20
1.29
 10
0.33
 20
1.27
 10
0.31
 20
1.27
1001
TCAD
1000
TCW_CUSTOM_DATA
1002
{
1000
#$AUX@_ToolInfo Properties
1070
           8
1000
Insert^JLine^JRectangle@Line Rectangle
1002
}
  0
LWPOLYLINE
  5
152
102
{ACAD_REACTORS
330
1A0
102
}
100
AcDbEntity
  8
0
370
           0
  6
Continuous
 62
           7
100
AcDbPolyline
 90
        4
 70
           1
 10
0.31
 20
1.33
 10
0.33
 20
1.33
 10
0.33
 20
1.31
 10
0.31
 20
1.31
1001
TCAD
1000
TCW_CUSTOM_DATA
1002
{
1000
#$AUX@_ToolInfo Properties
1070
           8
1000
Insert^JLine^JRectangle@Line Rectangle
1002
}
  0
LWPOLYLINE
  5
153
102
{ACAD_REACTORS
330
1A0
102
}
100
AcDbEntity
  8
0
370
           0
  6
Continuous
 62
           7
100
AcDbPolyline
 90
        4
 70
           1
 10
0.31
 20
1.37
 10
0.33
 20
1.37
 10
0.33
 20
1.35
 10
0.31
 20
1.35
1001
TCAD
1000
TCW_CUSTOM_DATA
1002
{
1000
#$AUX@_ToolInfo Properties
1070
           8
1000
Insert^JLine^JRectangle@Line Rectangle
1002
}
  0
LWPOLYLINE
  5
154
102
{ACAD_REACTORS
330
1A0
102
}
100
AcDbEntity
  8
0
370
           0
  6
Continuous
 62
           7
100
AcDbPolyline
 90
        4
 70
           1
 10
0.31
 20
1.41
 10
0.33
 20
1.41
 10
0.33
 20
1.39
 10
0.31
 20
1.39
1001
TCAD
1000
TCW_CUSTOM_DATA
1002
{
1000
#$AUX@_ToolInfo Properties
1070
           8
1000
Insert^JLine^JRectangle@Line Rectangle
1002
}
  0
LWPOLYLINE
  5
155
102
{ACAD_REACTORS
330
1A0
102
}
100
AcDbEntity
  8
0
370
           0
  6
Continuous
 62
           7
100
AcDbPolyline
 90
        4
 70
           1
 10
0.31
 20
1.45
 10
0.33
 20
1.45
 10
0.33
 20
1.43
 10
0.31
 20
1.43
1001
TCAD
1000
TCW_CUSTOM_DATA
1002
{
1000
#$AUX@_ToolInfo Properties
1070
           8
1000
Insert^JLine^JRectangle@Line Rectangle
1002
}
  0
LWPOLYLINE
  5
156
102
{ACAD_REACTORS
330
1A0
102
}
100
AcDbEntity
  8
0
370
           0
  6
Continuous
 62
           7
100
AcDbPolyline
 90
        4
 70
           1
 10
0.35
 20
1.45
 10
0.37
 20
1.45
 10
0.37
 20
1.43
 10
0.35
 20
1.43
1001
TCAD
1000
TCW_CUSTOM_DATA
1002
{
1000
#$AUX@_ToolInfo Properties
1070
           8
1000
Insert^JLine^JRectangle@Line Rectangle
1002
}
  0
LWPOLYLINE
  5
157
102
{ACAD_REACTORS
330
1A0
102
}
100
AcDbEntity
  8
0
370
           0
  6
Continuous
 62
           7
100
AcDbPolyline
 90
        4
 70
           1
 10
0.35
 20
1.41
 10
0.37
 20
1.41
 10
0.37
 20
1.39
 10
0.35
 20
1.39
1001
TCAD
1000
TCW_CUSTOM_DATA
1002
{
1000
#$AUX@_ToolInfo Properties
1070
           8
1000
Insert^JLine^JRectangle@Line Rectangle
1002
}
  0
LWPOLYLINE
  5
158
102
{ACAD_REACTORS
330
1A0
102
}
100
AcDbEntity
  8
0
370
           0
  6
Continuous
 62
           7
100
AcDbPolyline
 90
        4
 70
           1
 10
0.35
 20
1.37
 10
0.37
 20
1.37
 10
0.37
 20
1.35
 10
0.35
 20
1.35
1001
TCAD
1000
TCW_CUSTOM_DATA
1002
{
1000
#$AUX@_ToolInfo Properties
1070
           8
1000
Insert^JLine^JRectangle@Line Rectangle
1002
}
  0
LWPOLYLINE
  5
159
102
{ACAD_REACTORS
330
1A0
102
}
100
AcDbEntity
  8
0
370
           0
  6
Continuous
 62
           7
100
AcDbPolyline
 90
        4
 70
           1
 10
0.35
 20
1.33
 10
0.37
 20
1.33
 10
0.37
 20
1.31
 10
0.35
 20
1.31
1001
TCAD
1000
TCW_CUSTOM_DATA
1002
{
1000
#$AUX@_ToolInfo Properties
1070
           8
1000
Insert^JLine^JRectangle@Line Rectangle
1002
}
  0
LWPOLYLINE
  5
15A
102
{ACAD_REACTORS
330
1A0
102
}
100
AcDbEntity
  8
0
370
           0
  6
Continuous
 62
           7
100
AcDbPolyline
 90
        4
 70
           1
 10
0.35
 20
1.29
 10
0.37
 20
1.29
 10
0.37
 20
1.27
 10
0.35
 20
1.27
1001
TCAD
1000
TCW_CUSTOM_DATA
1002
{
1000
#$AUX@_ToolInfo Properties
1070
           8
1000
Insert^JLine^JRectangle@Line Rectangle
1002
}
  0
LWPOLYLINE
  5
15B
102
{ACAD_REACTORS
330
1A0
102
}
100
AcDbEntity
  8
0
370
           0
  6
Continuous
 62
           7
100
AcDbPolyline
 90
        4
 70
           1
 10
0.35
 20
1.25
 10
0.37
 20
1.25
 10
0.37
 20
1.23
 10
0.35
 20
1.23
1001
TCAD
1000
TCW_CUSTOM_DATA
1002
{
1000
#$AUX@_ToolInfo Properties
1070
           8
1000
Insert^JLine^JRectangle@Line Rectangle
1002
}
  0
LWPOLYLINE
  5
15C
102
{ACAD_REACTORS
330
1A0
102
}
100
AcDbEntity
  8
0
370
           0
  6
Continuous
 62
           7
100
AcDbPolyline
 90
        4
 70
           1
 10
0.35
 20
1.21
 10
0.37
 20
1.21
 10
0.37
 20
1.19
 10
0.35
 20
1.19
1001
TCAD
1000
TCW_CUSTOM_DATA
1002
{
1000
#$AUX@_ToolInfo Properties
1070
           8
1000
Insert^JLine^JRectangle@Line Rectangle
1002
}
  0
LWPOLYLINE
  5
15D
102
{ACAD_REACTORS
330
1A0
102
}
100
AcDbEntity
  8
0
370
           0
  6
Continuous
 62
           7
100
AcDbPolyline
 90
        4
 70
           1
 10
0.39
 20
1.21
 10
0.41
 20
1.21
 10
0.41
 20
1.19
 10
0.39
 20
1.19
1001
TCAD
1000
TCW_CUSTOM_DATA
1002
{
1000
#$AUX@_ToolInfo Properties
1070
           8
1000
Insert^JLine^JRectangle@Line Rectangle
1002
}
  0
LWPOLYLINE
  5
15E
102
{ACAD_REACTORS
330
1A0
102
}
100
AcDbEntity
  8
0
370
           0
  6
Continuous
 62
           7
100
AcDbPolyline
 90
        4
 70
           1
 10
0.39
 20
1.25
 10
0.41
 20
1.25
 10
0.41
 20
1.23
 10
0.39
 20
1.23
1001
TCAD
1000
TCW_CUSTOM_DATA
1002
{
1000
#$AUX@_ToolInfo Properties
1070
           8
1000
Insert^JLine^JRectangle@Line Rectangle
1002
}
  0
LWPOLYLINE
  5
15F
102
{ACAD_REACTORS
330
1A0
102
}
100
AcDbEntity
  8
0
370
           0
  6
Continuous
 62
           7
100
AcDbPolyline
 90
        4
 70
           1
 10
0.39
 20
1.29
 10
0.41
 20
1.29
 10
0.41
 20
1.27
 10
0.39
 20
1.27
1001
TCAD
1000
TCW_CUSTOM_DATA
1002
{
1000
#$AUX@_ToolInfo Properties
1070
           8
1000
Insert^JLine^JRectangle@Line Rectangle
1002
}
  0
LWPOLYLINE
  5
160
102
{ACAD_REACTORS
330
1A0
102
}
100
AcDbEntity
  8
0
370
           0
  6
Continuous
 62
           7
100
AcDbPolyline
 90
        4
 70
           1
 10
0.39
 20
1.33
 10
0.39
 20
1.33
 10
0.39
 20
1.33
 10
0.39
 20
1.33
1001
TCAD
1000
TCW_CUSTOM_DATA
1002
{
1000
#$AUX@_ToolInfo Properties
1070
           8
1000
Insert^JLine^JRectangle@Line Rectangle
1002
}
  0
LWPOLYLINE
  5
161
102
{ACAD_REACTORS
330
1A0
102
}
100
AcDbEntity
  8
0
370
           0
  6
Continuous
 62
           7
100
AcDbPolyline
 90
        4
 70
           1
 10
0.39
 20
1.33
 10
0.41
 20
1.33
 10
0.41
 20
1.31
 10
0.39
 20
1.31
1001
TCAD
1000
TCW_CUSTOM_DATA
1002
{
1000
#$AUX@_ToolInfo Properties
1070
           8
1000
Insert^JLine^JRectangle@Line Rectangle
1002
}
  0
LWPOLYLINE
  5
162
102
{ACAD_REACTORS
330
1A0
102
}
100
AcDbEntity
  8
0
370
           0
  6
Continuous
 62
           7
100
AcDbPolyline
 90
        4
 70
           1
 10
0.39
 20
1.37
 10
0.41
 20
1.37
 10
0.41
 20
1.35
 10
0.39
 20
1.35
1001
TCAD
1000
TCW_CUSTOM_DATA
1002
{
1000
#$AUX@_ToolInfo Properties
1070
           8
1000
Insert^JLine^JRectangle@Line Rectangle
1002
}
  0
LWPOLYLINE
  5
163
102
{ACAD_REACTORS
330
1A0
102
}
100
AcDbEntity
  8
0
370
           0
  6
Continuous
 62
           7
100
AcDbPolyline
 90
        4
 70
           1
 10
0.39
 20
1.41
 10
0.41
 20
1.41
 10
0.41
 20
1.39
 10
0.39
 20
1.39
1001
TCAD
1000
TCW_CUSTOM_DATA
1002
{
1000
#$AUX@_ToolInfo Properties
1070
           8
1000
Insert^JLine^JRectangle@Line Rectangle
1002
}
  0
LWPOLYLINE
  5
164
102
{ACAD_REACTORS
330
1A0
102
}
100
AcDbEntity
  8
0
370
           0
  6
Continuous
 62
           7
100
AcDbPolyline
 90
        4
 70
           1
 10
0.39
 20
1.45
 10
0.41
 20
1.45
 10
0.41
 20
1.43
 10
0.39
 20
1.43
1001
TCAD
1000
TCW_CUSTOM_DATA
1002
{
1000
#$AUX@_ToolInfo Properties
1070
           8
1000
Insert^JLine^JRectangle@Line Rectangle
1002
}
  0
LWPOLYLINE
  5
165
102
{ACAD_REACTORS
330
1A0
102
}
100
AcDbEntity
  8
0
370
           0
  6
Continuous
 62
           7
100
AcDbPolyline
 90
        4
 70
           1
 10
0.43
 20
1.45
 10
0.45
 20
1.45
 10
0.45
 20
1.43
 10
0.43
 20
1.43
1001
TCAD
1000
TCW_CUSTOM_DATA
1002
{
1000
#$AUX@_ToolInfo Properties
1070
           8
1000
Insert^JLine^JRectangle@Line Rectangle
1002
}
  0
LWPOLYLINE
  5
166
102
{ACAD_REACTORS
330
1A0
102
}
100
AcDbEntity
  8
0
370
           0
  6
Continuous
 62
           7
100
AcDbPolyline
 90
        4
 70
           1
 10
0.43
 20
1.41
 10
0.45
 20
1.41
 10
0.45
 20
1.39
 10
0.43
 20
1.39
1001
TCAD
1000
TCW_CUSTOM_DATA
1002
{
1000
#$AUX@_ToolInfo Properties
1070
           8
1000
Insert^JLine^JRectangle@Line Rectangle
1002
}
  0
LWPOLYLINE
  5
167
102
{ACAD_REACTORS
330
1A0
102
}
100
AcDbEntity
  8
0
370
           0
  6
Continuous
 62
           7
100
AcDbPolyline
 90
        4
 70
           1
 10
0.43
 20
1.37
 10
0.45
 20
1.37
 10
0.45
 20
1.35
 10
0.43
 20
1.35
1001
TCAD
1000
TCW_CUSTOM_DATA
1002
{
1000
#$AUX@_ToolInfo Properties
1070
           8
1000
Insert^JLine^JRectangle@Line Rectangle
1002
}
  0
LWPOLYLINE
  5
168
102
{ACAD_REACTORS
330
1A0
102
}
100
AcDbEntity
  8
0
370
           0
  6
Continuous
 62
           7
100
AcDbPolyline
 90
        4
 70
           1
 10
0.43
 20
1.33
 10
0.45
 20
1.33
 10
0.45
 20
1.31
 10
0.43
 20
1.31
1001
TCAD
1000
TCW_CUSTOM_DATA
1002
{
1000
#$AUX@_ToolInfo Properties
1070
           8
1000
Insert^JLine^JRectangle@Line Rectangle
1002
}
  0
LWPOLYLINE
  5
169
102
{ACAD_REACTORS
330
1A0
102
}
100
AcDbEntity
  8
0
370
           0
  6
Continuous
 62
           7
100
AcDbPolyline
 90
        4
 70
           1
 10
0.43
 20
1.29
 10
0.45
 20
1.29
 10
0.45
 20
1.27
 10
0.43
 20
1.27
1001
TCAD
1000
TCW_CUSTOM_DATA
1002
{
1000
#$AUX@_ToolInfo Properties
1070
           8
1000
Insert^JLine^JRectangle@Line Rectangle
1002
}
  0
LWPOLYLINE
  5
16A
102
{ACAD_REACTORS
330
1A0
102
}
100
AcDbEntity
  8
0
370
           0
  6
Continuous
 62
           7
100
AcDbPolyline
 90
        4
 70
           1
 10
0.43
 20
1.25
 10
0.45
 20
1.25
 10
0.45
 20
1.23
 10
0.43
 20
1.23
1001
TCAD
1000
TCW_CUSTOM_DATA
1002
{
1000
#$AUX@_ToolInfo Properties
1070
           8
1000
Insert^JLine^JRectangle@Line Rectangle
1002
}
  0
LWPOLYLINE
  5
16B
102
{ACAD_REACTORS
330
1A0
102
}
100
AcDbEntity
  8
0
370
           0
  6
Continuous
 62
           7
100
AcDbPolyline
 90
        4
 70
           1
 10
0.43
 20
1.21
 10
0.45
 20
1.21
 10
0.45
 20
1.19
 10
0.43
 20
1.19
1001
TCAD
1000
TCW_CUSTOM_DATA
1002
{
1000
#$AUX@_ToolInfo Properties
1070
           8
1000
Insert^JLine^JRectangle@Line Rectangle
1002
}
  0
LWPOLYLINE
  5
16C
102
{ACAD_REACTORS
330
1A0
102
}
100
AcDbEntity
  8
0
370
           0
  6
Continuous
 62
           7
100
AcDbPolyline
 90
        4
 70
           1
 10
0.47
 20
1.21
 10
0.49
 20
1.21
 10
0.49
 20
1.19
 10
0.47
 20
1.19
1001
TCAD
1000
TCW_CUSTOM_DATA
1002
{
1000
#$AUX@_ToolInfo Properties
1070
           8
1000
Insert^JLine^JRectangle@Line Rectangle
1002
}
  0
LWPOLYLINE
  5
16D
102
{ACAD_REACTORS
330
1A0
102
}
100
AcDbEntity
  8
0
370
           0
  6
Continuous
 62
           7
100
AcDbPolyline
 90
        4
 70
           1
 10
0.47
 20
1.25
 10
0.49
 20
1.25
 10
0.49
 20
1.23
 10
0.47
 20
1.23
1001
TCAD
1000
TCW_CUSTOM_DATA
1002
{
1000
#$AUX@_ToolInfo Properties
1070
           8
1000
Insert^JLine^JRectangle@Line Rectangle
1002
}
  0
LWPOLYLINE
  5
16E
102
{ACAD_REACTORS
330
1A0
102
}
100
AcDbEntity
  8
0
370
           0
  6
Continuous
 62
           7
100
AcDbPolyline
 90
        4
 70
           1
 10
0.47
 20
1.29
 10
0.49
 20
1.29
 10
0.49
 20
1.27
 10
0.47
 20
1.27
1001
TCAD
1000
TCW_CUSTOM_DATA
1002
{
1000
#$AUX@_ToolInfo Properties
1070
           8
1000
Insert^JLine^JRectangle@Line Rectangle
1002
}
  0
LWPOLYLINE
  5
16F
102
{ACAD_REACTORS
330
1A0
102
}
100
AcDbEntity
  8
0
370
           0
  6
Continuous
 62
           7
100
AcDbPolyline
 90
        4
 70
           1
 10
0.47
 20
1.33
 10
0.49
 20
1.33
 10
0.49
 20
1.31
 10
0.47
 20
1.31
1001
TCAD
1000
TCW_CUSTOM_DATA
1002
{
1000
#$AUX@_ToolInfo Properties
1070
           8
1000
Insert^JLine^JRectangle@Line Rectangle
1002
}
  0
LWPOLYLINE
  5
170
102
{ACAD_REACTORS
330
1A0
102
}
100
AcDbEntity
  8
0
370
           0
  6
Continuous
 62
           7
100
AcDbPolyline
 90
        4
 70
           1
 10
0.47
 20
1.37
 10
0.49
 20
1.37
 10
0.49
 20
1.35
 10
0.47
 20
1.35
1001
TCAD
1000
TCW_CUSTOM_DATA
1002
{
1000
#$AUX@_ToolInfo Properties
1070
           8
1000
Insert^JLine^JRectangle@Line Rectangle
1002
}
  0
LWPOLYLINE
  5
171
102
{ACAD_REACTORS
330
1A0
102
}
100
AcDbEntity
  8
0
370
           0
  6
Continuous
 62
           7
100
AcDbPolyline
 90
        4
 70
           1
 10
0.47
 20
1.41
 10
0.49
 20
1.41
 10
0.49
 20
1.39
 10
0.47
 20
1.39
1001
TCAD
1000
TCW_CUSTOM_DATA
1002
{
1000
#$AUX@_ToolInfo Properties
1070
           8
1000
Insert^JLine^JRectangle@Line Rectangle
1002
}
  0
LWPOLYLINE
  5
172
102
{ACAD_REACTORS
330
1A0
102
}
100
AcDbEntity
  8
0
370
           0
  6
Continuous
 62
           7
100
AcDbPolyline
 90
        4
 70
           1
 10
0.47
 20
1.45
 10
0.49
 20
1.45
 10
0.49
 20
1.43
 10
0.47
 20
1.43
1001
TCAD
1000
TCW_CUSTOM_DATA
1002
{
1000
#$AUX@_ToolInfo Properties
1070
           8
1000
Insert^JLine^JRectangle@Line Rectangle
1002
}
  0
LWPOLYLINE
  5
173
102
{ACAD_REACTORS
330
1A0
102
}
100
AcDbEntity
  8
0
370
           0
  6
Continuous
 62
           7
100
AcDbPolyline
 90
        4
 70
           1
 10
0.51
 20
1.45
 10
0.53
 20
1.45
 10
0.53
 20
1.43
 10
0.51
 20
1.43
1001
TCAD
1000
TCW_CUSTOM_DATA
1002
{
1000
#$AUX@_ToolInfo Properties
1070
           8
1000
Insert^JLine^JRectangle@Line Rectangle
1002
}
  0
LWPOLYLINE
  5
174
102
{ACAD_REACTORS
330
1A0
102
}
100
AcDbEntity
  8
0
370
           0
  6
Continuous
 62
           7
100
AcDbPolyline
 90
        4
 70
           1
 10
0.55
 20
1.45
 10
0.57
 20
1.45
 10
0.57
 20
1.43
 10
0.55
 20
1.43
1001
TCAD
1000
TCW_CUSTOM_DATA
1002
{
1000
#$AUX@_ToolInfo Properties
1070
           8
1000
Insert^JLine^JRectangle@Line Rectangle
1002
}
  0
LWPOLYLINE
  5
175
102
{ACAD_REACTORS
330
1A0
102
}
100
AcDbEntity
  8
0
370
           0
  6
Continuous
 62
           7
100
AcDbPolyline
 90
        4
 70
           1
 10
0.51
 20
1.41
 10
0.53
 20
1.41
 10
0.53
 20
1.39
 10
0.51
 20
1.39
1001
TCAD
1000
TCW_CUSTOM_DATA
1002
{
1000
#$AUX@_ToolInfo Properties
1070
           8
1000
Insert^JLine^JRectangle@Line Rectangle
1002
}
  0
LWPOLYLINE
  5
176
102
{ACAD_REACTORS
330
1A0
102
}
100
AcDbEntity
  8
0
370
           0
  6
Continuous
 62
           7
100
AcDbPolyline
 90
        4
 70
           1
 10
0.55
 20
1.41
 10
0.57
 20
1.41
 10
0.57
 20
1.39
 10
0.55
 20
1.39
1001
TCAD
1000
TCW_CUSTOM_DATA
1002
{
1000
#$AUX@_ToolInfo Properties
1070
           8
1000
Insert^JLine^JRectangle@Line Rectangle
1002
}
  0
LWPOLYLINE
  5
177
102
{ACAD_REACTORS
330
1A0
102
}
100
AcDbEntity
  8
0
370
           0
  6
Continuous
 62
           7
100
AcDbPolyline
 90
        4
 70
           1
 10
0.51
 20
1.37
 10
0.53
 20
1.37
 10
0.53
 20
1.35
 10
0.51
 20
1.35
1001
TCAD
1000
TCW_CUSTOM_DATA
1002
{
1000
#$AUX@_ToolInfo Properties
1070
           8
1000
Insert^JLine^JRectangle@Line Rectangle
1002
}
  0
LWPOLYLINE
  5
178
102
{ACAD_REACTORS
330
1A0
102
}
100
AcDbEntity
  8
0
370
           0
  6
Continuous
 62
           7
100
AcDbPolyline
 90
        4
 70
           1
 10
0.55
 20
1.37
 10
0.57
 20
1.37
 10
0.57
 20
1.35
 10
0.55
 20
1.35
1001
TCAD
1000
TCW_CUSTOM_DATA
1002
{
1000
#$AUX@_ToolInfo Properties
1070
           8
1000
Insert^JLine^JRectangle@Line Rectangle
1002
}
  0
LWPOLYLINE
  5
179
102
{ACAD_REACTORS
330
1A0
102
}
100
AcDbEntity
  8
0
370
           0
  6
Continuous
 62
           7
100
AcDbPolyline
 90
        4
 70
           1
 10
0.51
 20
1.33
 10
0.53
 20
1.33
 10
0.53
 20
1.31
 10
0.51
 20
1.31
1001
TCAD
1000
TCW_CUSTOM_DATA
1002
{
1000
#$AUX@_ToolInfo Properties
1070
           8
1000
Insert^JLine^JRectangle@Line Rectangle
1002
}
  0
LWPOLYLINE
  5
17A
102
{ACAD_REACTORS
330
1A0
102
}
100
AcDbEntity
  8
0
370
           0
  6
Continuous
 62
           7
100
AcDbPolyline
 90
        4
 70
           1
 10
0.55
 20
1.33
 10
0.57
 20
1.33
 10
0.57
 20
1.31
 10
0.55
 20
1.31
1001
TCAD
1000
TCW_CUSTOM_DATA
1002
{
1000
#$AUX@_ToolInfo Properties
1070
           8
1000
Insert^JLine^JRectangle@Line Rectangle
1002
}
  0
LWPOLYLINE
  5
17B
102
{ACAD_REACTORS
330
1A0
102
}
100
AcDbEntity
  8
0
370
           0
  6
Continuous
 62
           7
100
AcDbPolyline
 90
        4
 70
           1
 10
0.51
 20
1.29
 10
0.53
 20
1.29
 10
0.53
 20
1.27
 10
0.51
 20
1.27
1001
TCAD
1000
TCW_CUSTOM_DATA
1002
{
1000
#$AUX@_ToolInfo Properties
1070
           8
1000
Insert^JLine^JRectangle@Line Rectangle
1002
}
  0
LWPOLYLINE
  5
17C
102
{ACAD_REACTORS
330
1A0
102
}
100
AcDbEntity
  8
0
370
           0
  6
Continuous
 62
           7
100
AcDbPolyline
 90
        4
 70
           1
 10
0.51
 20
1.25
 10
0.53
 20
1.25
 10
0.53
 20
1.23
 10
0.51
 20
1.23
1001
TCAD
1000
TCW_CUSTOM_DATA
1002
{
1000
#$AUX@_ToolInfo Properties
1070
           8
1000
Insert^JLine^JRectangle@Line Rectangle
1002
}
  0
LWPOLYLINE
  5
17D
102
{ACAD_REACTORS
330
1A0
102
}
100
AcDbEntity
  8
0
370
           0
  6
Continuous
 62
           7
100
AcDbPolyline
 90
        4
 70
           1
 10
0.51
 20
1.21
 10
0.53
 20
1.21
 10
0.53
 20
1.19
 10
0.51
 20
1.19
1001
TCAD
1000
TCW_CUSTOM_DATA
1002
{
1000
#$AUX@_ToolInfo Properties
1070
           8
1000
Insert^JLine^JRectangle@Line Rectangle
1002
}
  0
LWPOLYLINE
  5
17E
102
{ACAD_REACTORS
330
1A0
102
}
100
AcDbEntity
  8
0
370
           0
  6
Continuous
 62
           7
100
AcDbPolyline
 90
        4
 70
           1
 10
0.55
 20
1.21
 10
0.57
 20
1.21
 10
0.57
 20
1.19
 10
0.55
 20
1.19
1001
TCAD
1000
TCW_CUSTOM_DATA
1002
{
1000
#$AUX@_ToolInfo Properties
1070
           8
1000
Insert^JLine^JRectangle@Line Rectangle
1002
}
  0
LWPOLYLINE
  5
17F
102
{ACAD_REACTORS
330
1A0
102
}
100
AcDbEntity
  8
0
370
           0
  6
Continuous
 62
           7
100
AcDbPolyline
 90
        4
 70
           1
 10
0.59
 20
1.21
 10
0.61
 20
1.21
 10
0.61
 20
1.19
 10
0.59
 20
1.19
1001
TCAD
1000
TCW_CUSTOM_DATA
1002
{
1000
#$AUX@_ToolInfo Properties
1070
           8
1000
Insert^JLine^JRectangle@Line Rectangle
1002
}
  0
LWPOLYLINE
  5
180
102
{ACAD_REACTORS
330
1A0
102
}
100
AcDbEntity
  8
0
370
           0
  6
Continuous
 62
           7
100
AcDbPolyline
 90
        4
 70
           1
 10
0.63
 20
1.21
 10
0.65
 20
1.21
 10
0.65
 20
1.19
 10
0.63
 20
1.19
1001
TCAD
1000
TCW_CUSTOM_DATA
1002
{
1000
#$AUX@_ToolInfo Properties
1070
           8
1000
Insert^JLine^JRectangle@Line Rectangle
1002
}
  0
LWPOLYLINE
  5
181
102
{ACAD_REACTORS
330
1A0
102
}
100
AcDbEntity
  8
0
370
           0
  6
Continuous
 62
           7
100
AcDbPolyline
 90
        4
 70
           1
 10
0.63
 20
1.25
 10
0.65
 20
1.25
 10
0.65
 20
1.23
 10
0.63
 20
1.23
1001
TCAD
1000
TCW_CUSTOM_DATA
1002
{
1000
#$AUX@_ToolInfo Properties
1070
           8
1000
Insert^JLine^JRectangle@Line Rectangle
1002
}
  0
LWPOLYLINE
  5
182
102
{ACAD_REACTORS
330
1A0
102
}
100
AcDbEntity
  8
0
370
           0
  6
Continuous
 62
           7
100
AcDbPolyline
 90
        4
 70
           1
 10
0.59
 20
1.25
 10
0.61
 20
1.25
 10
0.61
 20
1.23
 10
0.59
 20
1.23
1001
TCAD
1000
TCW_CUSTOM_DATA
1002
{
1000
#$AUX@_ToolInfo Properties
1070
           8
1000
Insert^JLine^JRectangle@Line Rectangle
1002
}
  0
LWPOLYLINE
  5
183
102
{ACAD_REACTORS
330
1A0
102
}
100
AcDbEntity
  8
0
370
           0
  6
Continuous
 62
           7
100
AcDbPolyline
 90
        4
 70
           1
 10
0.55
 20
1.25
 10
0.57
 20
1.25
 10
0.57
 20
1.23
 10
0.55
 20
1.23
1001
TCAD
1000
TCW_CUSTOM_DATA
1002
{
1000
#$AUX@_ToolInfo Properties
1070
           8
1000
Insert^JLine^JRectangle@Line Rectangle
1002
}
  0
LWPOLYLINE
  5
184
102
{ACAD_REACTORS
330
1A0
102
}
100
AcDbEntity
  8
0
370
           0
  6
Continuous
 62
           7
100
AcDbPolyline
 90
        4
 70
           1
 10
0.55
 20
1.29
 10
0.57
 20
1.29
 10
0.57
 20
1.27
 10
0.55
 20
1.27
1001
TCAD
1000
TCW_CUSTOM_DATA
1002
{
1000
#$AUX@_ToolInfo Properties
1070
           8
1000
Insert^JLine^JRectangle@Line Rectangle
1002
}
  0
LWPOLYLINE
  5
185
102
{ACAD_REACTORS
330
1A0
102
}
100
AcDbEntity
  8
0
370
           0
  6
Continuous
 62
           7
100
AcDbPolyline
 90
        4
 70
           1
 10
0.59
 20
1.29
 10
0.61
 20
1.29
 10
0.61
 20
1.27
 10
0.59
 20
1.27
1001
TCAD
1000
TCW_CUSTOM_DATA
1002
{
1000
#$AUX@_ToolInfo Properties
1070
           8
1000
Insert^JLine^JRectangle@Line Rectangle
1002
}
  0
LWPOLYLINE
  5
186
102
{ACAD_REACTORS
330
1A0
102
}
100
AcDbEntity
  8
0
370
           0
  6
Continuous
 62
           7
100
AcDbPolyline
 90
        4
 70
           1
 10
0.63
 20
1.29
 10
0.65
 20
1.29
 10
0.65
 20
1.27
 10
0.63
 20
1.27
1001
TCAD
1000
TCW_CUSTOM_DATA
1002
{
1000
#$AUX@_ToolInfo Properties
1070
           8
1000
Insert^JLine^JRectangle@Line Rectangle
1002
}
  0
LWPOLYLINE
  5
187
102
{ACAD_REACTORS
330
1A0
102
}
100
AcDbEntity
  8
0
370
           0
  6
Continuous
 62
           7
100
AcDbPolyline
 90
        4
 70
           1
 10
0.67
 20
1.29
 10
0.69
 20
1.29
 10
0.69
 20
1.27
 10
0.67
 20
1.27
1001
TCAD
1000
TCW_CUSTOM_DATA
1002
{
1000
#$AUX@_ToolInfo Properties
1070
           8
1000
Insert^JLine^JRectangle@Line Rectangle
1002
}
  0
LWPOLYLINE
  5
188
102
{ACAD_REACTORS
330
1A0
102
}
100
AcDbEntity
  8
0
370
           0
  6
Continuous
 62
           7
100
AcDbPolyline
 90
        4
 70
           1
 10
0.67
 20
1.25
 10
0.69
 20
1.25
 10
0.69
 20
1.23
 10
0.67
 20
1.23
1001
TCAD
1000
TCW_CUSTOM_DATA
1002
{
1000
#$AUX@_ToolInfo Properties
1070
           8
1000
Insert^JLine^JRectangle@Line Rectangle
1002
}
  0
LWPOLYLINE
  5
189
102
{ACAD_REACTORS
330
1A0
102
}
100
AcDbEntity
  8
0
370
           0
  6
Continuous
 62
           7
100
AcDbPolyline
 90
        4
 70
           1
 10
0.59
 20
1.33
 10
0.61
 20
1.33
 10
0.61
 20
1.31
 10
0.59
 20
1.31
1001
TCAD
1000
TCW_CUSTOM_DATA
1002
{
1000
#$AUX@_ToolInfo Properties
1070
           8
1000
Insert^JLine^JRectangle@Line Rectangle
1002
}
  0
LWPOLYLINE
  5
18A
102
{ACAD_REACTORS
330
1A0
102
}
100
AcDbEntity
  8
0
370
           0
  6
Continuous
 62
           7
100
AcDbPolyline
 90
        4
 70
           1
 10
0.59
 20
1.37
 10
0.61
 20
1.37
 10
0.61
 20
1.35
 10
0.59
 20
1.35
1001
TCAD
1000
TCW_CUSTOM_DATA
1002
{
1000
#$AUX@_ToolInfo Properties
1070
           8
1000
Insert^JLine^JRectangle@Line Rectangle
1002
}
  0
LWPOLYLINE
  5
18B
102
{ACAD_REACTORS
330
1A0
102
}
100
AcDbEntity
  8
0
370
           0
  6
Continuous
 62
           7
100
AcDbPolyline
 90
        4
 70
           1
 10
0.59
 20
1.41
 10
0.61
 20
1.41
 10
0.61
 20
1.39
 10
0.59
 20
1.39
1001
TCAD
1000
TCW_CUSTOM_DATA
1002
{
1000
#$AUX@_ToolInfo Properties
1070
           8
1000
Insert^JLine^JRectangle@Line Rectangle
1002
}
  0
LWPOLYLINE
  5
18C
102
{ACAD_REACTORS
330
1A0
102
}
100
AcDbEntity
  8
0
370
           0
  6
Continuous
 62
           7
100
AcDbPolyline
 90
        4
 70
           1
 10
0.59
 20
1.45
 10
0.61
 20
1.45
 10
0.61
 20
1.43
 10
0.59
 20
1.43
1001
TCAD
1000
TCW_CUSTOM_DATA
1002
{
1000
#$AUX@_ToolInfo Properties
1070
           8
1000
Insert^JLine^JRectangle@Line Rectangle
1002
}
  0
LWPOLYLINE
  5
18D
102
{ACAD_REACTORS
330
1A0
102
}
100
AcDbEntity
  8
0
370
           0
  6
Continuous
 62
           7
100
AcDbPolyline
 90
        4
 70
           1
 10
0.63
 20
1.45
 10
0.65
 20
1.45
 10
0.65
 20
1.43
 10
0.63
 20
1.43
1001
TCAD
1000
TCW_CUSTOM_DATA
1002
{
1000
#$AUX@_ToolInfo Properties
1070
           8
1000
Insert^JLine^JRectangle@Line Rectangle
1002
}
  0
LWPOLYLINE
  5
18E
102
{ACAD_REACTORS
330
1A0
102
}
100
AcDbEntity
  8
0
370
           0
  6
Continuous
 62
           7
100
AcDbPolyline
 90
        4
 70
           1
 10
0.63
 20
1.41
 10
0.65
 20
1.41
 10
0.65
 20
1.39
 10
0.63
 20
1.39
1001
TCAD
1000
TCW_CUSTOM_DATA
1002
{
1000
#$AUX@_ToolInfo Properties
1070
           8
1000
Insert^JLine^JRectangle@Line Rectangle
1002
}
  0
LWPOLYLINE
  5
18F
102
{ACAD_REACTORS
330
1A0
102
}
100
AcDbEntity
  8
0
370
           0
  6
Continuous
 62
           7
100
AcDbPolyline
 90
        4
 70
           1
 10
0.63
 20
1.37
 10
0.65
 20
1.37
 10
0.65
 20
1.35
 10
0.63
 20
1.35
1001
TCAD
1000
TCW_CUSTOM_DATA
1002
{
1000
#$AUX@_ToolInfo Properties
1070
           8
1000
Insert^JLine^JRectangle@Line Rectangle
1002
}
  0
LWPOLYLINE
  5
190
102
{ACAD_REACTORS
330
1A0
102
}
100
AcDbEntity
  8
0
370
           0
  6
Continuous
 62
           7
100
AcDbPolyline
 90
        4
 70
           1
 10
0.63
 20
1.33
 10
0.65
 20
1.33
 10
0.65
 20
1.31
 10
0.63
 20
1.31
1001
TCAD
1000
TCW_CUSTOM_DATA
1002
{
1000
#$AUX@_ToolInfo Properties
1070
           8
1000
Insert^JLine^JRectangle@Line Rectangle
1002
}
  0
LWPOLYLINE
  5
191
102
{ACAD_REACTORS
330
1A0
102
}
100
AcDbEntity
  8
0
370
           0
  6
Continuous
 62
           7
100
AcDbPolyline
 90
        4
 70
           1
 10
0.67
 20
1.33
 10
0.69
 20
1.33
 10
0.69
 20
1.31
 10
0.67
 20
1.31
1001
TCAD
1000
TCW_CUSTOM_DATA
1002
{
1000
#$AUX@_ToolInfo Properties
1070
           8
1000
Insert^JLine^JRectangle@Line Rectangle
1002
}
  0
LWPOLYLINE
  5
192
102
{ACAD_REACTORS
330
1A0
102
}
100
AcDbEntity
  8
0
370
           0
  6
Continuous
 62
           7
100
AcDbPolyline
 90
        4
 70
           1
 10
0.67
 20
1.37
 10
0.69
 20
1.37
 10
0.69
 20
1.35
 10
0.67
 20
1.35
1001
TCAD
1000
TCW_CUSTOM_DATA
1002
{
1000
#$AUX@_ToolInfo Properties
1070
           8
1000
Insert^JLine^JRectangle@Line Rectangle
1002
}
  0
LWPOLYLINE
  5
193
102
{ACAD_REACTORS
330
1A0
102
}
100
AcDbEntity
  8
0
370
           0
  6
Continuous
 62
           7
100
AcDbPolyline
 90
        4
 70
           1
 10
0.67
 20
1.41
 10
0.69
 20
1.41
 10
0.69
 20
1.39
 10
0.67
 20
1.39
1001
TCAD
1000
TCW_CUSTOM_DATA
1002
{
1000
#$AUX@_ToolInfo Properties
1070
           8
1000
Insert^JLine^JRectangle@Line Rectangle
1002
}
  0
LWPOLYLINE
  5
194
102
{ACAD_REACTORS
330
1A0
102
}
100
AcDbEntity
  8
0
370
           0
  6
Continuous
 62
           7
100
AcDbPolyline
 90
        4
 70
           1
 10
0.67
 20
1.45
 10
0.69
 20
1.45
 10
0.69
 20
1.43
 10
0.67
 20
1.43
1001
TCAD
1000
TCW_CUSTOM_DATA
1002
{
1000
#$AUX@_ToolInfo Properties
1070
           8
1000
Insert^JLine^JRectangle@Line Rectangle
1002
}
  0
LWPOLYLINE
  5
195
102
{ACAD_REACTORS
330
1A0
102
}
100
AcDbEntity
  8
0
370
           0
  6
Continuous
 62
           7
100
AcDbPolyline
 90
        6
 70
           0
 10
0.67
 20
1.21
 10
0.69
 20
1.21
 10
0.69
 20
1.195115057223
 10
0.687046820336
 20
1.19
 10
0.67
 20
1.19
 10
0.67
 20
1.21
1001
TCAD
1000
TCW_CUSTOM_DATA
1002
{
1000
#$AUX@_ToolInfo Properties
1070
           8
1000
Insert^JLine^JPolyline@Line Polyline
1002
}
  0
LWPOLYLINE
  5
196
102
{ACAD_REACTORS
330
1A0
102
}
100
AcDbEntity
  8
0
370
           0
  6
Continuous
 62
           7
100
AcDbPolyline
 90
        4
 70
           0
 10
0.67
 20
1.17
 10
0.675499814952
 20
1.17
 10
0.67
 20
1.160474041071
 10
0.67
 20
1.17
1001
TCAD
1000
TCW_CUSTOM_DATA
1002
{
1000
#$AUX@_ToolInfo Properties
1070
           8
1000
Insert^JLine^JPolyline@Line Polyline
1002
}
  0
LWPOLYLINE
  5
197
102
{ACAD_REACTORS
330
1A0
102
}
100
AcDbEntity
  8
0
370
           0
  6
Continuous
 62
           7
100
AcDbPolyline
 90
        6
 70
           0
 10
0.63
 20
1.13
 10
0.65
 20
1.13
 10
0.65
 20
1.12583302492
 10
0.6408587988
 20
1.11
 10
0.63
 20
1.11
 10
0.63
 20
1.13
1001
TCAD
1000
TCW_CUSTOM_DATA
1002
{
1000
#$AUX@_ToolInfo Properties
1070
           8
1000
Insert^JLine^JPolyline@Line Polyline
1002
}
  0
LWPOLYLINE
  5
198
102
{ACAD_REACTORS
330
1A0
102
}
100
AcDbEntity
  8
0
370
           0
  6
Continuous
 62
           7
100
AcDbPolyline
 90
        5
 70
           0
 10
0.606217782649
 20
1.05
 10
0.59
 20
1.05
 10
0.59
 20
1.03
 10
0.594670777265
 20
1.03
 10
0.606217782649
 20
1.05
1001
TCAD
1000
TCW_CUSTOM_DATA
1002
{
1000
#$AUX@_ToolInfo Properties
1070
           8
1000
Insert^JLine^JPolyline@Line Polyline
1002
}
  0
LWPOLYLINE
  5
199
102
{ACAD_REACTORS
330
1A0
102
}
100
AcDbEntity
  8
0
370
           0
  6
Continuous
 62
           7
100
AcDbPolyline
 90
        5
 70
           0
 10
0.55
 20
1.045225913379
 10
0.57
 20
1.034455030439
 10
0.57
 20
1.05
 10
0.55
 20
1.05
 10
0.55
 20
1.045225913379
1001
TCAD
1000
TCW_CUSTOM_DATA
1002
{
1000
#$AUX@_ToolInfo Properties
1070
           8
1000
Insert^JLine^JPolyline@Line Polyline
1002
}
  0
LWPOLYLINE
  5
19A
102
{ACAD_REACTORS
330
1A0
102
}
100
AcDbEntity
  8
0
370
           0
  6
Continuous
 62
           7
100
AcDbPolyline
 90
        5
 70
           0
 10
0.47
 20
1.08355766344
 10
0.47
 20
1.09
 10
0.49
 20
1.09
 10
0.49
 20
1.07466143971
 10
0.47
 20
1.08355766344
1001
TCAD
1000
TCW_CUSTOM_DATA
1002
{
1000
#$AUX@_ToolInfo Properties
1070
           8
1000
Insert^JLine^JPolyline@Line Polyline
1002
}
  0
LWPOLYLINE
  5
19B
102
{ACAD_REACTORS
330
1A0
102
}
100
AcDbEntity
  8
0
370
           0
  6
Continuous
 62
           7
100
AcDbPolyline
 90
        6
 70
           0
 10
0.41
 20
1.11
 10
0.40360526508
 20
1.11
 10
0.39
 20
1.114852999278
 10
0.39
 20
1.13
 10
0.41
 20
1.13
 10
0.41
 20
1.11
1001
TCAD
1000
TCW_CUSTOM_DATA
1002
{
1000
#$AUX@_ToolInfo Properties
1070
           8
1000
Insert^JLine^JPolyline@Line Polyline
1002
}
  0
LWPOLYLINE
  5
19C
102
{ACAD_REACTORS
330
1A0
102
}
100
AcDbEntity
  8
0
370
           0
  6
Continuous
 62
           7
100
AcDbPolyline
 90
        5
 70
           0
 10
0.37
 20
1.13
 10
0.37
 20
1.12164932577
 10
0.35
 20
1.128050180621
 10
0.35
 20
1.13
 10
0.37
 20
1.13
1001
TCAD
1000
TCW_CUSTOM_DATA
1002
{
1000
#$AUX@_ToolInfo Properties
1070
           8
1000
Insert^JLine^JPolyline@Line Polyline
1002
}
  0
LWPOLYLINE
  5
19D
102
{ACAD_REACTORS
330
1A0
102
}
100
AcDbEntity
  8
0
370
           0
  6
Continuous
 62
           7
100
AcDbPolyline
 90
        5
 70
           0
 10
0.27
 20
1.15
 10
0.29
 20
1.15
 10
0.29
 20
1.17
 10
0.27
 20
1.17
 10
0.27
 20
1.15
1001
TCAD
1000
TCW_CUSTOM_DATA
1002
{
1000
#$AUX@_ToolInfo Properties
1070
           8
1000
Insert^JLine^JPolyline@Line Polyline
1002
}
  0
LWPOLYLINE
  5
19E
102
{ACAD_REACTORS
330
1A0
102
}
100
AcDbEntity
  8
0
370
           0
  6
Continuous
 62
           7
100
AcDbPolyline
 90
        5
 70
           0
 10
0.25
 20
1.154101642054
 10
0.23
 20
1.158489192871
 10
0.23
 20
1.17
 10
0.25
 20
1.17
 10
0.25
 20
1.154338429578
1001
TCAD
1000
TCW_CUSTOM_DATA
1002
{
1000
#$AUX@_ToolInfo Properties
1070
           8
1000
Insert^JLine^JPolyline@Line Polyline
1002
}
  0
LWPOLYLINE
  5
19F
102
{ACAD_REACTORS
330
1A0
102
}
100
AcDbEntity
  8
0
370
           0
  6
Continuous
 62
           7
100
AcDbPolyline
 90
        5
 70
           0
 10
0.21
 20
1.17
 10
0.21
 20
1.162281037443
 10
0.19
 20
1.165717465769
 10
0.19
 20
1.17
 10
0.21
 20
1.17
1001
TCAD
1000
TCW_CUSTOM_DATA
1002
{
1000
#$AUX@_ToolInfo Properties
1070
           8
1000
Insert^JLine^JPolyline@Line Polyline
1002
}
  0
LWPOLYLINE
  5
1A1
102
{ACAD_REACTORS
330
241
102
}
100
AcDbEntity
  8
0
370
           0
  6
Continuous
 62
           7
100
AcDbPolyline
 90
        4
 70
           1
 10
-0.35
 20
1.17
 10
-0.37
 20
1.17
 10
-0.37
 20
1.15
 10
-0.35
 20
1.15
1001
TCAD
1000
TCW_CUSTOM_DATA
1002
{
1000
#$AUX@_ToolInfo Properties
1070
           8
1000
Insert^JLine^JRectangle@Line Rectangle
1002
}
  0
LWPOLYLINE
  5
1A2
102
{ACAD_REACTORS
330
241
102
}
100
AcDbEntity
  8
0
370
           0
  6
Continuous
 62
           7
100
AcDbPolyline
 90
        4
 70
           1
 10
-0.31
 20
1.17
 10
-0.33
 20
1.17
 10
-0.33
 20
1.15
 10
-0.31
 20
1.15
1001
TCAD
1000
TCW_CUSTOM_DATA
1002
{
1000
#$AUX@_ToolInfo Properties
1070
           8
1000
Insert^JLine^JRectangle@Line Rectangle
1002
}
  0
LWPOLYLINE
  5
1A3
102
{ACAD_REACTORS
330
241
102
}
100
AcDbEntity
  8
0
370
           0
  6
Continuous
 62
           7
100
AcDbPolyline
 90
        4
 70
           1
 10
-0.39
 20
1.17
 10
-0.41
 20
1.17
 10
-0.41
 20
1.15
 10
-0.39
 20
1.15
1001
TCAD
1000
TCW_CUSTOM_DATA
1002
{
1000
#$AUX@_ToolInfo Properties
1070
           8
1000
Insert^JLine^JRectangle@Line Rectangle
1002
}
  0
LWPOLYLINE
  5
1A4
102
{ACAD_REACTORS
330
241
102
}
100
AcDbEntity
  8
0
370
           0
  6
Continuous
 62
           7
100
AcDbPolyline
 90
        4
 70
           1
 10
-0.43
 20
1.17
 10
-0.45
 20
1.17
 10
-0.45
 20
1.15
 10
-0.43
 20
1.15
1001
TCAD
1000
TCW_CUSTOM_DATA
1002
{
1000
#$AUX@_ToolInfo Properties
1070
           8
1000
Insert^JLine^JRectangle@Line Rectangle
1002
}
  0
LWPOLYLINE
  5
1A5
102
{ACAD_REACTORS
330
241
102
}
100
AcDbEntity
  8
0
370
           0
  6
Continuous
 62
           7
100
AcDbPolyline
 90
        4
 70
           1
 10
-0.43
 20
1.13
 10
-0.45
 20
1.13
 10
-0.45
 20
1.11
 10
-0.43
 20
1.11
1001
TCAD
1000
TCW_CUSTOM_DATA
1002
{
1000
#$AUX@_ToolInfo Properties
1070
           8
1000
Insert^JLine^JRectangle@Line Rectangle
1002
}
  0
LWPOLYLINE
  5
1A6
102
{ACAD_REACTORS
330
241
102
}
100
AcDbEntity
  8
0
370
           0
  6
Continuous
 62
           7
100
AcDbPolyline
 90
        4
 70
           1
 10
-0.47
 20
1.13
 10
-0.49
 20
1.13
 10
-0.49
 20
1.11
 10
-0.47
 20
1.11
1001
TCAD
1000
TCW_CUSTOM_DATA
1002
{
1000
#$AUX@_ToolInfo Properties
1070
           8
1000
Insert^JLine^JRectangle@Line Rectangle
1002
}
  0
LWPOLYLINE
  5
1A7
102
{ACAD_REACTORS
330
241
102
}
100
AcDbEntity
  8
0
370
           0
  6
Continuous
 62
           7
100
AcDbPolyline
 90
        4
 70
           1
 10
-0.51
 20
1.13
 10
-0.53
 20
1.13
 10
-0.53
 20
1.11
 10
-0.51
 20
1.11
1001
TCAD
1000
TCW_CUSTOM_DATA
1002
{
1000
#$AUX@_ToolInfo Properties
1070
           8
1000
Insert^JLine^JRectangle@Line Rectangle
1002
}
  0
LWPOLYLINE
  5
1A8
102
{ACAD_REACTORS
330
241
102
}
100
AcDbEntity
  8
0
370
           0
  6
Continuous
 62
           7
100
AcDbPolyline
 90
        4
 70
           1
 10
-0.55
 20
1.13
 10
-0.57
 20
1.13
 10
-0.57
 20
1.11
 10
-0.55
 20
1.11
1001
TCAD
1000
TCW_CUSTOM_DATA
1002
{
1000
#$AUX@_ToolInfo Properties
1070
           8
1000
Insert^JLine^JRectangle@Line Rectangle
1002
}
  0
LWPOLYLINE
  5
1A9
102
{ACAD_REACTORS
330
241
102
}
100
AcDbEntity
  8
0
370
           0
  6
Continuous
 62
           7
100
AcDbPolyline
 90
        4
 70
           1
 10
-0.59
 20
1.13
 10
-0.61
 20
1.13
 10
-0.61
 20
1.11
 10
-0.59
 20
1.11
1001
TCAD
1000
TCW_CUSTOM_DATA
1002
{
1000
#$AUX@_ToolInfo Properties
1070
           8
1000
Insert^JLine^JRectangle@Line Rectangle
1002
}
  0
LWPOLYLINE
  5
1AA
102
{ACAD_REACTORS
330
241
102
}
100
AcDbEntity
  8
0
370
           0
  6
Continuous
 62
           7
100
AcDbPolyline
 90
        4
 70
           1
 10
-0.51
 20
1.09
 10
-0.53
 20
1.09
 10
-0.53
 20
1.07
 10
-0.51
 20
1.07
1001
TCAD
1000
TCW_CUSTOM_DATA
1002
{
1000
#$AUX@_ToolInfo Properties
1070
           8
1000
Insert^JLine^JRectangle@Line Rectangle
1002
}
  0
LWPOLYLINE
  5
1AB
102
{ACAD_REACTORS
330
241
102
}
100
AcDbEntity
  8
0
370
           0
  6
Continuous
 62
           7
100
AcDbPolyline
 90
        4
 70
           1
 10
-0.55
 20
1.09
 10
-0.57
 20
1.09
 10
-0.57
 20
1.07
 10
-0.55
 20
1.07
1001
TCAD
1000
TCW_CUSTOM_DATA
1002
{
1000
#$AUX@_ToolInfo Properties
1070
           8
1000
Insert^JLine^JRectangle@Line Rectangle
1002
}
  0
LWPOLYLINE
  5
1AC
102
{ACAD_REACTORS
330
241
102
}
100
AcDbEntity
  8
0
370
           0
  6
Continuous
 62
           7
100
AcDbPolyline
 90
        4
 70
           1
 10
-0.59
 20
1.09
 10
-0.61
 20
1.09
 10
-0.61
 20
1.07
 10
-0.59
 20
1.07
1001
TCAD
1000
TCW_CUSTOM_DATA
1002
{
1000
#$AUX@_ToolInfo Properties
1070
           8
1000
Insert^JLine^JRectangle@Line Rectangle
1002
}
  0
LWPOLYLINE
  5
1AD
102
{ACAD_REACTORS
330
241
102
}
100
AcDbEntity
  8
0
370
           0
  6
Continuous
 62
           7
100
AcDbPolyline
 90
        4
 70
           1
 10
-0.47
 20
1.17
 10
-0.49
 20
1.17
 10
-0.49
 20
1.15
 10
-0.47
 20
1.15
1001
TCAD
1000
TCW_CUSTOM_DATA
1002
{
1000
#$AUX@_ToolInfo Properties
1070
           8
1000
Insert^JLine^JRectangle@Line Rectangle
1002
}
  0
LWPOLYLINE
  5
1AE
102
{ACAD_REACTORS
330
241
102
}
100
AcDbEntity
  8
0
370
           0
  6
Continuous
 62
           7
100
AcDbPolyline
 90
        4
 70
           1
 10
-0.51
 20
1.17
 10
-0.53
 20
1.17
 10
-0.53
 20
1.15
 10
-0.51
 20
1.15
1001
TCAD
1000
TCW_CUSTOM_DATA
1002
{
1000
#$AUX@_ToolInfo Properties
1070
           8
1000
Insert^JLine^JRectangle@Line Rectangle
1002
}
  0
LWPOLYLINE
  5
1AF
102
{ACAD_REACTORS
330
241
102
}
100
AcDbEntity
  8
0
370
           0
  6
Continuous
 62
           7
100
AcDbPolyline
 90
        4
 70
           1
 10
-0.55
 20
1.17
 10
-0.57
 20
1.17
 10
-0.57
 20
1.15
 10
-0.55
 20
1.15
1001
TCAD
1000
TCW_CUSTOM_DATA
1002
{
1000
#$AUX@_ToolInfo Properties
1070
           8
1000
Insert^JLine^JRectangle@Line Rectangle
1002
}
  0
LWPOLYLINE
  5
1B0
102
{ACAD_REACTORS
330
241
102
}
100
AcDbEntity
  8
0
370
           0
  6
Continuous
 62
           7
100
AcDbPolyline
 90
        4
 70
           1
 10
-0.59
 20
1.17
 10
-0.61
 20
1.17
 10
-0.61
 20
1.15
 10
-0.59
 20
1.15
1001
TCAD
1000
TCW_CUSTOM_DATA
1002
{
1000
#$AUX@_ToolInfo Properties
1070
           8
1000
Insert^JLine^JRectangle@Line Rectangle
1002
}
  0
LWPOLYLINE
  5
1B1
102
{ACAD_REACTORS
330
241
102
}
100
AcDbEntity
  8
0
370
           0
  6
Continuous
 62
           7
100
AcDbPolyline
 90
        4
 70
           1
 10
-0.63
 20
1.17
 10
-0.65
 20
1.17
 10
-0.65
 20
1.15
 10
-0.63
 20
1.15
1001
TCAD
1000
TCW_CUSTOM_DATA
1002
{
1000
#$AUX@_ToolInfo Properties
1070
           8
1000
Insert^JLine^JRectangle@Line Rectangle
1002
}
  0
LWPOLYLINE
  5
1B2
102
{ACAD_REACTORS
330
241
102
}
100
AcDbEntity
  8
0
370
           0
  6
Continuous
 62
           7
100
AcDbPolyline
 90
        4
 70
           1
 10
-0.71
 20
1.29
 10
-0.73
 20
1.29
 10
-0.73
 20
1.27
 10
-0.71
 20
1.27
1001
TCAD
1000
TCW_CUSTOM_DATA
1002
{
1000
#$AUX@_ToolInfo Properties
1070
           8
1000
Insert^JLine^JRectangle@Line Rectangle
1002
}
  0
LWPOLYLINE
  5
1B3
102
{ACAD_REACTORS
330
241
102
}
100
AcDbEntity
  8
0
370
           0
  6
Continuous
 62
           7
100
AcDbPolyline
 90
        4
 70
           1
 10
-0.71
 20
1.33
 10
-0.73
 20
1.33
 10
-0.73
 20
1.31
 10
-0.71
 20
1.31
1001
TCAD
1000
TCW_CUSTOM_DATA
1002
{
1000
#$AUX@_ToolInfo Properties
1070
           8
1000
Insert^JLine^JRectangle@Line Rectangle
1002
}
  0
LWPOLYLINE
  5
1B4
102
{ACAD_REACTORS
330
241
102
}
100
AcDbEntity
  8
0
370
           0
  6
Continuous
 62
           7
100
AcDbPolyline
 90
        4
 70
           1
 10
-0.71
 20
1.37
 10
-0.73
 20
1.37
 10
-0.73
 20
1.35
 10
-0.71
 20
1.35
1001
TCAD
1000
TCW_CUSTOM_DATA
1002
{
1000
#$AUX@_ToolInfo Properties
1070
           8
1000
Insert^JLine^JRectangle@Line Rectangle
1002
}
  0
LWPOLYLINE
  5
1B5
102
{ACAD_REACTORS
330
241
102
}
100
AcDbEntity
  8
0
370
           0
  6
Continuous
 62
           7
100
AcDbPolyline
 90
        4
 70
           1
 10
-0.71
 20
1.41
 10
-0.73
 20
1.41
 10
-0.73
 20
1.39
 10
-0.71
 20
1.39
1001
TCAD
1000
TCW_CUSTOM_DATA
1002
{
1000
#$AUX@_ToolInfo Properties
1070
           8
1000
Insert^JLine^JRectangle@Line Rectangle
1002
}
  0
LWPOLYLINE
  5
1B6
102
{ACAD_REACTORS
330
241
102
}
100
AcDbEntity
  8
0
370
           0
  6
Continuous
 62
           7
100
AcDbPolyline
 90
        4
 70
           1
 10
-0.71
 20
1.45
 10
-0.73
 20
1.45
 10
-0.73
 20
1.43
 10
-0.71
 20
1.43
1001
TCAD
1000
TCW_CUSTOM_DATA
1002
{
1000
#$AUX@_ToolInfo Properties
1070
           8
1000
Insert^JLine^JRectangle@Line Rectangle
1002
}
  0
LWPOLYLINE
  5
1B7
102
{ACAD_REACTORS
330
241
102
}
100
AcDbEntity
  8
0
370
           0
  6
Continuous
 62
           7
100
AcDbPolyline
 90
        4
 70
           1
 10
-0.75
 20
1.45
 10
-0.77
 20
1.45
 10
-0.77
 20
1.43
 10
-0.75
 20
1.43
1001
TCAD
1000
TCW_CUSTOM_DATA
1002
{
1000
#$AUX@_ToolInfo Properties
1070
           8
1000
Insert^JLine^JRectangle@Line Rectangle
1002
}
  0
LWPOLYLINE
  5
1B8
102
{ACAD_REACTORS
330
241
102
}
100
AcDbEntity
  8
0
370
           0
  6
Continuous
 62
           7
100
AcDbPolyline
 90
        4
 70
           1
 10
-0.79
 20
1.45
 10
-0.81
 20
1.45
 10
-0.81
 20
1.43
 10
-0.79
 20
1.43
1001
TCAD
1000
TCW_CUSTOM_DATA
1002
{
1000
#$AUX@_ToolInfo Properties
1070
           8
1000
Insert^JLine^JRectangle@Line Rectangle
1002
}
  0
LWPOLYLINE
  5
1B9
102
{ACAD_REACTORS
330
241
102
}
100
AcDbEntity
  8
0
370
           0
  6
Continuous
 62
           7
100
AcDbPolyline
 90
        4
 70
           1
 10
-0.75
 20
1.41
 10
-0.77
 20
1.41
 10
-0.77
 20
1.39
 10
-0.75
 20
1.39
1001
TCAD
1000
TCW_CUSTOM_DATA
1002
{
1000
#$AUX@_ToolInfo Properties
1070
           8
1000
Insert^JLine^JRectangle@Line Rectangle
1002
}
  0
LWPOLYLINE
  5
1BA
102
{ACAD_REACTORS
330
241
102
}
100
AcDbEntity
  8
0
370
           0
  6
Continuous
 62
           7
100
AcDbPolyline
 90
        4
 70
           1
 10
-0.75
 20
1.37
 10
-0.77
 20
1.37
 10
-0.77
 20
1.35
 10
-0.75
 20
1.35
1001
TCAD
1000
TCW_CUSTOM_DATA
1002
{
1000
#$AUX@_ToolInfo Properties
1070
           8
1000
Insert^JLine^JRectangle@Line Rectangle
1002
}
  0
LWPOLYLINE
  5
1BB
102
{ACAD_REACTORS
330
241
102
}
100
AcDbEntity
  8
0
370
           0
  6
Continuous
 62
           7
100
AcDbPolyline
 90
        4
 70
           0
 10
-0.837157890325
 20
1.45
 10
-0.83
 20
1.437602170282
 10
-0.83
 20
1.45
 10
-0.837157890325
 20
1.45
1001
TCAD
1000
TCW_CUSTOM_DATA
1002
{
1000
#$AUX@_ToolInfo Properties
1070
           8
1000
Insert^JLine^JPolyline@Line Polyline
1002
}
  0
LWPOLYLINE
  5
1BC
102
{ACAD_REACTORS
330
241
102
}
100
AcDbEntity
  8
0
370
           0
  6
Continuous
 62
           7
100
AcDbPolyline
 90
        6
 70
           0
 10
-0.79
 20
1.41
 10
-0.81
 20
1.41
 10
-0.81
 20
1.402961154131
 10
-0.802516874174
 20
1.39
 10
-0.79
 20
1.39
 10
-0.79
 20
1.41
1001
TCAD
1000
TCW_CUSTOM_DATA
1002
{
1000
#$AUX@_ToolInfo Properties
1070
           8
1000
Insert^JLine^JPolyline@Line Polyline
1002
}
  0
LWPOLYLINE
  5
1BD
102
{ACAD_REACTORS
330
241
102
}
100
AcDbEntity
  8
0
370
           0
  6
Continuous
 62
           7
100
AcDbPolyline
 90
        5
 70
           0
 10
-0.75
 20
1.33
 10
-0.767875858022
 20
1.33
 10
-0.756328852638
 20
1.31
 10
-0.75
 20
1.31
 10
-0.75
 20
1.33
1001
TCAD
1000
TCW_CUSTOM_DATA
1002
{
1000
#$AUX@_ToolInfo Properties
1070
           8
1000
Insert^JLine^JPolyline@Line Polyline
1002
}
  0
LWPOLYLINE
  5
1BE
102
{ACAD_REACTORS
330
241
102
}
100
AcDbEntity
  8
0
370
           0
  6
Continuous
 62
           7
100
AcDbPolyline
 90
        4
 70
           0
 10
-0.71
 20
1.25
 10
-0.721687836487
 20
1.25
 10
-0.710140831103
 20
1.23
 10
-0.71
 20
1.25
1001
TCAD
1000
TCW_CUSTOM_DATA
1002
{
1000
#$AUX@_ToolInfo Properties
1070
           8
1000
Insert^JLine^JPolyline@Line Polyline
1002
}
  0
LWPOLYLINE
  5
1BF
102
{ACAD_REACTORS
330
241
102
}
100
AcDbEntity
  8
0
370
           0
  6
Continuous
 62
           7
100
AcDbPolyline
 90
        4
 70
           1
 10
-0.03
 20
1.45
 10
-0.05
 20
1.45
 10
-0.05
 20
1.43
 10
-0.03
 20
1.43
1001
TCAD
1000
TCW_CUSTOM_DATA
1002
{
1000
#$AUX@_ToolInfo Properties
1070
           8
1000
Insert^JLine^JRectangle@Line Rectangle
1002
}
  0
LWPOLYLINE
  5
1C0
102
{ACAD_REACTORS
330
241
102
}
100
AcDbEntity
  8
0
370
           0
  6
Continuous
 62
           7
100
AcDbPolyline
 90
        4
 70
           1
 10
-0.03
 20
1.41
 10
-0.05
 20
1.41
 10
-0.05
 20
1.39
 10
-0.03
 20
1.39
1001
TCAD
1000
TCW_CUSTOM_DATA
1002
{
1000
#$AUX@_ToolInfo Properties
1070
           8
1000
Insert^JLine^JRectangle@Line Rectangle
1002
}
  0
LWPOLYLINE
  5
1C1
102
{ACAD_REACTORS
330
241
102
}
100
AcDbEntity
  8
0
370
           0
  6
Continuous
 62
           7
100
AcDbPolyline
 90
        4
 70
           1
 10
-0.03
 20
1.37
 10
-0.05
 20
1.37
 10
-0.05
 20
1.35
 10
-0.03
 20
1.35
1001
TCAD
1000
TCW_CUSTOM_DATA
1002
{
1000
#$AUX@_ToolInfo Properties
1070
           8
1000
Insert^JLine^JRectangle@Line Rectangle
1002
}
  0
LWPOLYLINE
  5
1C2
102
{ACAD_REACTORS
330
241
102
}
100
AcDbEntity
  8
0
370
           0
  6
Continuous
 62
           7
100
AcDbPolyline
 90
        4
 70
           1
 10
-0.03
 20
1.33
 10
-0.05
 20
1.33
 10
-0.05
 20
1.31
 10
-0.03
 20
1.31
1001
TCAD
1000
TCW_CUSTOM_DATA
1002
{
1000
#$AUX@_ToolInfo Properties
1070
           8
1000
Insert^JLine^JRectangle@Line Rectangle
1002
}
  0
LWPOLYLINE
  5
1C3
102
{ACAD_REACTORS
330
241
102
}
100
AcDbEntity
  8
0
370
           0
  6
Continuous
 62
           7
100
AcDbPolyline
 90
        4
 70
           1
 10
-0.03
 20
1.29
 10
-0.05
 20
1.29
 10
-0.05
 20
1.27
 10
-0.03
 20
1.27
1001
TCAD
1000
TCW_CUSTOM_DATA
1002
{
1000
#$AUX@_ToolInfo Properties
1070
           8
1000
Insert^JLine^JRectangle@Line Rectangle
1002
}
  0
LWPOLYLINE
  5
1C4
102
{ACAD_REACTORS
330
241
102
}
100
AcDbEntity
  8
0
370
           0
  6
Continuous
 62
           7
100
AcDbPolyline
 90
        4
 70
           1
 10
-0.03
 20
1.25
 10
-0.05
 20
1.25
 10
-0.05
 20
1.23
 10
-0.03
 20
1.23
1001
TCAD
1000
TCW_CUSTOM_DATA
1002
{
1000
#$AUX@_ToolInfo Properties
1070
           8
1000
Insert^JLine^JRectangle@Line Rectangle
1002
}
  0
LWPOLYLINE
  5
1C5
102
{ACAD_REACTORS
330
241
102
}
100
AcDbEntity
  8
0
370
           0
  6
Continuous
 62
           7
100
AcDbPolyline
 90
        4
 70
           1
 10
-0.03
 20
1.21
 10
-0.05
 20
1.21
 10
-0.05
 20
1.19
 10
-0.03
 20
1.19
1001
TCAD
1000
TCW_CUSTOM_DATA
1002
{
1000
#$AUX@_ToolInfo Properties
1070
           8
1000
Insert^JLine^JRectangle@Line Rectangle
1002
}
  0
LWPOLYLINE
  5
1C6
102
{ACAD_REACTORS
330
241
102
}
100
AcDbEntity
  8
0
370
           0
  6
Continuous
 62
           7
100
AcDbPolyline
 90
        4
 70
           1
 10
-0.07
 20
1.21
 10
-0.09
 20
1.21
 10
-0.09
 20
1.19
 10
-0.07
 20
1.19
1001
TCAD
1000
TCW_CUSTOM_DATA
1002
{
1000
#$AUX@_ToolInfo Properties
1070
           8
1000
Insert^JLine^JRectangle@Line Rectangle
1002
}
  0
LWPOLYLINE
  5
1C7
102
{ACAD_REACTORS
330
241
102
}
100
AcDbEntity
  8
0
370
           0
  6
Continuous
 62
           7
100
AcDbPolyline
 90
        4
 70
           1
 10
-0.07
 20
1.25
 10
-0.09
 20
1.25
 10
-0.09
 20
1.23
 10
-0.07
 20
1.23
1001
TCAD
1000
TCW_CUSTOM_DATA
1002
{
1000
#$AUX@_ToolInfo Properties
1070
           8
1000
Insert^JLine^JRectangle@Line Rectangle
1002
}
  0
LWPOLYLINE
  5
1C8
102
{ACAD_REACTORS
330
241
102
}
100
AcDbEntity
  8
0
370
           0
  6
Continuous
 62
           7
100
AcDbPolyline
 90
        4
 70
           1
 10
-0.07
 20
1.29
 10
-0.09
 20
1.29
 10
-0.09
 20
1.27
 10
-0.07
 20
1.27
1001
TCAD
1000
TCW_CUSTOM_DATA
1002
{
1000
#$AUX@_ToolInfo Properties
1070
           8
1000
Insert^JLine^JRectangle@Line Rectangle
1002
}
  0
LWPOLYLINE
  5
1C9
102
{ACAD_REACTORS
330
241
102
}
100
AcDbEntity
  8
0
370
           0
  6
Continuous
 62
           7
100
AcDbPolyline
 90
        4
 70
           1
 10
-0.07
 20
1.33
 10
-0.09
 20
1.33
 10
-0.09
 20
1.31
 10
-0.07
 20
1.31
1001
TCAD
1000
TCW_CUSTOM_DATA
1002
{
1000
#$AUX@_ToolInfo Properties
1070
           8
1000
Insert^JLine^JRectangle@Line Rectangle
1002
}
  0
LWPOLYLINE
  5
1CA
102
{ACAD_REACTORS
330
241
102
}
100
AcDbEntity
  8
0
370
           0
  6
Continuous
 62
           7
100
AcDbPolyline
 90
        4
 70
           1
 10
-0.07
 20
1.37
 10
-0.09
 20
1.37
 10
-0.09
 20
1.35
 10
-0.07
 20
1.35
1001
TCAD
1000
TCW_CUSTOM_DATA
1002
{
1000
#$AUX@_ToolInfo Properties
1070
           8
1000
Insert^JLine^JRectangle@Line Rectangle
1002
}
  0
LWPOLYLINE
  5
1CB
102
{ACAD_REACTORS
330
241
102
}
100
AcDbEntity
  8
0
370
           0
  6
Continuous
 62
           7
100
AcDbPolyline
 90
        4
 70
           1
 10
-0.07
 20
1.41
 10
-0.09
 20
1.41
 10
-0.09
 20
1.39
 10
-0.07
 20
1.39
1001
TCAD
1000
TCW_CUSTOM_DATA
1002
{
1000
#$AUX@_ToolInfo Properties
1070
           8
1000
Insert^JLine^JRectangle@Line Rectangle
1002
}
  0
LWPOLYLINE
  5
1CC
102
{ACAD_REACTORS
330
241
102
}
100
AcDbEntity
  8
0
370
           0
  6
Continuous
 62
           7
100
AcDbPolyline
 90
        4
 70
           1
 10
-0.07
 20
1.45
 10
-0.09
 20
1.45
 10
-0.09
 20
1.43
 10
-0.07
 20
1.43
1001
TCAD
1000
TCW_CUSTOM_DATA
1002
{
1000
#$AUX@_ToolInfo Properties
1070
           8
1000
Insert^JLine^JRectangle@Line Rectangle
1002
}
  0
LWPOLYLINE
  5
1CD
102
{ACAD_REACTORS
330
241
102
}
100
AcDbEntity
  8
0
370
           0
  6
Continuous
 62
           7
100
AcDbPolyline
 90
        4
 70
           1
 10
-0.11
 20
1.45
 10
-0.13
 20
1.45
 10
-0.13
 20
1.43
 10
-0.11
 20
1.43
1001
TCAD
1000
TCW_CUSTOM_DATA
1002
{
1000
#$AUX@_ToolInfo Properties
1070
           8
1000
Insert^JLine^JRectangle@Line Rectangle
1002
}
  0
LWPOLYLINE
  5
1CE
102
{ACAD_REACTORS
330
241
102
}
100
AcDbEntity
  8
0
370
           0
  6
Continuous
 62
           7
100
AcDbPolyline
 90
        4
 70
           1
 10
-0.11
 20
1.41
 10
-0.13
 20
1.41
 10
-0.13
 20
1.39
 10
-0.11
 20
1.39
1001
TCAD
1000
TCW_CUSTOM_DATA
1002
{
1000
#$AUX@_ToolInfo Properties
1070
           8
1000
Insert^JLine^JRectangle@Line Rectangle
1002
}
  0
LWPOLYLINE
  5
1CF
102
{ACAD_REACTORS
330
241
102
}
100
AcDbEntity
  8
0
370
           0
  6
Continuous
 62
           7
100
AcDbPolyline
 90
        4
 70
           1
 10
-0.11
 20
1.37
 10
-0.13
 20
1.37
 10
-0.13
 20
1.35
 10
-0.11
 20
1.35
1001
TCAD
1000
TCW_CUSTOM_DATA
1002
{
1000
#$AUX@_ToolInfo Properties
1070
           8
1000
Insert^JLine^JRectangle@Line Rectangle
1002
}
  0
LWPOLYLINE
  5
1D0
102
{ACAD_REACTORS
330
241
102
}
100
AcDbEntity
  8
0
370
           0
  6
Continuous
 62
           7
100
AcDbPolyline
 90
        4
 70
           1
 10
-0.11
 20
1.33
 10
-0.13
 20
1.33
 10
-0.13
 20
1.31
 10
-0.11
 20
1.31
1001
TCAD
1000
TCW_CUSTOM_DATA
1002
{
1000
#$AUX@_ToolInfo Properties
1070
           8
1000
Insert^JLine^JRectangle@Line Rectangle
1002
}
  0
LWPOLYLINE
  5
1D1
102
{ACAD_REACTORS
330
241
102
}
100
AcDbEntity
  8
0
370
           0
  6
Continuous
 62
           7
100
AcDbPolyline
 90
        4
 70
           1
 10
-0.11
 20
1.29
 10
-0.13
 20
1.29
 10
-0.13
 20
1.27
 10
-0.11
 20
1.27
1001
TCAD
1000
TCW_CUSTOM_DATA
1002
{
1000
#$AUX@_ToolInfo Properties
1070
           8
1000
Insert^JLine^JRectangle@Line Rectangle
1002
}
  0
LWPOLYLINE
  5
1D2
102
{ACAD_REACTORS
330
241
102
}
100
AcDbEntity
  8
0
370
           0
  6
Continuous
 62
           7
100
AcDbPolyline
 90
        4
 70
           1
 10
-0.11
 20
1.25
 10
-0.13
 20
1.25
 10
-0.13
 20
1.23
 10
-0.11
 20
1.23
1001
TCAD
1000
TCW_CUSTOM_DATA
1002
{
1000
#$AUX@_ToolInfo Properties
1070
           8
1000
Insert^JLine^JRectangle@Line Rectangle
1002
}
  0
LWPOLYLINE
  5
1D3
102
{ACAD_REACTORS
330
241
102
}
100
AcDbEntity
  8
0
370
           0
  6
Continuous
 62
           7
100
AcDbPolyline
 90
        4
 70
           1
 10
-0.11
 20
1.21
 10
-0.13
 20
1.21
 10
-0.13
 20
1.19
 10
-0.11
 20
1.19
1001
TCAD
1000
TCW_CUSTOM_DATA
1002
{
1000
#$AUX@_ToolInfo Properties
1070
           8
1000
Insert^JLine^JRectangle@Line Rectangle
1002
}
  0
LWPOLYLINE
  5
1D4
102
{ACAD_REACTORS
330
241
102
}
100
AcDbEntity
  8
0
370
           0
  6
Continuous
 62
           7
100
AcDbPolyline
 90
        4
 70
           1
 10
-0.15
 20
1.21
 10
-0.17
 20
1.21
 10
-0.17
 20
1.19
 10
-0.15
 20
1.19
1001
TCAD
1000
TCW_CUSTOM_DATA
1002
{
1000
#$AUX@_ToolInfo Properties
1070
           8
1000
Insert^JLine^JRectangle@Line Rectangle
1002
}
  0
LWPOLYLINE
  5
1D5
102
{ACAD_REACTORS
330
241
102
}
100
AcDbEntity
  8
0
370
           0
  6
Continuous
 62
           7
100
AcDbPolyline
 90
        4
 70
           1
 10
-0.15
 20
1.25
 10
-0.17
 20
1.25
 10
-0.17
 20
1.23
 10
-0.15
 20
1.23
1001
TCAD
1000
TCW_CUSTOM_DATA
1002
{
1000
#$AUX@_ToolInfo Properties
1070
           8
1000
Insert^JLine^JRectangle@Line Rectangle
1002
}
  0
LWPOLYLINE
  5
1D6
102
{ACAD_REACTORS
330
241
102
}
100
AcDbEntity
  8
0
370
           0
  6
Continuous
 62
           7
100
AcDbPolyline
 90
        4
 70
           1
 10
-0.15
 20
1.29
 10
-0.17
 20
1.29
 10
-0.17
 20
1.27
 10
-0.15
 20
1.27
1001
TCAD
1000
TCW_CUSTOM_DATA
1002
{
1000
#$AUX@_ToolInfo Properties
1070
           8
1000
Insert^JLine^JRectangle@Line Rectangle
1002
}
  0
LWPOLYLINE
  5
1D7
102
{ACAD_REACTORS
330
241
102
}
100
AcDbEntity
  8
0
370
           0
  6
Continuous
 62
           7
100
AcDbPolyline
 90
        4
 70
           1
 10
-0.15
 20
1.33
 10
-0.17
 20
1.33
 10
-0.17
 20
1.31
 10
-0.15
 20
1.31
1001
TCAD
1000
TCW_CUSTOM_DATA
1002
{
1000
#$AUX@_ToolInfo Properties
1070
           8
1000
Insert^JLine^JRectangle@Line Rectangle
1002
}
  0
LWPOLYLINE
  5
1D8
102
{ACAD_REACTORS
330
241
102
}
100
AcDbEntity
  8
0
370
           0
  6
Continuous
 62
           7
100
AcDbPolyline
 90
        4
 70
           1
 10
-0.15
 20
1.37
 10
-0.17
 20
1.37
 10
-0.17
 20
1.35
 10
-0.15
 20
1.35
1001
TCAD
1000
TCW_CUSTOM_DATA
1002
{
1000
#$AUX@_ToolInfo Properties
1070
           8
1000
Insert^JLine^JRectangle@Line Rectangle
1002
}
  0
LWPOLYLINE
  5
1D9
102
{ACAD_REACTORS
330
241
102
}
100
AcDbEntity
  8
0
370
           0
  6
Continuous
 62
           7
100
AcDbPolyline
 90
        4
 70
           1
 10
-0.15
 20
1.41
 10
-0.17
 20
1.41
 10
-0.17
 20
1.39
 10
-0.15
 20
1.39
1001
TCAD
1000
TCW_CUSTOM_DATA
1002
{
1000
#$AUX@_ToolInfo Properties
1070
           8
1000
Insert^JLine^JRectangle@Line Rectangle
1002
}
  0
LWPOLYLINE
  5
1DA
102
{ACAD_REACTORS
330
241
102
}
100
AcDbEntity
  8
0
370
           0
  6
Continuous
 62
           7
100
AcDbPolyline
 90
        4
 70
           1
 10
-0.15
 20
1.45
 10
-0.17
 20
1.45
 10
-0.17
 20
1.43
 10
-0.15
 20
1.43
1001
TCAD
1000
TCW_CUSTOM_DATA
1002
{
1000
#$AUX@_ToolInfo Properties
1070
           8
1000
Insert^JLine^JRectangle@Line Rectangle
1002
}
  0
LWPOLYLINE
  5
1DB
102
{ACAD_REACTORS
330
241
102
}
100
AcDbEntity
  8
0
370
           0
  6
Continuous
 62
           7
100
AcDbPolyline
 90
        4
 70
           1
 10
-0.19
 20
1.45
 10
-0.21
 20
1.45
 10
-0.21
 20
1.43
 10
-0.19
 20
1.43
1001
TCAD
1000
TCW_CUSTOM_DATA
1002
{
1000
#$AUX@_ToolInfo Properties
1070
           8
1000
Insert^JLine^JRectangle@Line Rectangle
1002
}
  0
LWPOLYLINE
  5
1DC
102
{ACAD_REACTORS
330
241
102
}
100
AcDbEntity
  8
0
370
           0
  6
Continuous
 62
           7
100
AcDbPolyline
 90
        4
 70
           1
 10
-0.19
 20
1.41
 10
-0.21
 20
1.41
 10
-0.21
 20
1.39
 10
-0.19
 20
1.39
1001
TCAD
1000
TCW_CUSTOM_DATA
1002
{
1000
#$AUX@_ToolInfo Properties
1070
           8
1000
Insert^JLine^JRectangle@Line Rectangle
1002
}
  0
LWPOLYLINE
  5
1DD
102
{ACAD_REACTORS
330
241
102
}
100
AcDbEntity
  8
0
370
           0
  6
Continuous
 62
           7
100
AcDbPolyline
 90
        4
 70
           1
 10
-0.19
 20
1.37
 10
-0.21
 20
1.37
 10
-0.21
 20
1.35
 10
-0.19
 20
1.35
1001
TCAD
1000
TCW_CUSTOM_DATA
1002
{
1000
#$AUX@_ToolInfo Properties
1070
           8
1000
Insert^JLine^JRectangle@Line Rectangle
1002
}
  0
LWPOLYLINE
  5
1DE
102
{ACAD_REACTORS
330
241
102
}
100
AcDbEntity
  8
0
370
           0
  6
Continuous
 62
           7
100
AcDbPolyline
 90
        4
 70
           1
 10
-0.19
 20
1.33
 10
-0.21
 20
1.33
 10
-0.21
 20
1.31
 10
-0.19
 20
1.31
1001
TCAD
1000
TCW_CUSTOM_DATA
1002
{
1000
#$AUX@_ToolInfo Properties
1070
           8
1000
Insert^JLine^JRectangle@Line Rectangle
1002
}
  0
LWPOLYLINE
  5
1DF
102
{ACAD_REACTORS
330
241
102
}
100
AcDbEntity
  8
0
370
           0
  6
Continuous
 62
           7
100
AcDbPolyline
 90
        4
 70
           1
 10
-0.19
 20
1.29
 10
-0.21
 20
1.29
 10
-0.21
 20
1.27
 10
-0.19
 20
1.27
1001
TCAD
1000
TCW_CUSTOM_DATA
1002
{
1000
#$AUX@_ToolInfo Properties
1070
           8
1000
Insert^JLine^JRectangle@Line Rectangle
1002
}
  0
LWPOLYLINE
  5
1E0
102
{ACAD_REACTORS
330
241
102
}
100
AcDbEntity
  8
0
370
           0
  6
Continuous
 62
           7
100
AcDbPolyline
 90
        4
 70
           1
 10
-0.19
 20
1.25
 10
-0.21
 20
1.25
 10
-0.21
 20
1.23
 10
-0.19
 20
1.23
1001
TCAD
1000
TCW_CUSTOM_DATA
1002
{
1000
#$AUX@_ToolInfo Properties
1070
           8
1000
Insert^JLine^JRectangle@Line Rectangle
1002
}
  0
LWPOLYLINE
  5
1E1
102
{ACAD_REACTORS
330
241
102
}
100
AcDbEntity
  8
0
370
           0
  6
Continuous
 62
           7
100
AcDbPolyline
 90
        4
 70
           1
 10
-0.19
 20
1.21
 10
-0.21
 20
1.21
 10
-0.21
 20
1.19
 10
-0.19
 20
1.19
1001
TCAD
1000
TCW_CUSTOM_DATA
1002
{
1000
#$AUX@_ToolInfo Properties
1070
           8
1000
Insert^JLine^JRectangle@Line Rectangle
1002
}
  0
LWPOLYLINE
  5
1E2
102
{ACAD_REACTORS
330
241
102
}
100
AcDbEntity
  8
0
370
           0
  6
Continuous
 62
           7
100
AcDbPolyline
 90
        4
 70
           1
 10
-0.23
 20
1.21
 10
-0.25
 20
1.21
 10
-0.25
 20
1.19
 10
-0.23
 20
1.19
1001
TCAD
1000
TCW_CUSTOM_DATA
1002
{
1000
#$AUX@_ToolInfo Properties
1070
           8
1000
Insert^JLine^JRectangle@Line Rectangle
1002
}
  0
LWPOLYLINE
  5
1E3
102
{ACAD_REACTORS
330
241
102
}
100
AcDbEntity
  8
0
370
           0
  6
Continuous
 62
           7
100
AcDbPolyline
 90
        4
 70
           1
 10
-0.23
 20
1.25
 10
-0.25
 20
1.25
 10
-0.25
 20
1.23
 10
-0.23
 20
1.23
1001
TCAD
1000
TCW_CUSTOM_DATA
1002
{
1000
#$AUX@_ToolInfo Properties
1070
           8
1000
Insert^JLine^JRectangle@Line Rectangle
1002
}
  0
LWPOLYLINE
  5
1E4
102
{ACAD_REACTORS
330
241
102
}
100
AcDbEntity
  8
0
370
           0
  6
Continuous
 62
           7
100
AcDbPolyline
 90
        4
 70
           1
 10
-0.23
 20
1.29
 10
-0.25
 20
1.29
 10
-0.25
 20
1.27
 10
-0.23
 20
1.27
1001
TCAD
1000
TCW_CUSTOM_DATA
1002
{
1000
#$AUX@_ToolInfo Properties
1070
           8
1000
Insert^JLine^JRectangle@Line Rectangle
1002
}
  0
LWPOLYLINE
  5
1E5
102
{ACAD_REACTORS
330
241
102
}
100
AcDbEntity
  8
0
370
           0
  6
Continuous
 62
           7
100
AcDbPolyline
 90
        4
 70
           1
 10
-0.23
 20
1.33
 10
-0.25
 20
1.33
 10
-0.25
 20
1.31
 10
-0.23
 20
1.31
1001
TCAD
1000
TCW_CUSTOM_DATA
1002
{
1000
#$AUX@_ToolInfo Properties
1070
           8
1000
Insert^JLine^JRectangle@Line Rectangle
1002
}
  0
LWPOLYLINE
  5
1E6
102
{ACAD_REACTORS
330
241
102
}
100
AcDbEntity
  8
0
370
           0
  6
Continuous
 62
           7
100
AcDbPolyline
 90
        4
 70
           1
 10
-0.23
 20
1.37
 10
-0.25
 20
1.37
 10
-0.25
 20
1.35
 10
-0.23
 20
1.35
1001
TCAD
1000
TCW_CUSTOM_DATA
1002
{
1000
#$AUX@_ToolInfo Properties
1070
           8
1000
Insert^JLine^JRectangle@Line Rectangle
1002
}
  0
LWPOLYLINE
  5
1E7
102
{ACAD_REACTORS
330
241
102
}
100
AcDbEntity
  8
0
370
           0
  6
Continuous
 62
           7
100
AcDbPolyline
 90
        4
 70
           1
 10
-0.23
 20
1.41
 10
-0.25
 20
1.41
 10
-0.25
 20
1.39
 10
-0.23
 20
1.39
1001
TCAD
1000
TCW_CUSTOM_DATA
1002
{
1000
#$AUX@_ToolInfo Properties
1070
           8
1000
Insert^JLine^JRectangle@Line Rectangle
1002
}
  0
LWPOLYLINE
  5
1E8
102
{ACAD_REACTORS
330
241
102
}
100
AcDbEntity
  8
0
370
           0
  6
Continuous
 62
           7
100
AcDbPolyline
 90
        4
 70
           1
 10
-0.23
 20
1.45
 10
-0.25
 20
1.45
 10
-0.25
 20
1.43
 10
-0.23
 20
1.43
1001
TCAD
1000
TCW_CUSTOM_DATA
1002
{
1000
#$AUX@_ToolInfo Properties
1070
           8
1000
Insert^JLine^JRectangle@Line Rectangle
1002
}
  0
LWPOLYLINE
  5
1E9
102
{ACAD_REACTORS
330
241
102
}
100
AcDbEntity
  8
0
370
           0
  6
Continuous
 62
           7
100
AcDbPolyline
 90
        4
 70
           1
 10
-0.27
 20
1.45
 10
-0.29
 20
1.45
 10
-0.29
 20
1.43
 10
-0.27
 20
1.43
1001
TCAD
1000
TCW_CUSTOM_DATA
1002
{
1000
#$AUX@_ToolInfo Properties
1070
           8
1000
Insert^JLine^JRectangle@Line Rectangle
1002
}
  0
LWPOLYLINE
  5
1EA
102
{ACAD_REACTORS
330
241
102
}
100
AcDbEntity
  8
0
370
           0
  6
Continuous
 62
           7
100
AcDbPolyline
 90
        4
 70
           1
 10
-0.27
 20
1.41
 10
-0.29
 20
1.41
 10
-0.29
 20
1.39
 10
-0.27
 20
1.39
1001
TCAD
1000
TCW_CUSTOM_DATA
1002
{
1000
#$AUX@_ToolInfo Properties
1070
           8
1000
Insert^JLine^JRectangle@Line Rectangle
1002
}
  0
LWPOLYLINE
  5
1EB
102
{ACAD_REACTORS
330
241
102
}
100
AcDbEntity
  8
0
370
           0
  6
Continuous
 62
           7
100
AcDbPolyline
 90
        4
 70
           1
 10
-0.27
 20
1.37
 10
-0.29
 20
1.37
 10
-0.29
 20
1.35
 10
-0.27
 20
1.35
1001
TCAD
1000
TCW_CUSTOM_DATA
1002
{
1000
#$AUX@_ToolInfo Properties
1070
           8
1000
Insert^JLine^JRectangle@Line Rectangle
1002
}
  0
LWPOLYLINE
  5
1EC
102
{ACAD_REACTORS
330
241
102
}
100
AcDbEntity
  8
0
370
           0
  6
Continuous
 62
           7
100
AcDbPolyline
 90
        4
 70
           1
 10
-0.27
 20
1.33
 10
-0.29
 20
1.33
 10
-0.29
 20
1.31
 10
-0.27
 20
1.31
1001
TCAD
1000
TCW_CUSTOM_DATA
1002
{
1000
#$AUX@_ToolInfo Properties
1070
           8
1000
Insert^JLine^JRectangle@Line Rectangle
1002
}
  0
LWPOLYLINE
  5
1ED
102
{ACAD_REACTORS
330
241
102
}
100
AcDbEntity
  8
0
370
           0
  6
Continuous
 62
           7
100
AcDbPolyline
 90
        4
 70
           1
 10
-0.27
 20
1.29
 10
-0.29
 20
1.29
 10
-0.29
 20
1.27
 10
-0.27
 20
1.27
1001
TCAD
1000
TCW_CUSTOM_DATA
1002
{
1000
#$AUX@_ToolInfo Properties
1070
           8
1000
Insert^JLine^JRectangle@Line Rectangle
1002
}
  0
LWPOLYLINE
  5
1EE
102
{ACAD_REACTORS
330
241
102
}
100
AcDbEntity
  8
0
370
           0
  6
Continuous
 62
           7
100
AcDbPolyline
 90
        4
 70
           1
 10
-0.27
 20
1.25
 10
-0.29
 20
1.25
 10
-0.29
 20
1.23
 10
-0.27
 20
1.23
1001
TCAD
1000
TCW_CUSTOM_DATA
1002
{
1000
#$AUX@_ToolInfo Properties
1070
           8
1000
Insert^JLine^JRectangle@Line Rectangle
1002
}
  0
LWPOLYLINE
  5
1EF
102
{ACAD_REACTORS
330
241
102
}
100
AcDbEntity
  8
0
370
           0
  6
Continuous
 62
           7
100
AcDbPolyline
 90
        4
 70
           1
 10
-0.27
 20
1.21
 10
-0.29
 20
1.21
 10
-0.29
 20
1.19
 10
-0.27
 20
1.19
1001
TCAD
1000
TCW_CUSTOM_DATA
1002
{
1000
#$AUX@_ToolInfo Properties
1070
           8
1000
Insert^JLine^JRectangle@Line Rectangle
1002
}
  0
LWPOLYLINE
  5
1F0
102
{ACAD_REACTORS
330
241
102
}
100
AcDbEntity
  8
0
370
           0
  6
Continuous
 62
           7
100
AcDbPolyline
 90
        4
 70
           1
 10
-0.31
 20
1.21
 10
-0.33
 20
1.21
 10
-0.33
 20
1.19
 10
-0.31
 20
1.19
1001
TCAD
1000
TCW_CUSTOM_DATA
1002
{
1000
#$AUX@_ToolInfo Properties
1070
           8
1000
Insert^JLine^JRectangle@Line Rectangle
1002
}
  0
LWPOLYLINE
  5
1F1
102
{ACAD_REACTORS
330
241
102
}
100
AcDbEntity
  8
0
370
           0
  6
Continuous
 62
           7
100
AcDbPolyline
 90
        4
 70
           1
 10
-0.31
 20
1.25
 10
-0.33
 20
1.25
 10
-0.33
 20
1.23
 10
-0.31
 20
1.23
1001
TCAD
1000
TCW_CUSTOM_DATA
1002
{
1000
#$AUX@_ToolInfo Properties
1070
           8
1000
Insert^JLine^JRectangle@Line Rectangle
1002
}
  0
LWPOLYLINE
  5
1F2
102
{ACAD_REACTORS
330
241
102
}
100
AcDbEntity
  8
0
370
           0
  6
Continuous
 62
           7
100
AcDbPolyline
 90
        4
 70
           1
 10
-0.31
 20
1.29
 10
-0.33
 20
1.29
 10
-0.33
 20
1.27
 10
-0.31
 20
1.27
1001
TCAD
1000
TCW_CUSTOM_DATA
1002
{
1000
#$AUX@_ToolInfo Properties
1070
           8
1000
Insert^JLine^JRectangle@Line Rectangle
1002
}
  0
LWPOLYLINE
  5
1F3
102
{ACAD_REACTORS
330
241
102
}
100
AcDbEntity
  8
0
370
           0
  6
Continuous
 62
           7
100
AcDbPolyline
 90
        4
 70
           1
 10
-0.31
 20
1.33
 10
-0.33
 20
1.33
 10
-0.33
 20
1.31
 10
-0.31
 20
1.31
1001
TCAD
1000
TCW_CUSTOM_DATA
1002
{
1000
#$AUX@_ToolInfo Properties
1070
           8
1000
Insert^JLine^JRectangle@Line Rectangle
1002
}
  0
LWPOLYLINE
  5
1F4
102
{ACAD_REACTORS
330
241
102
}
100
AcDbEntity
  8
0
370
           0
  6
Continuous
 62
           7
100
AcDbPolyline
 90
        4
 70
           1
 10
-0.31
 20
1.37
 10
-0.33
 20
1.37
 10
-0.33
 20
1.35
 10
-0.31
 20
1.35
1001
TCAD
1000
TCW_CUSTOM_DATA
1002
{
1000
#$AUX@_ToolInfo Properties
1070
           8
1000
Insert^JLine^JRectangle@Line Rectangle
1002
}
  0
LWPOLYLINE
  5
1F5
102
{ACAD_REACTORS
330
241
102
}
100
AcDbEntity
  8
0
370
           0
  6
Continuous
 62
           7
100
AcDbPolyline
 90
        4
 70
           1
 10
-0.31
 20
1.41
 10
-0.33
 20
1.41
 10
-0.33
 20
1.39
 10
-0.31
 20
1.39
1001
TCAD
1000
TCW_CUSTOM_DATA
1002
{
1000
#$AUX@_ToolInfo Properties
1070
           8
1000
Insert^JLine^JRectangle@Line Rectangle
1002
}
  0
LWPOLYLINE
  5
1F6
102
{ACAD_REACTORS
330
241
102
}
100
AcDbEntity
  8
0
370
           0
  6
Continuous
 62
           7
100
AcDbPolyline
 90
        4
 70
           1
 10
-0.31
 20
1.45
 10
-0.33
 20
1.45
 10
-0.33
 20
1.43
 10
-0.31
 20
1.43
1001
TCAD
1000
TCW_CUSTOM_DATA
1002
{
1000
#$AUX@_ToolInfo Properties
1070
           8
1000
Insert^JLine^JRectangle@Line Rectangle
1002
}
  0
LWPOLYLINE
  5
1F7
102
{ACAD_REACTORS
330
241
102
}
100
AcDbEntity
  8
0
370
           0
  6
Continuous
 62
           7
100
AcDbPolyline
 90
        4
 70
           1
 10
-0.35
 20
1.45
 10
-0.37
 20
1.45
 10
-0.37
 20
1.43
 10
-0.35
 20
1.43
1001
TCAD
1000
TCW_CUSTOM_DATA
1002
{
1000
#$AUX@_ToolInfo Properties
1070
           8
1000
Insert^JLine^JRectangle@Line Rectangle
1002
}
  0
LWPOLYLINE
  5
1F8
102
{ACAD_REACTORS
330
241
102
}
100
AcDbEntity
  8
0
370
           0
  6
Continuous
 62
           7
100
AcDbPolyline
 90
        4
 70
           1
 10
-0.35
 20
1.41
 10
-0.37
 20
1.41
 10
-0.37
 20
1.39
 10
-0.35
 20
1.39
1001
TCAD
1000
TCW_CUSTOM_DATA
1002
{
1000
#$AUX@_ToolInfo Properties
1070
           8
1000
Insert^JLine^JRectangle@Line Rectangle
1002
}
  0
LWPOLYLINE
  5
1F9
102
{ACAD_REACTORS
330
241
102
}
100
AcDbEntity
  8
0
370
           0
  6
Continuous
 62
           7
100
AcDbPolyline
 90
        4
 70
           1
 10
-0.35
 20
1.37
 10
-0.37
 20
1.37
 10
-0.37
 20
1.35
 10
-0.35
 20
1.35
1001
TCAD
1000
TCW_CUSTOM_DATA
1002
{
1000
#$AUX@_ToolInfo Properties
1070
           8
1000
Insert^JLine^JRectangle@Line Rectangle
1002
}
  0
LWPOLYLINE
  5
1FA
102
{ACAD_REACTORS
330
241
102
}
100
AcDbEntity
  8
0
370
           0
  6
Continuous
 62
           7
100
AcDbPolyline
 90
        4
 70
           1
 10
-0.35
 20
1.33
 10
-0.37
 20
1.33
 10
-0.37
 20
1.31
 10
-0.35
 20
1.31
1001
TCAD
1000
TCW_CUSTOM_DATA
1002
{
1000
#$AUX@_ToolInfo Properties
1070
           8
1000
Insert^JLine^JRectangle@Line Rectangle
1002
}
  0
LWPOLYLINE
  5
1FB
102
{ACAD_REACTORS
330
241
102
}
100
AcDbEntity
  8
0
370
           0
  6
Continuous
 62
           7
100
AcDbPolyline
 90
        4
 70
           1
 10
-0.35
 20
1.29
 10
-0.37
 20
1.29
 10
-0.37
 20
1.27
 10
-0.35
 20
1.27
1001
TCAD
1000
TCW_CUSTOM_DATA
1002
{
1000
#$AUX@_ToolInfo Properties
1070
           8
1000
Insert^JLine^JRectangle@Line Rectangle
1002
}
  0
LWPOLYLINE
  5
1FC
102
{ACAD_REACTORS
330
241
102
}
100
AcDbEntity
  8
0
370
           0
  6
Continuous
 62
           7
100
AcDbPolyline
 90
        4
 70
           1
 10
-0.35
 20
1.25
 10
-0.37
 20
1.25
 10
-0.37
 20
1.23
 10
-0.35
 20
1.23
1001
TCAD
1000
TCW_CUSTOM_DATA
1002
{
1000
#$AUX@_ToolInfo Properties
1070
           8
1000
Insert^JLine^JRectangle@Line Rectangle
1002
}
  0
LWPOLYLINE
  5
1FD
102
{ACAD_REACTORS
330
241
102
}
100
AcDbEntity
  8
0
370
           0
  6
Continuous
 62
           7
100
AcDbPolyline
 90
        4
 70
           1
 10
-0.35
 20
1.21
 10
-0.37
 20
1.21
 10
-0.37
 20
1.19
 10
-0.35
 20
1.19
1001
TCAD
1000
TCW_CUSTOM_DATA
1002
{
1000
#$AUX@_ToolInfo Properties
1070
           8
1000
Insert^JLine^JRectangle@Line Rectangle
1002
}
  0
LWPOLYLINE
  5
1FE
102
{ACAD_REACTORS
330
241
102
}
100
AcDbEntity
  8
0
370
           0
  6
Continuous
 62
           7
100
AcDbPolyline
 90
        4
 70
           1
 10
-0.39
 20
1.21
 10
-0.41
 20
1.21
 10
-0.41
 20
1.19
 10
-0.39
 20
1.19
1001
TCAD
1000
TCW_CUSTOM_DATA
1002
{
1000
#$AUX@_ToolInfo Properties
1070
           8
1000
Insert^JLine^JRectangle@Line Rectangle
1002
}
  0
LWPOLYLINE
  5
1FF
102
{ACAD_REACTORS
330
241
102
}
100
AcDbEntity
  8
0
370
           0
  6
Continuous
 62
           7
100
AcDbPolyline
 90
        4
 70
           1
 10
-0.39
 20
1.25
 10
-0.41
 20
1.25
 10
-0.41
 20
1.23
 10
-0.39
 20
1.23
1001
TCAD
1000
TCW_CUSTOM_DATA
1002
{
1000
#$AUX@_ToolInfo Properties
1070
           8
1000
Insert^JLine^JRectangle@Line Rectangle
1002
}
  0
LWPOLYLINE
  5
200
102
{ACAD_REACTORS
330
241
102
}
100
AcDbEntity
  8
0
370
           0
  6
Continuous
 62
           7
100
AcDbPolyline
 90
        4
 70
           1
 10
-0.39
 20
1.29
 10
-0.41
 20
1.29
 10
-0.41
 20
1.27
 10
-0.39
 20
1.27
1001
TCAD
1000
TCW_CUSTOM_DATA
1002
{
1000
#$AUX@_ToolInfo Properties
1070
           8
1000
Insert^JLine^JRectangle@Line Rectangle
1002
}
  0
LWPOLYLINE
  5
201
102
{ACAD_REACTORS
330
241
102
}
100
AcDbEntity
  8
0
370
           0
  6
Continuous
 62
           7
100
AcDbPolyline
 90
        4
 70
           1
 10
-0.39
 20
1.33
 10
-0.39
 20
1.33
 10
-0.39
 20
1.33
 10
-0.39
 20
1.33
1001
TCAD
1000
TCW_CUSTOM_DATA
1002
{
1000
#$AUX@_ToolInfo Properties
1070
           8
1000
Insert^JLine^JRectangle@Line Rectangle
1002
}
  0
LWPOLYLINE
  5
202
102
{ACAD_REACTORS
330
241
102
}
100
AcDbEntity
  8
0
370
           0
  6
Continuous
 62
           7
100
AcDbPolyline
 90
        4
 70
           1
 10
-0.39
 20
1.33
 10
-0.41
 20
1.33
 10
-0.41
 20
1.31
 10
-0.39
 20
1.31
1001
TCAD
1000
TCW_CUSTOM_DATA
1002
{
1000
#$AUX@_ToolInfo Properties
1070
           8
1000
Insert^JLine^JRectangle@Line Rectangle
1002
}
  0
LWPOLYLINE
  5
203
102
{ACAD_REACTORS
330
241
102
}
100
AcDbEntity
  8
0
370
           0
  6
Continuous
 62
           7
100
AcDbPolyline
 90
        4
 70
           1
 10
-0.39
 20
1.37
 10
-0.41
 20
1.37
 10
-0.41
 20
1.35
 10
-0.39
 20
1.35
1001
TCAD
1000
TCW_CUSTOM_DATA
1002
{
1000
#$AUX@_ToolInfo Properties
1070
           8
1000
Insert^JLine^JRectangle@Line Rectangle
1002
}
  0
LWPOLYLINE
  5
204
102
{ACAD_REACTORS
330
241
102
}
100
AcDbEntity
  8
0
370
           0
  6
Continuous
 62
           7
100
AcDbPolyline
 90
        4
 70
           1
 10
-0.39
 20
1.41
 10
-0.41
 20
1.41
 10
-0.41
 20
1.39
 10
-0.39
 20
1.39
1001
TCAD
1000
TCW_CUSTOM_DATA
1002
{
1000
#$AUX@_ToolInfo Properties
1070
           8
1000
Insert^JLine^JRectangle@Line Rectangle
1002
}
  0
LWPOLYLINE
  5
205
102
{ACAD_REACTORS
330
241
102
}
100
AcDbEntity
  8
0
370
           0
  6
Continuous
 62
           7
100
AcDbPolyline
 90
        4
 70
           1
 10
-0.39
 20
1.45
 10
-0.41
 20
1.45
 10
-0.41
 20
1.43
 10
-0.39
 20
1.43
1001
TCAD
1000
TCW_CUSTOM_DATA
1002
{
1000
#$AUX@_ToolInfo Properties
1070
           8
1000
Insert^JLine^JRectangle@Line Rectangle
1002
}
  0
LWPOLYLINE
  5
206
102
{ACAD_REACTORS
330
241
102
}
100
AcDbEntity
  8
0
370
           0
  6
Continuous
 62
           7
100
AcDbPolyline
 90
        4
 70
           1
 10
-0.43
 20
1.45
 10
-0.45
 20
1.45
 10
-0.45
 20
1.43
 10
-0.43
 20
1.43
1001
TCAD
1000
TCW_CUSTOM_DATA
1002
{
1000
#$AUX@_ToolInfo Properties
1070
           8
1000
Insert^JLine^JRectangle@Line Rectangle
1002
}
  0
LWPOLYLINE
  5
207
102
{ACAD_REACTORS
330
241
102
}
100
AcDbEntity
  8
0
370
           0
  6
Continuous
 62
           7
100
AcDbPolyline
 90
        4
 70
           1
 10
-0.43
 20
1.41
 10
-0.45
 20
1.41
 10
-0.45
 20
1.39
 10
-0.43
 20
1.39
1001
TCAD
1000
TCW_CUSTOM_DATA
1002
{
1000
#$AUX@_ToolInfo Properties
1070
           8
1000
Insert^JLine^JRectangle@Line Rectangle
1002
}
  0
LWPOLYLINE
  5
208
102
{ACAD_REACTORS
330
241
102
}
100
AcDbEntity
  8
0
370
           0
  6
Continuous
 62
           7
100
AcDbPolyline
 90
        4
 70
           1
 10
-0.43
 20
1.37
 10
-0.45
 20
1.37
 10
-0.45
 20
1.35
 10
-0.43
 20
1.35
1001
TCAD
1000
TCW_CUSTOM_DATA
1002
{
1000
#$AUX@_ToolInfo Properties
1070
           8
1000
Insert^JLine^JRectangle@Line Rectangle
1002
}
  0
LWPOLYLINE
  5
209
102
{ACAD_REACTORS
330
241
102
}
100
AcDbEntity
  8
0
370
           0
  6
Continuous
 62
           7
100
AcDbPolyline
 90
        4
 70
           1
 10
-0.43
 20
1.33
 10
-0.45
 20
1.33
 10
-0.45
 20
1.31
 10
-0.43
 20
1.31
1001
TCAD
1000
TCW_CUSTOM_DATA
1002
{
1000
#$AUX@_ToolInfo Properties
1070
           8
1000
Insert^JLine^JRectangle@Line Rectangle
1002
}
  0
LWPOLYLINE
  5
20A
102
{ACAD_REACTORS
330
241
102
}
100
AcDbEntity
  8
0
370
           0
  6
Continuous
 62
           7
100
AcDbPolyline
 90
        4
 70
           1
 10
-0.43
 20
1.29
 10
-0.45
 20
1.29
 10
-0.45
 20
1.27
 10
-0.43
 20
1.27
1001
TCAD
1000
TCW_CUSTOM_DATA
1002
{
1000
#$AUX@_ToolInfo Properties
1070
           8
1000
Insert^JLine^JRectangle@Line Rectangle
1002
}
  0
LWPOLYLINE
  5
20B
102
{ACAD_REACTORS
330
241
102
}
100
AcDbEntity
  8
0
370
           0
  6
Continuous
 62
           7
100
AcDbPolyline
 90
        4
 70
           1
 10
-0.43
 20
1.25
 10
-0.45
 20
1.25
 10
-0.45
 20
1.23
 10
-0.43
 20
1.23
1001
TCAD
1000
TCW_CUSTOM_DATA
1002
{
1000
#$AUX@_ToolInfo Properties
1070
           8
1000
Insert^JLine^JRectangle@Line Rectangle
1002
}
  0
LWPOLYLINE
  5
20C
102
{ACAD_REACTORS
330
241
102
}
100
AcDbEntity
  8
0
370
           0
  6
Continuous
 62
           7
100
AcDbPolyline
 90
        4
 70
           1
 10
-0.43
 20
1.21
 10
-0.45
 20
1.21
 10
-0.45
 20
1.19
 10
-0.43
 20
1.19
1001
TCAD
1000
TCW_CUSTOM_DATA
1002
{
1000
#$AUX@_ToolInfo Properties
1070
           8
1000
Insert^JLine^JRectangle@Line Rectangle
1002
}
  0
LWPOLYLINE
  5
20D
102
{ACAD_REACTORS
330
241
102
}
100
AcDbEntity
  8
0
370
           0
  6
Continuous
 62
           7
100
AcDbPolyline
 90
        4
 70
           1
 10
-0.47
 20
1.21
 10
-0.49
 20
1.21
 10
-0.49
 20
1.19
 10
-0.47
 20
1.19
1001
TCAD
1000
TCW_CUSTOM_DATA
1002
{
1000
#$AUX@_ToolInfo Properties
1070
           8
1000
Insert^JLine^JRectangle@Line Rectangle
1002
}
  0
LWPOLYLINE
  5
20E
102
{ACAD_REACTORS
330
241
102
}
100
AcDbEntity
  8
0
370
           0
  6
Continuous
 62
           7
100
AcDbPolyline
 90
        4
 70
           1
 10
-0.47
 20
1.25
 10
-0.49
 20
1.25
 10
-0.49
 20
1.23
 10
-0.47
 20
1.23
1001
TCAD
1000
TCW_CUSTOM_DATA
1002
{
1000
#$AUX@_ToolInfo Properties
1070
           8
1000
Insert^JLine^JRectangle@Line Rectangle
1002
}
  0
LWPOLYLINE
  5
20F
102
{ACAD_REACTORS
330
241
102
}
100
AcDbEntity
  8
0
370
           0
  6
Continuous
 62
           7
100
AcDbPolyline
 90
        4
 70
           1
 10
-0.47
 20
1.29
 10
-0.49
 20
1.29
 10
-0.49
 20
1.27
 10
-0.47
 20
1.27
1001
TCAD
1000
TCW_CUSTOM_DATA
1002
{
1000
#$AUX@_ToolInfo Properties
1070
           8
1000
Insert^JLine^JRectangle@Line Rectangle
1002
}
  0
LWPOLYLINE
  5
210
102
{ACAD_REACTORS
330
241
102
}
100
AcDbEntity
  8
0
370
           0
  6
Continuous
 62
           7
100
AcDbPolyline
 90
        4
 70
           1
 10
-0.47
 20
1.33
 10
-0.49
 20
1.33
 10
-0.49
 20
1.31
 10
-0.47
 20
1.31
1001
TCAD
1000
TCW_CUSTOM_DATA
1002
{
1000
#$AUX@_ToolInfo Properties
1070
           8
1000
Insert^JLine^JRectangle@Line Rectangle
1002
}
  0
LWPOLYLINE
  5
211
102
{ACAD_REACTORS
330
241
102
}
100
AcDbEntity
  8
0
370
           0
  6
Continuous
 62
           7
100
AcDbPolyline
 90
        4
 70
           1
 10
-0.47
 20
1.37
 10
-0.49
 20
1.37
 10
-0.49
 20
1.35
 10
-0.47
 20
1.35
1001
TCAD
1000
TCW_CUSTOM_DATA
1002
{
1000
#$AUX@_ToolInfo Properties
1070
           8
1000
Insert^JLine^JRectangle@Line Rectangle
1002
}
  0
LWPOLYLINE
  5
212
102
{ACAD_REACTORS
330
241
102
}
100
AcDbEntity
  8
0
370
           0
  6
Continuous
 62
           7
100
AcDbPolyline
 90
        4
 70
           1
 10
-0.47
 20
1.41
 10
-0.49
 20
1.41
 10
-0.49
 20
1.39
 10
-0.47
 20
1.39
1001
TCAD
1000
TCW_CUSTOM_DATA
1002
{
1000
#$AUX@_ToolInfo Properties
1070
           8
1000
Insert^JLine^JRectangle@Line Rectangle
1002
}
  0
LWPOLYLINE
  5
213
102
{ACAD_REACTORS
330
241
102
}
100
AcDbEntity
  8
0
370
           0
  6
Continuous
 62
           7
100
AcDbPolyline
 90
        4
 70
           1
 10
-0.47
 20
1.45
 10
-0.49
 20
1.45
 10
-0.49
 20
1.43
 10
-0.47
 20
1.43
1001
TCAD
1000
TCW_CUSTOM_DATA
1002
{
1000
#$AUX@_ToolInfo Properties
1070
           8
1000
Insert^JLine^JRectangle@Line Rectangle
1002
}
  0
LWPOLYLINE
  5
214
102
{ACAD_REACTORS
330
241
102
}
100
AcDbEntity
  8
0
370
           0
  6
Continuous
 62
           7
100
AcDbPolyline
 90
        4
 70
           1
 10
-0.51
 20
1.45
 10
-0.53
 20
1.45
 10
-0.53
 20
1.43
 10
-0.51
 20
1.43
1001
TCAD
1000
TCW_CUSTOM_DATA
1002
{
1000
#$AUX@_ToolInfo Properties
1070
           8
1000
Insert^JLine^JRectangle@Line Rectangle
1002
}
  0
LWPOLYLINE
  5
215
102
{ACAD_REACTORS
330
241
102
}
100
AcDbEntity
  8
0
370
           0
  6
Continuous
 62
           7
100
AcDbPolyline
 90
        4
 70
           1
 10
-0.55
 20
1.45
 10
-0.57
 20
1.45
 10
-0.57
 20
1.43
 10
-0.55
 20
1.43
1001
TCAD
1000
TCW_CUSTOM_DATA
1002
{
1000
#$AUX@_ToolInfo Properties
1070
           8
1000
Insert^JLine^JRectangle@Line Rectangle
1002
}
  0
LWPOLYLINE
  5
216
102
{ACAD_REACTORS
330
241
102
}
100
AcDbEntity
  8
0
370
           0
  6
Continuous
 62
           7
100
AcDbPolyline
 90
        4
 70
           1
 10
-0.51
 20
1.41
 10
-0.53
 20
1.41
 10
-0.53
 20
1.39
 10
-0.51
 20
1.39
1001
TCAD
1000
TCW_CUSTOM_DATA
1002
{
1000
#$AUX@_ToolInfo Properties
1070
           8
1000
Insert^JLine^JRectangle@Line Rectangle
1002
}
  0
LWPOLYLINE
  5
217
102
{ACAD_REACTORS
330
241
102
}
100
AcDbEntity
  8
0
370
           0
  6
Continuous
 62
           7
100
AcDbPolyline
 90
        4
 70
           1
 10
-0.55
 20
1.41
 10
-0.57
 20
1.41
 10
-0.57
 20
1.39
 10
-0.55
 20
1.39
1001
TCAD
1000
TCW_CUSTOM_DATA
1002
{
1000
#$AUX@_ToolInfo Properties
1070
           8
1000
Insert^JLine^JRectangle@Line Rectangle
1002
}
  0
LWPOLYLINE
  5
218
102
{ACAD_REACTORS
330
241
102
}
100
AcDbEntity
  8
0
370
           0
  6
Continuous
 62
           7
100
AcDbPolyline
 90
        4
 70
           1
 10
-0.51
 20
1.37
 10
-0.53
 20
1.37
 10
-0.53
 20
1.35
 10
-0.51
 20
1.35
1001
TCAD
1000
TCW_CUSTOM_DATA
1002
{
1000
#$AUX@_ToolInfo Properties
1070
           8
1000
Insert^JLine^JRectangle@Line Rectangle
1002
}
  0
LWPOLYLINE
  5
219
102
{ACAD_REACTORS
330
241
102
}
100
AcDbEntity
  8
0
370
           0
  6
Continuous
 62
           7
100
AcDbPolyline
 90
        4
 70
           1
 10
-0.55
 20
1.37
 10
-0.57
 20
1.37
 10
-0.57
 20
1.35
 10
-0.55
 20
1.35
1001
TCAD
1000
TCW_CUSTOM_DATA
1002
{
1000
#$AUX@_ToolInfo Properties
1070
           8
1000
Insert^JLine^JRectangle@Line Rectangle
1002
}
  0
LWPOLYLINE
  5
21A
102
{ACAD_REACTORS
330
241
102
}
100
AcDbEntity
  8
0
370
           0
  6
Continuous
 62
           7
100
AcDbPolyline
 90
        4
 70
           1
 10
-0.51
 20
1.33
 10
-0.53
 20
1.33
 10
-0.53
 20
1.31
 10
-0.51
 20
1.31
1001
TCAD
1000
TCW_CUSTOM_DATA
1002
{
1000
#$AUX@_ToolInfo Properties
1070
           8
1000
Insert^JLine^JRectangle@Line Rectangle
1002
}
  0
LWPOLYLINE
  5
21B
102
{ACAD_REACTORS
330
241
102
}
100
AcDbEntity
  8
0
370
           0
  6
Continuous
 62
           7
100
AcDbPolyline
 90
        4
 70
           1
 10
-0.55
 20
1.33
 10
-0.57
 20
1.33
 10
-0.57
 20
1.31
 10
-0.55
 20
1.31
1001
TCAD
1000
TCW_CUSTOM_DATA
1002
{
1000
#$AUX@_ToolInfo Properties
1070
           8
1000
Insert^JLine^JRectangle@Line Rectangle
1002
}
  0
LWPOLYLINE
  5
21C
102
{ACAD_REACTORS
330
241
102
}
100
AcDbEntity
  8
0
370
           0
  6
Continuous
 62
           7
100
AcDbPolyline
 90
        4
 70
           1
 10
-0.51
 20
1.29
 10
-0.53
 20
1.29
 10
-0.53
 20
1.27
 10
-0.51
 20
1.27
1001
TCAD
1000
TCW_CUSTOM_DATA
1002
{
1000
#$AUX@_ToolInfo Properties
1070
           8
1000
Insert^JLine^JRectangle@Line Rectangle
1002
}
  0
LWPOLYLINE
  5
21D
102
{ACAD_REACTORS
330
241
102
}
100
AcDbEntity
  8
0
370
           0
  6
Continuous
 62
           7
100
AcDbPolyline
 90
        4
 70
           1
 10
-0.51
 20
1.25
 10
-0.53
 20
1.25
 10
-0.53
 20
1.23
 10
-0.51
 20
1.23
1001
TCAD
1000
TCW_CUSTOM_DATA
1002
{
1000
#$AUX@_ToolInfo Properties
1070
           8
1000
Insert^JLine^JRectangle@Line Rectangle
1002
}
  0
LWPOLYLINE
  5
21E
102
{ACAD_REACTORS
330
241
102
}
100
AcDbEntity
  8
0
370
           0
  6
Continuous
 62
           7
100
AcDbPolyline
 90
        4
 70
           1
 10
-0.51
 20
1.21
 10
-0.53
 20
1.21
 10
-0.53
 20
1.19
 10
-0.51
 20
1.19
1001
TCAD
1000
TCW_CUSTOM_DATA
1002
{
1000
#$AUX@_ToolInfo Properties
1070
           8
1000
Insert^JLine^JRectangle@Line Rectangle
1002
}
  0
LWPOLYLINE
  5
21F
102
{ACAD_REACTORS
330
241
102
}
100
AcDbEntity
  8
0
370
           0
  6
Continuous
 62
           7
100
AcDbPolyline
 90
        4
 70
           1
 10
-0.55
 20
1.21
 10
-0.57
 20
1.21
 10
-0.57
 20
1.19
 10
-0.55
 20
1.19
1001
TCAD
1000
TCW_CUSTOM_DATA
1002
{
1000
#$AUX@_ToolInfo Properties
1070
           8
1000
Insert^JLine^JRectangle@Line Rectangle
1002
}
  0
LWPOLYLINE
  5
220
102
{ACAD_REACTORS
330
241
102
}
100
AcDbEntity
  8
0
370
           0
  6
Continuous
 62
           7
100
AcDbPolyline
 90
        4
 70
           1
 10
-0.59
 20
1.21
 10
-0.61
 20
1.21
 10
-0.61
 20
1.19
 10
-0.59
 20
1.19
1001
TCAD
1000
TCW_CUSTOM_DATA
1002
{
1000
#$AUX@_ToolInfo Properties
1070
           8
1000
Insert^JLine^JRectangle@Line Rectangle
1002
}
  0
LWPOLYLINE
  5
221
102
{ACAD_REACTORS
330
241
102
}
100
AcDbEntity
  8
0
370
           0
  6
Continuous
 62
           7
100
AcDbPolyline
 90
        4
 70
           1
 10
-0.63
 20
1.21
 10
-0.65
 20
1.21
 10
-0.65
 20
1.19
 10
-0.63
 20
1.19
1001
TCAD
1000
TCW_CUSTOM_DATA
1002
{
1000
#$AUX@_ToolInfo Properties
1070
           8
1000
Insert^JLine^JRectangle@Line Rectangle
1002
}
  0
LWPOLYLINE
  5
222
102
{ACAD_REACTORS
330
241
102
}
100
AcDbEntity
  8
0
370
           0
  6
Continuous
 62
           7
100
AcDbPolyline
 90
        4
 70
           1
 10
-0.63
 20
1.25
 10
-0.65
 20
1.25
 10
-0.65
 20
1.23
 10
-0.63
 20
1.23
1001
TCAD
1000
TCW_CUSTOM_DATA
1002
{
1000
#$AUX@_ToolInfo Properties
1070
           8
1000
Insert^JLine^JRectangle@Line Rectangle
1002
}
  0
LWPOLYLINE
  5
223
102
{ACAD_REACTORS
330
241
102
}
100
AcDbEntity
  8
0
370
           0
  6
Continuous
 62
           7
100
AcDbPolyline
 90
        4
 70
           1
 10
-0.59
 20
1.25
 10
-0.61
 20
1.25
 10
-0.61
 20
1.23
 10
-0.59
 20
1.23
1001
TCAD
1000
TCW_CUSTOM_DATA
1002
{
1000
#$AUX@_ToolInfo Properties
1070
           8
1000
Insert^JLine^JRectangle@Line Rectangle
1002
}
  0
LWPOLYLINE
  5
224
102
{ACAD_REACTORS
330
241
102
}
100
AcDbEntity
  8
0
370
           0
  6
Continuous
 62
           7
100
AcDbPolyline
 90
        4
 70
           1
 10
-0.55
 20
1.25
 10
-0.57
 20
1.25
 10
-0.57
 20
1.23
 10
-0.55
 20
1.23
1001
TCAD
1000
TCW_CUSTOM_DATA
1002
{
1000
#$AUX@_ToolInfo Properties
1070
           8
1000
Insert^JLine^JRectangle@Line Rectangle
1002
}
  0
LWPOLYLINE
  5
225
102
{ACAD_REACTORS
330
241
102
}
100
AcDbEntity
  8
0
370
           0
  6
Continuous
 62
           7
100
AcDbPolyline
 90
        4
 70
           1
 10
-0.55
 20
1.29
 10
-0.57
 20
1.29
 10
-0.57
 20
1.27
 10
-0.55
 20
1.27
1001
TCAD
1000
TCW_CUSTOM_DATA
1002
{
1000
#$AUX@_ToolInfo Properties
1070
           8
1000
Insert^JLine^JRectangle@Line Rectangle
1002
}
  0
LWPOLYLINE
  5
226
102
{ACAD_REACTORS
330
241
102
}
100
AcDbEntity
  8
0
370
           0
  6
Continuous
 62
           7
100
AcDbPolyline
 90
        4
 70
           1
 10
-0.59
 20
1.29
 10
-0.61
 20
1.29
 10
-0.61
 20
1.27
 10
-0.59
 20
1.27
1001
TCAD
1000
TCW_CUSTOM_DATA
1002
{
1000
#$AUX@_ToolInfo Properties
1070
           8
1000
Insert^JLine^JRectangle@Line Rectangle
1002
}
  0
LWPOLYLINE
  5
227
102
{ACAD_REACTORS
330
241
102
}
100
AcDbEntity
  8
0
370
           0
  6
Continuous
 62
           7
100
AcDbPolyline
 90
        4
 70
           1
 10
-0.63
 20
1.29
 10
-0.65
 20
1.29
 10
-0.65
 20
1.27
 10
-0.63
 20
1.27
1001
TCAD
1000
TCW_CUSTOM_DATA
1002
{
1000
#$AUX@_ToolInfo Properties
1070
           8
1000
Insert^JLine^JRectangle@Line Rectangle
1002
}
  0
LWPOLYLINE
  5
228
102
{ACAD_REACTORS
330
241
102
}
100
AcDbEntity
  8
0
370
           0
  6
Continuous
 62
           7
100
AcDbPolyline
 90
        4
 70
           1
 10
-0.67
 20
1.29
 10
-0.69
 20
1.29
 10
-0.69
 20
1.27
 10
-0.67
 20
1.27
1001
TCAD
1000
TCW_CUSTOM_DATA
1002
{
1000
#$AUX@_ToolInfo Properties
1070
           8
1000
Insert^JLine^JRectangle@Line Rectangle
1002
}
  0
LWPOLYLINE
  5
229
102
{ACAD_REACTORS
330
241
102
}
100
AcDbEntity
  8
0
370
           0
  6
Continuous
 62
           7
100
AcDbPolyline
 90
        4
 70
           1
 10
-0.67
 20
1.25
 10
-0.69
 20
1.25
 10
-0.69
 20
1.23
 10
-0.67
 20
1.23
1001
TCAD
1000
TCW_CUSTOM_DATA
1002
{
1000
#$AUX@_ToolInfo Properties
1070
           8
1000
Insert^JLine^JRectangle@Line Rectangle
1002
}
  0
LWPOLYLINE
  5
22A
102
{ACAD_REACTORS
330
241
102
}
100
AcDbEntity
  8
0
370
           0
  6
Continuous
 62
           7
100
AcDbPolyline
 90
        4
 70
           1
 10
-0.59
 20
1.33
 10
-0.61
 20
1.33
 10
-0.61
 20
1.31
 10
-0.59
 20
1.31
1001
TCAD
1000
TCW_CUSTOM_DATA
1002
{
1000
#$AUX@_ToolInfo Properties
1070
           8
1000
Insert^JLine^JRectangle@Line Rectangle
1002
}
  0
LWPOLYLINE
  5
22B
102
{ACAD_REACTORS
330
241
102
}
100
AcDbEntity
  8
0
370
           0
  6
Continuous
 62
           7
100
AcDbPolyline
 90
        4
 70
           1
 10
-0.59
 20
1.37
 10
-0.61
 20
1.37
 10
-0.61
 20
1.35
 10
-0.59
 20
1.35
1001
TCAD
1000
TCW_CUSTOM_DATA
1002
{
1000
#$AUX@_ToolInfo Properties
1070
           8
1000
Insert^JLine^JRectangle@Line Rectangle
1002
}
  0
LWPOLYLINE
  5
22C
102
{ACAD_REACTORS
330
241
102
}
100
AcDbEntity
  8
0
370
           0
  6
Continuous
 62
           7
100
AcDbPolyline
 90
        4
 70
           1
 10
-0.59
 20
1.41
 10
-0.61
 20
1.41
 10
-0.61
 20
1.39
 10
-0.59
 20
1.39
1001
TCAD
1000
TCW_CUSTOM_DATA
1002
{
1000
#$AUX@_ToolInfo Properties
1070
           8
1000
Insert^JLine^JRectangle@Line Rectangle
1002
}
  0
LWPOLYLINE
  5
22D
102
{ACAD_REACTORS
330
241
102
}
100
AcDbEntity
  8
0
370
           0
  6
Continuous
 62
           7
100
AcDbPolyline
 90
        4
 70
           1
 10
-0.59
 20
1.45
 10
-0.61
 20
1.45
 10
-0.61
 20
1.43
 10
-0.59
 20
1.43
1001
TCAD
1000
TCW_CUSTOM_DATA
1002
{
1000
#$AUX@_ToolInfo Properties
1070
           8
1000
Insert^JLine^JRectangle@Line Rectangle
1002
}
  0
LWPOLYLINE
  5
22E
102
{ACAD_REACTORS
330
241
102
}
100
AcDbEntity
  8
0
370
           0
  6
Continuous
 62
           7
100
AcDbPolyline
 90
        4
 70
           1
 10
-0.63
 20
1.45
 10
-0.65
 20
1.45
 10
-0.65
 20
1.43
 10
-0.63
 20
1.43
1001
TCAD
1000
TCW_CUSTOM_DATA
1002
{
1000
#$AUX@_ToolInfo Properties
1070
           8
1000
Insert^JLine^JRectangle@Line Rectangle
1002
}
  0
LWPOLYLINE
  5
22F
102
{ACAD_REACTORS
330
241
102
}
100
AcDbEntity
  8
0
370
           0
  6
Continuous
 62
           7
100
AcDbPolyline
 90
        4
 70
           1
 10
-0.63
 20
1.41
 10
-0.65
 20
1.41
 10
-0.65
 20
1.39
 10
-0.63
 20
1.39
1001
TCAD
1000
TCW_CUSTOM_DATA
1002
{
1000
#$AUX@_ToolInfo Properties
1070
           8
1000
Insert^JLine^JRectangle@Line Rectangle
1002
}
  0
LWPOLYLINE
  5
230
102
{ACAD_REACTORS
330
241
102
}
100
AcDbEntity
  8
0
370
           0
  6
Continuous
 62
           7
100
AcDbPolyline
 90
        4
 70
           1
 10
-0.63
 20
1.37
 10
-0.65
 20
1.37
 10
-0.65
 20
1.35
 10
-0.63
 20
1.35
1001
TCAD
1000
TCW_CUSTOM_DATA
1002
{
1000
#$AUX@_ToolInfo Properties
1070
           8
1000
Insert^JLine^JRectangle@Line Rectangle
1002
}
  0
LWPOLYLINE
  5
231
102
{ACAD_REACTORS
330
241
102
}
100
AcDbEntity
  8
0
370
           0
  6
Continuous
 62
           7
100
AcDbPolyline
 90
        4
 70
           1
 10
-0.63
 20
1.33
 10
-0.65
 20
1.33
 10
-0.65
 20
1.31
 10
-0.63
 20
1.31
1001
TCAD
1000
TCW_CUSTOM_DATA
1002
{
1000
#$AUX@_ToolInfo Properties
1070
           8
1000
Insert^JLine^JRectangle@Line Rectangle
1002
}
  0
LWPOLYLINE
  5
232
102
{ACAD_REACTORS
330
241
102
}
100
AcDbEntity
  8
0
370
           0
  6
Continuous
 62
           7
100
AcDbPolyline
 90
        4
 70
           1
 10
-0.67
 20
1.33
 10
-0.69
 20
1.33
 10
-0.69
 20
1.31
 10
-0.67
 20
1.31
1001
TCAD
1000
TCW_CUSTOM_DATA
1002
{
1000
#$AUX@_ToolInfo Properties
1070
           8
1000
Insert^JLine^JRectangle@Line Rectangle
1002
}
  0
LWPOLYLINE
  5
233
102
{ACAD_REACTORS
330
241
102
}
100
AcDbEntity
  8
0
370
           0
  6
Continuous
 62
           7
100
AcDbPolyline
 90
        4
 70
           1
 10
-0.67
 20
1.37
 10
-0.69
 20
1.37
 10
-0.69
 20
1.35
 10
-0.67
 20
1.35
1001
TCAD
1000
TCW_CUSTOM_DATA
1002
{
1000
#$AUX@_ToolInfo Properties
1070
           8
1000
Insert^JLine^JRectangle@Line Rectangle
1002
}
  0
LWPOLYLINE
  5
234
102
{ACAD_REACTORS
330
241
102
}
100
AcDbEntity
  8
0
370
           0
  6
Continuous
 62
           7
100
AcDbPolyline
 90
        4
 70
           1
 10
-0.67
 20
1.41
 10
-0.69
 20
1.41
 10
-0.69
 20
1.39
 10
-0.67
 20
1.39
1001
TCAD
1000
TCW_CUSTOM_DATA
1002
{
1000
#$AUX@_ToolInfo Properties
1070
           8
1000
Insert^JLine^JRectangle@Line Rectangle
1002
}
  0
LWPOLYLINE
  5
235
102
{ACAD_REACTORS
330
241
102
}
100
AcDbEntity
  8
0
370
           0
  6
Continuous
 62
           7
100
AcDbPolyline
 90
        4
 70
           1
 10
-0.67
 20
1.45
 10
-0.69
 20
1.45
 10
-0.69
 20
1.43
 10
-0.67
 20
1.43
1001
TCAD
1000
TCW_CUSTOM_DATA
1002
{
1000
#$AUX@_ToolInfo Properties
1070
           8
1000
Insert^JLine^JRectangle@Line Rectangle
1002
}
  0
LWPOLYLINE
  5
236
102
{ACAD_REACTORS
330
241
102
}
100
AcDbEntity
  8
0
370
           0
  6
Continuous
 62
           7
100
AcDbPolyline
 90
        6
 70
           0
 10
-0.67
 20
1.21
 10
-0.69
 20
1.21
 10
-0.69
 20
1.195115057223
 10
-0.687046820336
 20
1.19
 10
-0.67
 20
1.19
 10
-0.67
 20
1.21
1001
TCAD
1000
TCW_CUSTOM_DATA
1002
{
1000
#$AUX@_ToolInfo Properties
1070
           8
1000
Insert^JLine^JPolyline@Line Polyline
1002
}
  0
LWPOLYLINE
  5
237
102
{ACAD_REACTORS
330
241
102
}
100
AcDbEntity
  8
0
370
           0
  6
Continuous
 62
           7
100
AcDbPolyline
 90
        4
 70
           0
 10
-0.67
 20
1.17
 10
-0.675499814952
 20
1.17
 10
-0.67
 20
1.160474041071
 10
-0.67
 20
1.17
1001
TCAD
1000
TCW_CUSTOM_DATA
1002
{
1000
#$AUX@_ToolInfo Properties
1070
           8
1000
Insert^JLine^JPolyline@Line Polyline
1002
}
  0
LWPOLYLINE
  5
238
102
{ACAD_REACTORS
330
241
102
}
100
AcDbEntity
  8
0
370
           0
  6
Continuous
 62
           7
100
AcDbPolyline
 90
        6
 70
           0
 10
-0.63
 20
1.13
 10
-0.65
 20
1.13
 10
-0.65
 20
1.12583302492
 10
-0.640858798801
 20
1.11
 10
-0.63
 20
1.11
 10
-0.63
 20
1.13
1001
TCAD
1000
TCW_CUSTOM_DATA
1002
{
1000
#$AUX@_ToolInfo Properties
1070
           8
1000
Insert^JLine^JPolyline@Line Polyline
1002
}
  0
LWPOLYLINE
  5
239
102
{ACAD_REACTORS
330
241
102
}
100
AcDbEntity
  8
0
370
           0
  6
Continuous
 62
           7
100
AcDbPolyline
 90
        5
 70
           0
 10
-0.606217782649
 20
1.05
 10
-0.59
 20
1.05
 10
-0.59
 20
1.03
 10
-0.594670777265
 20
1.03
 10
-0.606217782649
 20
1.05
1001
TCAD
1000
TCW_CUSTOM_DATA
1002
{
1000
#$AUX@_ToolInfo Properties
1070
           8
1000
Insert^JLine^JPolyline@Line Polyline
1002
}
  0
LWPOLYLINE
  5
23A
102
{ACAD_REACTORS
330
241
102
}
100
AcDbEntity
  8
0
370
           0
  6
Continuous
 62
           7
100
AcDbPolyline
 90
        5
 70
           0
 10
-0.55
 20
1.045225913379
 10
-0.57
 20
1.034455030439
 10
-0.57
 20
1.05
 10
-0.55
 20
1.05
 10
-0.55
 20
1.045225913379
1001
TCAD
1000
TCW_CUSTOM_DATA
1002
{
1000
#$AUX@_ToolInfo Properties
1070
           8
1000
Insert^JLine^JPolyline@Line Polyline
1002
}
  0
LWPOLYLINE
  5
23B
102
{ACAD_REACTORS
330
241
102
}
100
AcDbEntity
  8
0
370
           0
  6
Continuous
 62
           7
100
AcDbPolyline
 90
        5
 70
           0
 10
-0.47
 20
1.08355766344
 10
-0.47
 20
1.09
 10
-0.49
 20
1.09
 10
-0.49
 20
1.07466143971
 10
-0.47
 20
1.08355766344
1001
TCAD
1000
TCW_CUSTOM_DATA
1002
{
1000
#$AUX@_ToolInfo Properties
1070
           8
1000
Insert^JLine^JPolyline@Line Polyline
1002
}
  0
LWPOLYLINE
  5
23C
102
{ACAD_REACTORS
330
241
102
}
100
AcDbEntity
  8
0
370
           0
  6
Continuous
 62
           7
100
AcDbPolyline
 90
        6
 70
           0
 10
-0.41
 20
1.11
 10
-0.40360526508
 20
1.11
 10
-0.39
 20
1.114852999278
 10
-0.39
 20
1.13
 10
-0.41
 20
1.13
 10
-0.41
 20
1.11
1001
TCAD
1000
TCW_CUSTOM_DATA
1002
{
1000
#$AUX@_ToolInfo Properties
1070
           8
1000
Insert^JLine^JPolyline@Line Polyline
1002
}
  0
LWPOLYLINE
  5
23D
102
{ACAD_REACTORS
330
241
102
}
100
AcDbEntity
  8
0
370
           0
  6
Continuous
 62
           7
100
AcDbPolyline
 90
        5
 70
           0
 10
-0.37
 20
1.13
 10
-0.37
 20
1.12164932577
 10
-0.35
 20
1.128050180621
 10
-0.35
 20
1.13
 10
-0.37
 20
1.13
1001
TCAD
1000
TCW_CUSTOM_DATA
1002
{
1000
#$AUX@_ToolInfo Properties
1070
           8
1000
Insert^JLine^JPolyline@Line Polyline
1002
}
  0
LWPOLYLINE
  5
23E
102
{ACAD_REACTORS
330
241
102
}
100
AcDbEntity
  8
0
370
           0
  6
Continuous
 62
           7
100
AcDbPolyline
 90
        5
 70
           0
 10
-0.27
 20
1.15
 10
-0.29
 20
1.15
 10
-0.29
 20
1.17
 10
-0.27
 20
1.17
 10
-0.27
 20
1.15
1001
TCAD
1000
TCW_CUSTOM_DATA
1002
{
1000
#$AUX@_ToolInfo Properties
1070
           8
1000
Insert^JLine^JPolyline@Line Polyline
1002
}
  0
LWPOLYLINE
  5
23F
102
{ACAD_REACTORS
330
241
102
}
100
AcDbEntity
  8
0
370
           0
  6
Continuous
 62
           7
100
AcDbPolyline
 90
        5
 70
           0
 10
-0.25
 20
1.154101642054
 10
-0.23
 20
1.158489192871
 10
-0.23
 20
1.17
 10
-0.25
 20
1.17
 10
-0.25
 20
1.154338429578
1001
TCAD
1000
TCW_CUSTOM_DATA
1002
{
1000
#$AUX@_ToolInfo Properties
1070
           8
1000
Insert^JLine^JPolyline@Line Polyline
1002
}
  0
LWPOLYLINE
  5
240
102
{ACAD_REACTORS
330
241
102
}
100
AcDbEntity
  8
0
370
           0
  6
Continuous
 62
           7
100
AcDbPolyline
 90
        5
 70
           0
 10
-0.21
 20
1.17
 10
-0.21
 20
1.162281037443
 10
-0.19
 20
1.165717465769
 10
-0.19
 20
1.17
 10
-0.21
 20
1.17
1001
TCAD
1000
TCW_CUSTOM_DATA
1002
{
1000
#$AUX@_ToolInfo Properties
1070
           8
1000
Insert^JLine^JPolyline@Line Polyline
1002
}
  0
XLINE
  5
242
100
AcDbEntity
  8
$CONSTRUCTION
100
AcDbXline
 10
-1.6210081416
 20
-0.2
 30
0.0
 11
1.0
 21
0.0
 31
0.0
1001
TCAD
1000
TCW_CUSTOM_DATA
1002
{
1000
#$AUX@_ToolInfo Properties
1070
           8
1000
Insert^JConstruction^JHorizontalLine@Construction HorizontalLine
1002
}
  0
XLINE
  5
243
100
AcDbEntity
  8
$CONSTRUCTION
100
AcDbXline
 10
-1.6210081416
 20
-0.8693
 30
0.0
 11
1.0
 21
0.0
 31
0.0
1001
TCAD
1000
TCW_CUSTOM_DATA
1002
{
1000
#$AUX@_ToolInfo Properties
1070
           8
1000
Insert^JConstruction^JHorizontalLine@Construction HorizontalLine
1002
}
  0
XLINE
  5
244
100
AcDbEntity
  8
$CONSTRUCTION
100
AcDbXline
 10
-1.6210081416
 20
-1.1842
 30
0.0
 11
1.0
 21
0.0
 31
0.0
1001
TCAD
1000
TCW_CUSTOM_DATA
1002
{
1000
#$AUX@_ToolInfo Properties
1070
           8
1000
Insert^JConstruction^JHorizontalLine@Construction HorizontalLine
1002
}
  0
LWPOLYLINE
  5
245
100
AcDbEntity
  8
0
370
           0
  6
Continuous
 62
           7
100
AcDbPolyline
 90
        4
 70
           1
 10
-1.1811
 20
-0.8693
 10
1.1811
 20
-0.8693
 10
1.1811
 20
-1.1842
 10
-1.1811
 20
-1.1842
1001
TCAD
1000
TCW_CUSTOM_DATA
1002
{
1000
#$AUX@_ToolInfo Properties
1070
           8
1000
Insert^JLine^JRectangle@Line Rectangle
1002
}
  0
XLINE
  5
246
100
AcDbEntity
  8
$CONSTRUCTION
100
AcDbXline
 10
-0.10131300885
 20
1.02286260441
 30
0.0
 11
1.0
 21
0.0
 31
0.0
1001
TCAD
1000
TCW_CUSTOM_DATA
1002
{
1000
#$AUX@_ToolInfo Properties
1070
           8
1000
Insert^JConstruction^JHorizontalLine@Construction HorizontalLine
1002
}
  0
XLINE
  5
247
100
AcDbEntity
  8
$CONSTRUCTION
100
AcDbXline
 10
-0.8105040708
 20
2.3622
 30
0.0
 11
1.0
 21
0.0
 31
0.0
1001
TCAD
1000
TCW_CUSTOM_DATA
1002
{
1000
#$AUX@_ToolInfo Properties
1070
           8
1000
Insert^JConstruction^JHorizontalLine@Construction HorizontalLine
1002
}
  0
XLINE
  5
248
100
AcDbEntity
  8
$CONSTRUCTION
100
AcDbXline
 10
2.5
 20
-2.870041411562
 30
0.0
 11
0.0
 21
1.0
 31
0.0
1001
TCAD
1000
TCW_CUSTOM_DATA
1002
{
1000
#$AUX@_ToolInfo Properties
1070
           8
1000
Insert^JConstruction^JVerticalLine@Construction VerticalLine
1002
}
  0
XLINE
  5
249
100
AcDbEntity
  8
$CONSTRUCTION
100
AcDbXline
 10
3.1693
 20
-2.870041411562
 30
0.0
 11
0.0
 21
1.0
 31
0.0
1001
TCAD
1000
TCW_CUSTOM_DATA
1002
{
1000
#$AUX@_ToolInfo Properties
1070
           8
1000
Insert^JConstruction^JVerticalLine@Construction VerticalLine
1002
}
  0
XLINE
  5
24A
100
AcDbEntity
  8
$CONSTRUCTION
100
AcDbXline
 10
3.4842
 20
-2.870041411562
 30
0.0
 11
0.0
 21
1.0
 31
0.0
1001
TCAD
1000
TCW_CUSTOM_DATA
1002
{
1000
#$AUX@_ToolInfo Properties
1070
           8
1000
Insert^JConstruction^JVerticalLine@Construction VerticalLine
1002
}
  0
LWPOLYLINE
  5
24B
100
AcDbEntity
  8
0
370
           0
  6
Continuous
 62
           7
100
AcDbPolyline
 90
        4
 70
           1
 10
3.1693
 20
1.02286260441
 10
3.4842
 20
1.02286260441
 10
3.4842
 20
2.3622
 10
3.1693
 20
2.3622
1001
TCAD
1000
TCW_CUSTOM_DATA
1002
{
1000
#$AUX@_ToolInfo Properties
1070
           8
1000
Insert^JLine^JRectangle@Line Rectangle
1002
}
  0
LWPOLYLINE
  5
24C
100
AcDbEntity
  8
0
370
           0
  6
Continuous
 62
           7
100
AcDbPolyline
 90
        4
 70
           1
 10
3.1693
 20
1.03
 10
2.5
 20
1.03
 10
2.5
 20
1.05
 10
3.1693
 20
1.05
1001
TCAD
1000
TCW_CUSTOM_DATA
1002
{
1000
#$AUX@_ToolInfo Properties
1070
           8
1000
Insert^JLine^JRectangle@Line Rectangle
1002
}
  0
LWPOLYLINE
  5
24D
100
AcDbEntity
  8
0
370
           0
  6
Continuous
 62
           7
100
AcDbPolyline
 90
        4
 70
           1
 10
2.5
 20
1.07
 10
3.1693
 20
1.07
 10
3.1693
 20
1.09
 10
2.5
 20
1.09
1001
TCAD
1000
TCW_CUSTOM_DATA
1002
{
1000
#$AUX@_ToolInfo Properties
1070
           8
1000
Insert^JLine^JRectangle@Line Rectangle
1002
}
  0
LWPOLYLINE
  5
24E
100
AcDbEntity
  8
0
370
           0
  6
Continuous
 62
           7
100
AcDbPolyline
 90
        4
 70
           1
 10
3.1693
 20
1.11
 10
2.5
 20
1.11
 10
2.5
 20
1.13
 10
3.1693
 20
1.13
1001
TCAD
1000
TCW_CUSTOM_DATA
1002
{
1000
#$AUX@_ToolInfo Properties
1070
           8
1000
Insert^JLine^JRectangle@Line Rectangle
1002
}
  0
LWPOLYLINE
  5
24F
100
AcDbEntity
  8
0
370
           0
  6
Continuous
 62
           7
100
AcDbPolyline
 90
        4
 70
           1
 10
2.5
 20
1.15
 10
3.1693
 20
1.15
 10
3.1693
 20
1.17
 10
2.5
 20
1.17
1001
TCAD
1000
TCW_CUSTOM_DATA
1002
{
1000
#$AUX@_ToolInfo Properties
1070
           8
1000
Insert^JLine^JRectangle@Line Rectangle
1002
}
  0
LWPOLYLINE
  5
250
100
AcDbEntity
  8
0
370
           0
  6
Continuous
 62
           7
100
AcDbPolyline
 90
        4
 70
           1
 10
3.1693
 20
1.19
 10
2.5
 20
1.19
 10
2.5
 20
1.21
 10
3.1693
 20
1.21
1001
TCAD
1000
TCW_CUSTOM_DATA
1002
{
1000
#$AUX@_ToolInfo Properties
1070
           8
1000
Insert^JLine^JRectangle@Line Rectangle
1002
}
  0
LWPOLYLINE
  5
251
100
AcDbEntity
  8
0
370
           0
  6
Continuous
 62
           7
100
AcDbPolyline
 90
        4
 70
           1
 10
2.5
 20
1.23
 10
3.1693
 20
1.23
 10
3.1693
 20
1.25
 10
2.5
 20
1.25
1001
TCAD
1000
TCW_CUSTOM_DATA
1002
{
1000
#$AUX@_ToolInfo Properties
1070
           8
1000
Insert^JLine^JRectangle@Line Rectangle
1002
}
  0
LWPOLYLINE
  5
252
100
AcDbEntity
  8
0
370
           0
  6
Continuous
 62
           7
100
AcDbPolyline
 90
        4
 70
           1
 10
3.1693
 20
1.27
 10
2.5
 20
1.27
 10
2.5
 20
1.29
 10
3.1693
 20
1.29
1001
TCAD
1000
TCW_CUSTOM_DATA
1002
{
1000
#$AUX@_ToolInfo Properties
1070
           8
1000
Insert^JLine^JRectangle@Line Rectangle
1002
}
  0
LWPOLYLINE
  5
253
100
AcDbEntity
  8
0
370
           0
  6
Continuous
 62
           7
100
AcDbPolyline
 90
        4
 70
           1
 10
2.5
 20
1.31
 10
3.1693
 20
1.31
 10
3.1693
 20
1.33
 10
2.5
 20
1.33
1001
TCAD
1000
TCW_CUSTOM_DATA
1002
{
1000
#$AUX@_ToolInfo Properties
1070
           8
1000
Insert^JLine^JRectangle@Line Rectangle
1002
}
  0
LWPOLYLINE
  5
254
100
AcDbEntity
  8
0
370
           0
  6
Continuous
 62
           7
100
AcDbPolyline
 90
        4
 70
           1
 10
3.1693
 20
1.35
 10
2.5
 20
1.35
 10
2.5
 20
1.37
 10
3.1693
 20
1.37
1001
TCAD
1000
TCW_CUSTOM_DATA
1002
{
1000
#$AUX@_ToolInfo Properties
1070
           8
1000
Insert^JLine^JRectangle@Line Rectangle
1002
}
  0
LWPOLYLINE
  5
255
100
AcDbEntity
  8
0
370
           0
  6
Continuous
 62
           7
100
AcDbPolyline
 90
        4
 70
           1
 10
2.5
 20
1.39
 10
3.1693
 20
1.39
 10
3.1693
 20
1.41
 10
2.5
 20
1.41
1001
TCAD
1000
TCW_CUSTOM_DATA
1002
{
1000
#$AUX@_ToolInfo Properties
1070
           8
1000
Insert^JLine^JRectangle@Line Rectangle
1002
}
  0
LWPOLYLINE
  5
256
100
AcDbEntity
  8
0
370
           0
  6
Continuous
 62
           7
100
AcDbPolyline
 90
        4
 70
           1
 10
3.1693
 20
1.43
 10
2.5
 20
1.43
 10
2.5
 20
1.45
 10
3.1693
 20
1.45
1001
TCAD
1000
TCW_CUSTOM_DATA
1002
{
1000
#$AUX@_ToolInfo Properties
1070
           8
1000
Insert^JLine^JRectangle@Line Rectangle
1002
}
  0
LWPOLYLINE
  5
257
102
{ACAD_REACTORS
330
26C
102
}
100
AcDbEntity
  8
0
370
           0
  6
Continuous
 62
           7
100
AcDbPolyline
 90
        4
 70
           1
 10
-0.837157890325
 20
-0.2
 10
-0.83
 20
-0.2
 10
-0.83
 20
-0.8693
 10
-0.837157890325
 20
-0.8693
1001
TCAD
1000
TCW_CUSTOM_DATA
1002
{
1000
#$AUX@_ToolInfo Properties
1070
           8
1000
Insert^JLine^JRectangle@Line Rectangle
1002
}
  0
LWPOLYLINE
  5
258
102
{ACAD_REACTORS
330
26C
102
}
100
AcDbEntity
  8
0
370
           0
  6
Continuous
 62
           7
100
AcDbPolyline
 90
        4
 70
           1
 10
-0.81
 20
-0.8693
 10
-0.79
 20
-0.8693
 10
-0.79
 20
-0.2
 10
-0.81
 20
-0.2
1001
TCAD
1000
TCW_CUSTOM_DATA
1002
{
1000
#$AUX@_ToolInfo Properties
1070
           8
1000
Insert^JLine^JRectangle@Line Rectangle
1002
}
  0
LWPOLYLINE
  5
259
102
{ACAD_REACTORS
330
26C
102
}
100
AcDbEntity
  8
0
370
           0
  6
Continuous
 62
           7
100
AcDbPolyline
 90
        4
 70
           1
 10
-0.77
 20
-0.2
 10
-0.75
 20
-0.2
 10
-0.75
 20
-0.8693
 10
-0.77
 20
-0.8693
1001
TCAD
1000
TCW_CUSTOM_DATA
1002
{
1000
#$AUX@_ToolInfo Properties
1070
           8
1000
Insert^JLine^JRectangle@Line Rectangle
1002
}
  0
LWPOLYLINE
  5
25A
102
{ACAD_REACTORS
330
26C
102
}
100
AcDbEntity
  8
0
370
           0
  6
Continuous
 62
           7
100
AcDbPolyline
 90
        4
 70
           1
 10
-0.73
 20
-0.2
 10
-0.71
 20
-0.2
 10
-0.71
 20
-0.8693
 10
-0.73
 20
-0.8693
1001
TCAD
1000
TCW_CUSTOM_DATA
1002
{
1000
#$AUX@_ToolInfo Properties
1070
           8
1000
Insert^JLine^JRectangle@Line Rectangle
1002
}
  0
LWPOLYLINE
  5
25B
102
{ACAD_REACTORS
330
26C
102
}
100
AcDbEntity
  8
0
370
           0
  6
Continuous
 62
           7
100
AcDbPolyline
 90
        4
 70
           1
 10
-0.69
 20
-0.8693
 10
-0.67
 20
-0.8693
 10
-0.67
 20
-0.2
 10
-0.69
 20
-0.2
1001
TCAD
1000
TCW_CUSTOM_DATA
1002
{
1000
#$AUX@_ToolInfo Properties
1070
           8
1000
Insert^JLine^JRectangle@Line Rectangle
1002
}
  0
LWPOLYLINE
  5
25C
102
{ACAD_REACTORS
330
26C
102
}
100
AcDbEntity
  8
0
370
           0
  6
Continuous
 62
           7
100
AcDbPolyline
 90
        4
 70
           1
 10
-0.65
 20
-0.2
 10
-0.63
 20
-0.2
 10
-0.63
 20
-0.8693
 10
-0.65
 20
-0.8693
1001
TCAD
1000
TCW_CUSTOM_DATA
1002
{
1000
#$AUX@_ToolInfo Properties
1070
           8
1000
Insert^JLine^JRectangle@Line Rectangle
1002
}
  0
LWPOLYLINE
  5
25D
102
{ACAD_REACTORS
330
26C
102
}
100
AcDbEntity
  8
0
370
           0
  6
Continuous
 62
           7
100
AcDbPolyline
 90
        4
 70
           1
 10
-0.61
 20
-0.8693
 10
-0.59
 20
-0.8693
 10
-0.59
 20
-0.2
 10
-0.61
 20
-0.2
1001
TCAD
1000
TCW_CUSTOM_DATA
1002
{
1000
#$AUX@_ToolInfo Properties
1070
           8
1000
Insert^JLine^JRectangle@Line Rectangle
1002
}
  0
LWPOLYLINE
  5
25E
102
{ACAD_REACTORS
330
26C
102
}
100
AcDbEntity
  8
0
370
           0
  6
Continuous
 62
           7
100
AcDbPolyline
 90
        4
 70
           1
 10
-0.57
 20
-0.2
 10
-0.55
 20
-0.2
 10
-0.55
 20
-0.8693
 10
-0.57
 20
-0.8693
1001
TCAD
1000
TCW_CUSTOM_DATA
1002
{
1000
#$AUX@_ToolInfo Properties
1070
           8
1000
Insert^JLine^JRectangle@Line Rectangle
1002
}
  0
LWPOLYLINE
  5
25F
102
{ACAD_REACTORS
330
26C
102
}
100
AcDbEntity
  8
0
370
           0
  6
Continuous
 62
           7
100
AcDbPolyline
 90
        4
 70
           1
 10
-0.53
 20
-0.8693
 10
-0.51
 20
-0.8693
 10
-0.51
 20
-0.2
 10
-0.53
 20
-0.2
1001
TCAD
1000
TCW_CUSTOM_DATA
1002
{
1000
#$AUX@_ToolInfo Properties
1070
           8
1000
Insert^JLine^JRectangle@Line Rectangle
1002
}
  0
LWPOLYLINE
  5
260
102
{ACAD_REACTORS
330
26C
102
}
100
AcDbEntity
  8
0
370
           0
  6
Continuous
 62
           7
100
AcDbPolyline
 90
        4
 70
           1
 10
-0.49
 20
-0.2
 10
-0.47
 20
-0.2
 10
-0.47
 20
-0.8693
 10
-0.49
 20
-0.8693
1001
TCAD
1000
TCW_CUSTOM_DATA
1002
{
1000
#$AUX@_ToolInfo Properties
1070
           8
1000
Insert^JLine^JRectangle@Line Rectangle
1002
}
  0
LWPOLYLINE
  5
261
102
{ACAD_REACTORS
330
26C
102
}
100
AcDbEntity
  8
0
370
           0
  6
Continuous
 62
           7
100
AcDbPolyline
 90
        4
 70
           1
 10
-0.45
 20
-0.8693
 10
-0.43
 20
-0.8693
 10
-0.43
 20
-0.2
 10
-0.45
 20
-0.2
1001
TCAD
1000
TCW_CUSTOM_DATA
1002
{
1000
#$AUX@_ToolInfo Properties
1070
           8
1000
Insert^JLine^JRectangle@Line Rectangle
1002
}
  0
LWPOLYLINE
  5
262
102
{ACAD_REACTORS
330
26C
102
}
100
AcDbEntity
  8
0
370
           0
  6
Continuous
 62
           7
100
AcDbPolyline
 90
        4
 70
           1
 10
-0.41
 20
-0.2
 10
-0.39
 20
-0.2
 10
-0.39
 20
-0.8693
 10
-0.41
 20
-0.8693
1001
TCAD
1000
TCW_CUSTOM_DATA
1002
{
1000
#$AUX@_ToolInfo Properties
1070
           8
1000
Insert^JLine^JRectangle@Line Rectangle
1002
}
  0
LWPOLYLINE
  5
263
102
{ACAD_REACTORS
330
26C
102
}
100
AcDbEntity
  8
0
370
           0
  6
Continuous
 62
           7
100
AcDbPolyline
 90
        4
 70
           1
 10
-0.37
 20
-0.2
 10
-0.35
 20
-0.2
 10
-0.35
 20
-0.8693
 10
-0.37
 20
-0.8693
1001
TCAD
1000
TCW_CUSTOM_DATA
1002
{
1000
#$AUX@_ToolInfo Properties
1070
           8
1000
Insert^JLine^JRectangle@Line Rectangle
1002
}
  0
LWPOLYLINE
  5
264
102
{ACAD_REACTORS
330
26C
102
}
100
AcDbEntity
  8
0
370
           0
  6
Continuous
 62
           7
100
AcDbPolyline
 90
        4
 70
           1
 10
-0.33
 20
-0.2
 10
-0.31
 20
-0.2
 10
-0.31
 20
-0.8693
 10
-0.33
 20
-0.8693
1001
TCAD
1000
TCW_CUSTOM_DATA
1002
{
1000
#$AUX@_ToolInfo Properties
1070
           8
1000
Insert^JLine^JRectangle@Line Rectangle
1002
}
  0
LWPOLYLINE
  5
265
102
{ACAD_REACTORS
330
26C
102
}
100
AcDbEntity
  8
0
370
           0
  6
Continuous
 62
           7
100
AcDbPolyline
 90
        4
 70
           1
 10
-0.29
 20
-0.8693
 10
-0.27
 20
-0.8693
 10
-0.27
 20
-0.2
 10
-0.29
 20
-0.2
1001
TCAD
1000
TCW_CUSTOM_DATA
1002
{
1000
#$AUX@_ToolInfo Properties
1070
           8
1000
Insert^JLine^JRectangle@Line Rectangle
1002
}
  0
LWPOLYLINE
  5
266
102
{ACAD_REACTORS
330
26C
102
}
100
AcDbEntity
  8
0
370
           0
  6
Continuous
 62
           7
100
AcDbPolyline
 90
        4
 70
           1
 10
-0.25
 20
-0.2
 10
-0.23
 20
-0.2
 10
-0.23
 20
-0.8693
 10
-0.25
 20
-0.8693
1001
TCAD
1000
TCW_CUSTOM_DATA
1002
{
1000
#$AUX@_ToolInfo Properties
1070
           8
1000
Insert^JLine^JRectangle@Line Rectangle
1002
}
  0
LWPOLYLINE
  5
267
102
{ACAD_REACTORS
330
26C
102
}
100
AcDbEntity
  8
0
370
           0
  6
Continuous
 62
           7
100
AcDbPolyline
 90
        4
 70
           1
 10
-0.21
 20
-0.8693
 10
-0.19
 20
-0.8693
 10
-0.19
 20
-0.2
 10
-0.21
 20
-0.2
1001
TCAD
1000
TCW_CUSTOM_DATA
1002
{
1000
#$AUX@_ToolInfo Properties
1070
           8
1000
Insert^JLine^JRectangle@Line Rectangle
1002
}
  0
LWPOLYLINE
  5
268
102
{ACAD_REACTORS
330
26C
102
}
100
AcDbEntity
  8
0
370
           0
  6
Continuous
 62
           7
100
AcDbPolyline
 90
        4
 70
           1
 10
-0.17
 20
-0.2
 10
-0.15
 20
-0.2
 10
-0.15
 20
-0.8693
 10
-0.17
 20
-0.8693
1001
TCAD
1000
TCW_CUSTOM_DATA
1002
{
1000
#$AUX@_ToolInfo Properties
1070
           8
1000
Insert^JLine^JRectangle@Line Rectangle
1002
}
  0
LWPOLYLINE
  5
269
102
{ACAD_REACTORS
330
26C
102
}
100
AcDbEntity
  8
0
370
           0
  6
Continuous
 62
           7
100
AcDbPolyline
 90
        4
 70
           1
 10
-0.13
 20
-0.8693
 10
-0.11
 20
-0.8693
 10
-0.11
 20
-0.2
 10
-0.13
 20
-0.2
1001
TCAD
1000
TCW_CUSTOM_DATA
1002
{
1000
#$AUX@_ToolInfo Properties
1070
           8
1000
Insert^JLine^JRectangle@Line Rectangle
1002
}
  0
LWPOLYLINE
  5
26A
102
{ACAD_REACTORS
330
26C
102
}
100
AcDbEntity
  8
0
370
           0
  6
Continuous
 62
           7
100
AcDbPolyline
 90
        4
 70
           1
 10
-0.09
 20
-0.2
 10
-0.07
 20
-0.2
 10
-0.07
 20
-0.8693
 10
-0.09
 20
-0.8693
1001
TCAD
1000
TCW_CUSTOM_DATA
1002
{
1000
#$AUX@_ToolInfo Properties
1070
           8
1000
Insert^JLine^JRectangle@Line Rectangle
1002
}
  0
LWPOLYLINE
  5
26B
102
{ACAD_REACTORS
330
26C
102
}
100
AcDbEntity
  8
0
370
           0
  6
Continuous
 62
           7
100
AcDbPolyline
 90
        4
 70
           1
 10
-0.05
 20
-0.8693
 10
-0.03
 20
-0.8693
 10
-0.03
 20
-0.2
 10
-0.05
 20
-0.2
1001
TCAD
1000
TCW_CUSTOM_DATA
1002
{
1000
#$AUX@_ToolInfo Properties
1070
           8
1000
Insert^JLine^JRectangle@Line Rectangle
1002
}
  0
LWPOLYLINE
  5
26D
100
AcDbEntity
  8
0
370
           0
  6
Continuous
 62
           7
100
AcDbPolyline
 90
        4
 70
           1
 10
-0.01
 20
-0.2
 10
0.01
 20
-0.2
 10
0.01
 20
-0.8693
 10
-0.01
 20
-0.8693
1001
TCAD
1000
TCW_CUSTOM_DATA
1002
{
1000
#$AUX@_ToolInfo Properties
1070
           8
1000
Insert^JLine^JRectangle@Line Rectangle
1002
}
  0
LWPOLYLINE
  5
26E
102
{ACAD_REACTORS
330
283
102
}
100
AcDbEntity
  8
0
370
           0
  6
Continuous
 62
           7
100
AcDbPolyline
 90
        4
 70
           1
 10
0.837157890325
 20
-0.2
 10
0.83
 20
-0.2
 10
0.83
 20
-0.8693
 10
0.837157890325
 20
-0.8693
1001
TCAD
1000
TCW_CUSTOM_DATA
1002
{
1000
#$AUX@_ToolInfo Properties
1070
           8
1000
Insert^JLine^JRectangle@Line Rectangle
1002
}
  0
LWPOLYLINE
  5
26F
102
{ACAD_REACTORS
330
283
102
}
100
AcDbEntity
  8
0
370
           0
  6
Continuous
 62
           7
100
AcDbPolyline
 90
        4
 70
           1
 10
0.81
 20
-0.8693
 10
0.79
 20
-0.8693
 10
0.79
 20
-0.2
 10
0.81
 20
-0.2
1001
TCAD
1000
TCW_CUSTOM_DATA
1002
{
1000
#$AUX@_ToolInfo Properties
1070
           8
1000
Insert^JLine^JRectangle@Line Rectangle
1002
}
  0
LWPOLYLINE
  5
270
102
{ACAD_REACTORS
330
283
102
}
100
AcDbEntity
  8
0
370
           0
  6
Continuous
 62
           7
100
AcDbPolyline
 90
        4
 70
           1
 10
0.77
 20
-0.2
 10
0.75
 20
-0.2
 10
0.75
 20
-0.8693
 10
0.77
 20
-0.8693
1001
TCAD
1000
TCW_CUSTOM_DATA
1002
{
1000
#$AUX@_ToolInfo Properties
1070
           8
1000
Insert^JLine^JRectangle@Line Rectangle
1002
}
  0
LWPOLYLINE
  5
271
102
{ACAD_REACTORS
330
283
102
}
100
AcDbEntity
  8
0
370
           0
  6
Continuous
 62
           7
100
AcDbPolyline
 90
        4
 70
           1
 10
0.73
 20
-0.2
 10
0.71
 20
-0.2
 10
0.71
 20
-0.8693
 10
0.73
 20
-0.8693
1001
TCAD
1000
TCW_CUSTOM_DATA
1002
{
1000
#$AUX@_ToolInfo Properties
1070
           8
1000
Insert^JLine^JRectangle@Line Rectangle
1002
}
  0
LWPOLYLINE
  5
272
102
{ACAD_REACTORS
330
283
102
}
100
AcDbEntity
  8
0
370
           0
  6
Continuous
 62
           7
100
AcDbPolyline
 90
        4
 70
           1
 10
0.69
 20
-0.8693
 10
0.67
 20
-0.8693
 10
0.67
 20
-0.2
 10
0.69
 20
-0.2
1001
TCAD
1000
TCW_CUSTOM_DATA
1002
{
1000
#$AUX@_ToolInfo Properties
1070
           8
1000
Insert^JLine^JRectangle@Line Rectangle
1002
}
  0
LWPOLYLINE
  5
273
102
{ACAD_REACTORS
330
283
102
}
100
AcDbEntity
  8
0
370
           0
  6
Continuous
 62
           7
100
AcDbPolyline
 90
        4
 70
           1
 10
0.65
 20
-0.2
 10
0.63
 20
-0.2
 10
0.63
 20
-0.8693
 10
0.65
 20
-0.8693
1001
TCAD
1000
TCW_CUSTOM_DATA
1002
{
1000
#$AUX@_ToolInfo Properties
1070
           8
1000
Insert^JLine^JRectangle@Line Rectangle
1002
}
  0
LWPOLYLINE
  5
274
102
{ACAD_REACTORS
330
283
102
}
100
AcDbEntity
  8
0
370
           0
  6
Continuous
 62
           7
100
AcDbPolyline
 90
        4
 70
           1
 10
0.61
 20
-0.8693
 10
0.59
 20
-0.8693
 10
0.59
 20
-0.2
 10
0.61
 20
-0.2
1001
TCAD
1000
TCW_CUSTOM_DATA
1002
{
1000
#$AUX@_ToolInfo Properties
1070
           8
1000
Insert^JLine^JRectangle@Line Rectangle
1002
}
  0
LWPOLYLINE
  5
275
102
{ACAD_REACTORS
330
283
102
}
100
AcDbEntity
  8
0
370
           0
  6
Continuous
 62
           7
100
AcDbPolyline
 90
        4
 70
           1
 10
0.57
 20
-0.2
 10
0.55
 20
-0.2
 10
0.55
 20
-0.8693
 10
0.57
 20
-0.8693
1001
TCAD
1000
TCW_CUSTOM_DATA
1002
{
1000
#$AUX@_ToolInfo Properties
1070
           8
1000
Insert^JLine^JRectangle@Line Rectangle
1002
}
  0
LWPOLYLINE
  5
276
102
{ACAD_REACTORS
330
283
102
}
100
AcDbEntity
  8
0
370
           0
  6
Continuous
 62
           7
100
AcDbPolyline
 90
        4
 70
           1
 10
0.53
 20
-0.8693
 10
0.51
 20
-0.8693
 10
0.51
 20
-0.2
 10
0.53
 20
-0.2
1001
TCAD
1000
TCW_CUSTOM_DATA
1002
{
1000
#$AUX@_ToolInfo Properties
1070
           8
1000
Insert^JLine^JRectangle@Line Rectangle
1002
}
  0
LWPOLYLINE
  5
277
102
{ACAD_REACTORS
330
283
102
}
100
AcDbEntity
  8
0
370
           0
  6
Continuous
 62
           7
100
AcDbPolyline
 90
        4
 70
           1
 10
0.49
 20
-0.2
 10
0.47
 20
-0.2
 10
0.47
 20
-0.8693
 10
0.49
 20
-0.8693
1001
TCAD
1000
TCW_CUSTOM_DATA
1002
{
1000
#$AUX@_ToolInfo Properties
1070
           8
1000
Insert^JLine^JRectangle@Line Rectangle
1002
}
  0
LWPOLYLINE
  5
278
102
{ACAD_REACTORS
330
283
102
}
100
AcDbEntity
  8
0
370
           0
  6
Continuous
 62
           7
100
AcDbPolyline
 90
        4
 70
           1
 10
0.45
 20
-0.8693
 10
0.43
 20
-0.8693
 10
0.43
 20
-0.2
 10
0.45
 20
-0.2
1001
TCAD
1000
TCW_CUSTOM_DATA
1002
{
1000
#$AUX@_ToolInfo Properties
1070
           8
1000
Insert^JLine^JRectangle@Line Rectangle
1002
}
  0
LWPOLYLINE
  5
279
102
{ACAD_REACTORS
330
283
102
}
100
AcDbEntity
  8
0
370
           0
  6
Continuous
 62
           7
100
AcDbPolyline
 90
        4
 70
           1
 10
0.41
 20
-0.2
 10
0.39
 20
-0.2
 10
0.39
 20
-0.8693
 10
0.41
 20
-0.8693
1001
TCAD
1000
TCW_CUSTOM_DATA
1002
{
1000
#$AUX@_ToolInfo Properties
1070
           8
1000
Insert^JLine^JRectangle@Line Rectangle
1002
}
  0
LWPOLYLINE
  5
27A
102
{ACAD_REACTORS
330
283
102
}
100
AcDbEntity
  8
0
370
           0
  6
Continuous
 62
           7
100
AcDbPolyline
 90
        4
 70
           1
 10
0.37
 20
-0.2
 10
0.35
 20
-0.2
 10
0.35
 20
-0.8693
 10
0.37
 20
-0.8693
1001
TCAD
1000
TCW_CUSTOM_DATA
1002
{
1000
#$AUX@_ToolInfo Properties
1070
           8
1000
Insert^JLine^JRectangle@Line Rectangle
1002
}
  0
LWPOLYLINE
  5
27B
102
{ACAD_REACTORS
330
283
102
}
100
AcDbEntity
  8
0
370
           0
  6
Continuous
 62
           7
100
AcDbPolyline
 90
        4
 70
           1
 10
0.33
 20
-0.2
 10
0.31
 20
-0.2
 10
0.31
 20
-0.8693
 10
0.33
 20
-0.8693
1001
TCAD
1000
TCW_CUSTOM_DATA
1002
{
1000
#$AUX@_ToolInfo Properties
1070
           8
1000
Insert^JLine^JRectangle@Line Rectangle
1002
}
  0
LWPOLYLINE
  5
27C
102
{ACAD_REACTORS
330
283
102
}
100
AcDbEntity
  8
0
370
           0
  6
Continuous
 62
           7
100
AcDbPolyline
 90
        4
 70
           1
 10
0.29
 20
-0.8693
 10
0.27
 20
-0.8693
 10
0.27
 20
-0.2
 10
0.29
 20
-0.2
1001
TCAD
1000
TCW_CUSTOM_DATA
1002
{
1000
#$AUX@_ToolInfo Properties
1070
           8
1000
Insert^JLine^JRectangle@Line Rectangle
1002
}
  0
LWPOLYLINE
  5
27D
102
{ACAD_REACTORS
330
283
102
}
100
AcDbEntity
  8
0
370
           0
  6
Continuous
 62
           7
100
AcDbPolyline
 90
        4
 70
           1
 10
0.25
 20
-0.2
 10
0.23
 20
-0.2
 10
0.23
 20
-0.8693
 10
0.25
 20
-0.8693
1001
TCAD
1000
TCW_CUSTOM_DATA
1002
{
1000
#$AUX@_ToolInfo Properties
1070
           8
1000
Insert^JLine^JRectangle@Line Rectangle
1002
}
  0
LWPOLYLINE
  5
27E
102
{ACAD_REACTORS
330
283
102
}
100
AcDbEntity
  8
0
370
           0
  6
Continuous
 62
           7
100
AcDbPolyline
 90
        4
 70
           1
 10
0.21
 20
-0.8693
 10
0.19
 20
-0.8693
 10
0.19
 20
-0.2
 10
0.21
 20
-0.2
1001
TCAD
1000
TCW_CUSTOM_DATA
1002
{
1000
#$AUX@_ToolInfo Properties
1070
           8
1000
Insert^JLine^JRectangle@Line Rectangle
1002
}
  0
LWPOLYLINE
  5
27F
102
{ACAD_REACTORS
330
283
102
}
100
AcDbEntity
  8
0
370
           0
  6
Continuous
 62
           7
100
AcDbPolyline
 90
        4
 70
           1
 10
0.17
 20
-0.2
 10
0.15
 20
-0.2
 10
0.15
 20
-0.8693
 10
0.17
 20
-0.8693
1001
TCAD
1000
TCW_CUSTOM_DATA
1002
{
1000
#$AUX@_ToolInfo Properties
1070
           8
1000
Insert^JLine^JRectangle@Line Rectangle
1002
}
  0
LWPOLYLINE
  5
280
102
{ACAD_REACTORS
330
283
102
}
100
AcDbEntity
  8
0
370
           0
  6
Continuous
 62
           7
100
AcDbPolyline
 90
        4
 70
           1
 10
0.13
 20
-0.8693
 10
0.11
 20
-0.8693
 10
0.11
 20
-0.2
 10
0.13
 20
-0.2
1001
TCAD
1000
TCW_CUSTOM_DATA
1002
{
1000
#$AUX@_ToolInfo Properties
1070
           8
1000
Insert^JLine^JRectangle@Line Rectangle
1002
}
  0
LWPOLYLINE
  5
281
102
{ACAD_REACTORS
330
283
102
}
100
AcDbEntity
  8
0
370
           0
  6
Continuous
 62
           7
100
AcDbPolyline
 90
        4
 70
           1
 10
0.09
 20
-0.2
 10
0.07
 20
-0.2
 10
0.07
 20
-0.8693
 10
0.09
 20
-0.8693
1001
TCAD
1000
TCW_CUSTOM_DATA
1002
{
1000
#$AUX@_ToolInfo Properties
1070
           8
1000
Insert^JLine^JRectangle@Line Rectangle
1002
}
  0
LWPOLYLINE
  5
282
102
{ACAD_REACTORS
330
283
102
}
100
AcDbEntity
  8
0
370
           0
  6
Continuous
 62
           7
100
AcDbPolyline
 90
        4
 70
           1
 10
0.05
 20
-0.8693
 10
0.03
 20
-0.8693
 10
0.03
 20
-0.2
 10
0.05
 20
-0.2
1001
TCAD
1000
TCW_CUSTOM_DATA
1002
{
1000
#$AUX@_ToolInfo Properties
1070
           8
1000
Insert^JLine^JRectangle@Line Rectangle
1002
}
  0
XLINE
  5
284
100
AcDbEntity
  8
$CONSTRUCTION
100
AcDbXline
 10
-0.384512639241
 20
-1.4350207058
 30
0.0
 11
0.2588190451025207
 21
0.9659258262890683
 31
0.0
1001
TCAD
1000
TCW_CUSTOM_DATA
1002
{
1000
#$AUX@_ToolInfo Properties
1070
           8
1000
Insert^JConstruction^JAngularLine@Construction AngularLine
1002
}
  0
XLINE
  5
285
100
AcDbEntity
  8
$CONSTRUCTION
100
AcDbXline
 10
0.384512639241
 20
-1.4350207058
 30
0.0
 11
-0.2588190451025209
 21
0.9659258262890683
 31
0.0
1001
TCAD
1000
TCW_CUSTOM_DATA
1002
{
1000
#$AUX@_ToolInfo Properties
1070
           8
1000
Insert^JConstruction^JAngularLine@Construction AngularLine
1002
}
  0
CIRCLE
  5
286
100
AcDbEntity
  8
$CONSTRUCTION
370
           0
100
AcDbCircle
 10
0.0
 20
-0.0
 30
0.0
 40
2.1
1001
TCAD
1000
TCW_CUSTOM_DATA
1002
{
1000
#$AUX@_ToolInfo Properties
1070
           8
1000
Insert^JConstruction^JCenterAndPointCircle@Construction CenterAndPointCircle
1002
}
  0
CIRCLE
  5
287
100
AcDbEntity
  8
0
370
           0
  6
Continuous
 62
           7
100
AcDbCircle
 10
-0.543519994715
 20
2.028444235207
 30
0.0
 40
0.054
1001
TCAD
1000
TCW_CUSTOM_DATA
1002
{
1000
#$AUX@_ToolInfo Properties
1070
           8
1000
Insert^JCircle^JCenterAndPoint@Circle CenterAndPoint
1002
}
  0
CIRCLE
  5
288
100
AcDbEntity
  8
0
370
           0
  6
Continuous
 62
           7
100
AcDbCircle
 10
0.543519994715
 20
2.028444235207
 30
0.0
 40
0.054
1001
TCAD
1000
TCW_CUSTOM_DATA
1002
{
1000
#$AUX@_ToolInfo Properties
1070
           8
1000
Insert^JCircle^JCenterAndPoint@Circle CenterAndPoint
1002
}
  0
LINE
  5
289
100
AcDbEntity
  8
0
370
           0
  6
DASHED
 62
           7
 48
0.300000011921
100
AcDbLine
 10
-0.597516608065
 20
-0.8693
 30
0.0
 11
-0.597516608065
 21
-1.1842
 31
0.0
1001
TCAD
1000
TCW_CUSTOM_DATA
1002
{
1000
#$AUX@_ToolInfo Properties
1070
           8
1000
Insert^JLine^JSingle@Line Single
1002
}
  0
LINE
  5
28A
100
AcDbEntity
  8
0
370
           0
  6
DASHED
 62
           7
 48
0.300000011921
100
AcDbLine
 10
-0.489552553133
 20
-0.8693
 30
0.0
 11
-0.489552553133
 21
-1.1842
 31
0.0
1001
TCAD
1000
TCW_CUSTOM_DATA
1002
{
1000
#$AUX@_ToolInfo Properties
1070
           8
1000
Insert^JLine^JSingle@Line Single
1002
}
  0
LINE
  5
28B
100
AcDbEntity
  8
0
370
           0
  6
DASHED
 62
           7
 48
0.300000011921
100
AcDbLine
 10
0.489577911508
 20
-0.8693
 30
0.0
 11
0.489577911508
 21
-1.1842
 31
0.0
1001
TCAD
1000
TCW_CUSTOM_DATA
1002
{
1000
#$AUX@_ToolInfo Properties
1070
           8
1000
Insert^JLine^JSingle@Line Single
1002
}
  0
LINE
  5
28C
100
AcDbEntity
  8
0
370
           0
  6
DASHED
 62
           7
 48
0.300000011921
100
AcDbLine
 10
0.597480667593
 20
-0.8693
 30
0.0
 11
0.597480667593
 21
-1.1842
 31
0.0
1001
TCAD
1000
TCW_CUSTOM_DATA
1002
{
1000
#$AUX@_ToolInfo Properties
1070
           8
1000
Insert^JLine^JSingle@Line Single
1002
}
  0
LINE
  5
28D
100
AcDbEntity
  8
0
370
           0
  6
Continuous
 62
           7
100
AcDbLine
 10
-0.59055
 20
-0.8693
 30
0.0
 11
-0.59055
 21
-1.1842
 31
0.0
1001
TCAD
1000
TCW_CUSTOM_DATA
1002
{
1000
#$AUX@_ToolInfo Properties
1070
           8
1000
Insert^JLine^JSingle@Line Single
1002
}
  0
LINE
  5
28E
100
AcDbEntity
  8
0
370
           0
  6
Continuous
 62
           7
100
AcDbLine
 10
0.59055
 20
-0.8693
 30
0.0
 11
0.59055
 21
-1.1842
 31
0.0
1001
TCAD
1000
TCW_CUSTOM_DATA
1002
{
1000
#$AUX@_ToolInfo Properties
1070
           8
1000
Insert^JLine^JSingle@Line Single
1002
}
  0
LINE
  5
28F
100
AcDbEntity
  8
0
370
           0
  6
Continuous
 62
           7
100
AcDbLine
 10
0.5
 20
-0.88
 30
0.0
 11
0.59
 21
-0.88
 31
0.0
1001
TCAD
1000
TCW_CUSTOM_DATA
1002
{
1000
#$AUX@_ToolInfo Properties
1070
           8
1000
Insert^JLine^JSingle@Line Single
1002
}
  0
LINE
  5
290
100
AcDbEntity
  8
0
370
           0
  6
Continuous
 62
           7
100
AcDbLine
 10
0.51
 20
-0.9
 30
0.0
 11
0.58
 21
-0.9
 31
0.0
1001
TCAD
1000
TCW_CUSTOM_DATA
1002
{
1000
#$AUX@_ToolInfo Properties
1070
           8
1000
Insert^JLine^JSingle@Line Single
1002
}
  0
LINE
  5
291
100
AcDbEntity
  8
0
370
           0
  6
Continuous
 62
           7
100
AcDbLine
 10
0.5
 20
-0.92
 30
0.0
 11
0.59
 21
-0.92
 31
0.0
1001
TCAD
1000
TCW_CUSTOM_DATA
1002
{
1000
#$AUX@_ToolInfo Properties
1070
           8
1000
Insert^JLine^JSingle@Line Single
1002
}
  0
LINE
  5
292
100
AcDbEntity
  8
0
370
           0
  6
Continuous
 62
           7
100
AcDbLine
 10
0.58
 20
-0.94
 30
0.0
 11
0.51
 21
-0.94
 31
0.0
1001
TCAD
1000
TCW_CUSTOM_DATA
1002
{
1000
#$AUX@_ToolInfo Properties
1070
           8
1000
Insert^JLine^JSingle@Line Single
1002
}
  0
LINE
  5
293
100
AcDbEntity
  8
0
370
           0
  6
Continuous
 62
           7
100
AcDbLine
 10
0.5
 20
-0.96
 30
0.0
 11
0.59
 21
-0.96
 31
0.0
1001
TCAD
1000
TCW_CUSTOM_DATA
1002
{
1000
#$AUX@_ToolInfo Properties
1070
           8
1000
Insert^JLine^JSingle@Line Single
1002
}
  0
LINE
  5
294
100
AcDbEntity
  8
0
370
           0
  6
Continuous
 62
           7
100
AcDbLine
 10
0.51
 20
-0.98
 30
0.0
 11
0.58
 21
-0.98
 31
0.0
1001
TCAD
1000
TCW_CUSTOM_DATA
1002
{
1000
#$AUX@_ToolInfo Properties
1070
           8
1000
Insert^JLine^JSingle@Line Single
1002
}
  0
LINE
  5
295
100
AcDbEntity
  8
0
370
           0
  6
Continuous
 62
           7
100
AcDbLine
 10
0.59
 20
-1.0
 30
0.0
 11
0.5
 21
-1.0
 31
0.0
1001
TCAD
1000
TCW_CUSTOM_DATA
1002
{
1000
#$AUX@_ToolInfo Properties
1070
           8
1000
Insert^JLine^JSingle@Line Single
1002
}
  0
LINE
  5
296
100
AcDbEntity
  8
0
370
           0
  6
Continuous
 62
           7
100
AcDbLine
 10
0.51
 20
-1.02
 30
0.0
 11
0.58
 21
-1.02
 31
0.0
1001
TCAD
1000
TCW_CUSTOM_DATA
1002
{
1000
#$AUX@_ToolInfo Properties
1070
           8
1000
Insert^JLine^JSingle@Line Single
1002
}
  0
LINE
  5
297
100
AcDbEntity
  8
0
370
           0
  6
Continuous
 62
           7
100
AcDbLine
 10
0.5
 20
-1.04
 30
0.0
 11
0.59
 21
-1.04
 31
0.0
1001
TCAD
1000
TCW_CUSTOM_DATA
1002
{
1000
#$AUX@_ToolInfo Properties
1070
           8
1000
Insert^JLine^JSingle@Line Single
1002
}
  0
LINE
  5
298
100
AcDbEntity
  8
0
370
           0
  6
Continuous
 62
           7
100
AcDbLine
 10
0.51
 20
-1.06
 30
0.0
 11
0.58
 21
-1.06
 31
0.0
1001
TCAD
1000
TCW_CUSTOM_DATA
1002
{
1000
#$AUX@_ToolInfo Properties
1070
           8
1000
Insert^JLine^JSingle@Line Single
1002
}
  0
LINE
  5
299
100
AcDbEntity
  8
0
370
           0
  6
Continuous
 62
           7
100
AcDbLine
 10
0.59
 20
-1.08
 30
0.0
 11
0.5
 21
-1.08
 31
0.0
1001
TCAD
1000
TCW_CUSTOM_DATA
1002
{
1000
#$AUX@_ToolInfo Properties
1070
           8
1000
Insert^JLine^JSingle@Line Single
1002
}
  0
LINE
  5
29A
100
AcDbEntity
  8
0
370
           0
  6
Continuous
 62
           7
100
AcDbLine
 10
0.51
 20
-1.1
 30
0.0
 11
0.58
 21
-1.1
 31
0.0
1001
TCAD
1000
TCW_CUSTOM_DATA
1002
{
1000
#$AUX@_ToolInfo Properties
1070
           8
1000
Insert^JLine^JSingle@Line Single
1002
}
  0
LINE
  5
29B
100
AcDbEntity
  8
0
370
           0
  6
Continuous
 62
           7
100
AcDbLine
 10
0.5
 20
-1.12
 30
0.0
 11
0.59
 21
-1.12
 31
0.0
1001
TCAD
1000
TCW_CUSTOM_DATA
1002
{
1000
#$AUX@_ToolInfo Properties
1070
           8
1000
Insert^JLine^JSingle@Line Single
1002
}
  0
LINE
  5
29C
100
AcDbEntity
  8
0
370
           0
  6
Continuous
 62
           7
100
AcDbLine
 10
0.58
 20
-1.14
 30
0.0
 11
0.51
 21
-1.14
 31
0.0
1001
TCAD
1000
TCW_CUSTOM_DATA
1002
{
1000
#$AUX@_ToolInfo Properties
1070
           8
1000
Insert^JLine^JSingle@Line Single
1002
}
  0
LINE
  5
29D
100
AcDbEntity
  8
0
370
           0
  6
Continuous
 62
           7
100
AcDbLine
 10
0.5
 20
-1.16
 30
0.0
 11
0.59
 21
-1.16
 31
0.0
1001
TCAD
1000
TCW_CUSTOM_DATA
1002
{
1000
#$AUX@_ToolInfo Properties
1070
           8
1000
Insert^JLine^JSingle@Line Single
1002
}
  0
LINE
  5
29E
100
AcDbEntity
  8
0
370
           0
  6
Continuous
 62
           7
100
AcDbLine
 10
-0.5
 20
-0.88
 30
0.0
 11
-0.59
 21
-0.88
 31
0.0
1001
TCAD
1000
TCW_CUSTOM_DATA
1002
{
1000
#$AUX@_ToolInfo Properties
1070
           8
1000
Insert^JLine^JSingle@Line Single
1002
}
  0
LINE
  5
29F
100
AcDbEntity
  8
0
370
           0
  6
Continuous
 62
           7
100
AcDbLine
 10
-0.51
 20
-0.9
 30
0.0
 11
-0.58
 21
-0.9
 31
0.0
1001
TCAD
1000
TCW_CUSTOM_DATA
1002
{
1000
#$AUX@_ToolInfo Properties
1070
           8
1000
Insert^JLine^JSingle@Line Single
1002
}
  0
LINE
  5
2A0
100
AcDbEntity
  8
0
370
           0
  6
Continuous
 62
           7
100
AcDbLine
 10
-0.5
 20
-0.92
 30
0.0
 11
-0.59
 21
-0.92
 31
0.0
1001
TCAD
1000
TCW_CUSTOM_DATA
1002
{
1000
#$AUX@_ToolInfo Properties
1070
           8
1000
Insert^JLine^JSingle@Line Single
1002
}
  0
LINE
  5
2A1
100
AcDbEntity
  8
0
370
           0
  6
Continuous
 62
           7
100
AcDbLine
 10
-0.58
 20
-0.94
 30
0.0
 11
-0.51
 21
-0.94
 31
0.0
1001
TCAD
1000
TCW_CUSTOM_DATA
1002
{
1000
#$AUX@_ToolInfo Properties
1070
           8
1000
Insert^JLine^JSingle@Line Single
1002
}
  0
LINE
  5
2A2
100
AcDbEntity
  8
0
370
           0
  6
Continuous
 62
           7
100
AcDbLine
 10
-0.5
 20
-0.96
 30
0.0
 11
-0.59
 21
-0.96
 31
0.0
1001
TCAD
1000
TCW_CUSTOM_DATA
1002
{
1000
#$AUX@_ToolInfo Properties
1070
           8
1000
Insert^JLine^JSingle@Line Single
1002
}
  0
LINE
  5
2A3
100
AcDbEntity
  8
0
370
           0
  6
Continuous
 62
           7
100
AcDbLine
 10
-0.51
 20
-0.98
 30
0.0
 11
-0.58
 21
-0.98
 31
0.0
1001
TCAD
1000
TCW_CUSTOM_DATA
1002
{
1000
#$AUX@_ToolInfo Properties
1070
           8
1000
Insert^JLine^JSingle@Line Single
1002
}
  0
LINE
  5
2A4
100
AcDbEntity
  8
0
370
           0
  6
Continuous
 62
           7
100
AcDbLine
 10
-0.59
 20
-1.0
 30
0.0
 11
-0.5
 21
-1.0
 31
0.0
1001
TCAD
1000
TCW_CUSTOM_DATA
1002
{
1000
#$AUX@_ToolInfo Properties
1070
           8
1000
Insert^JLine^JSingle@Line Single
1002
}
  0
LINE
  5
2A5
100
AcDbEntity
  8
0
370
           0
  6
Continuous
 62
           7
100
AcDbLine
 10
-0.51
 20
-1.02
 30
0.0
 11
-0.58
 21
-1.02
 31
0.0
1001
TCAD
1000
TCW_CUSTOM_DATA
1002
{
1000
#$AUX@_ToolInfo Properties
1070
           8
1000
Insert^JLine^JSingle@Line Single
1002
}
  0
LINE
  5
2A6
100
AcDbEntity
  8
0
370
           0
  6
Continuous
 62
           7
100
AcDbLine
 10
-0.5
 20
-1.04
 30
0.0
 11
-0.59
 21
-1.04
 31
0.0
1001
TCAD
1000
TCW_CUSTOM_DATA
1002
{
1000
#$AUX@_ToolInfo Properties
1070
           8
1000
Insert^JLine^JSingle@Line Single
1002
}
  0
LINE
  5
2A7
100
AcDbEntity
  8
0
370
           0
  6
Continuous
 62
           7
100
AcDbLine
 10
-0.51
 20
-1.06
 30
0.0
 11
-0.58
 21
-1.06
 31
0.0
1001
TCAD
1000
TCW_CUSTOM_DATA
1002
{
1000
#$AUX@_ToolInfo Properties
1070
           8
1000
Insert^JLine^JSingle@Line Single
1002
}
  0
LINE
  5
2A8
100
AcDbEntity
  8
0
370
           0
  6
Continuous
 62
           7
100
AcDbLine
 10
-0.59
 20
-1.08
 30
0.0
 11
-0.5
 21
-1.08
 31
0.0
1001
TCAD
1000
TCW_CUSTOM_DATA
1002
{
1000
#$AUX@_ToolInfo Properties
1070
           8
1000
Insert^JLine^JSingle@Line Single
1002
}
  0
LINE
  5
2A9
100
AcDbEntity
  8
0
370
           0
  6
Continuous
 62
           7
100
AcDbLine
 10
-0.51
 20
-1.1
 30
0.0
 11
-0.58
 21
-1.1
 31
0.0
1001
TCAD
1000
TCW_CUSTOM_DATA
1002
{
1000
#$AUX@_ToolInfo Properties
1070
           8
1000
Insert^JLine^JSingle@Line Single
1002
}
  0
LINE
  5
2AA
100
AcDbEntity
  8
0
370
           0
  6
Continuous
 62
           7
100
AcDbLine
 10
-0.5
 20
-1.12
 30
0.0
 11
-0.59
 21
-1.12
 31
0.0
1001
TCAD
1000
TCW_CUSTOM_DATA
1002
{
1000
#$AUX@_ToolInfo Properties
1070
           8
1000
Insert^JLine^JSingle@Line Single
1002
}
  0
LINE
  5
2AB
100
AcDbEntity
  8
0
370
           0
  6
Continuous
 62
           7
100
AcDbLine
 10
-0.58
 20
-1.14
 30
0.0
 11
-0.51
 21
-1.14
 31
0.0
1001
TCAD
1000
TCW_CUSTOM_DATA
1002
{
1000
#$AUX@_ToolInfo Properties
1070
           8
1000
Insert^JLine^JSingle@Line Single
1002
}
  0
LINE
  5
2AC
100
AcDbEntity
  8
0
370
           0
  6
Continuous
 62
           7
100
AcDbLine
 10
-0.5
 20
-1.16
 30
0.0
 11
-0.59
 21
-1.16
 31
0.0
1001
TCAD
1000
TCW_CUSTOM_DATA
1002
{
1000
#$AUX@_ToolInfo Properties
1070
           8
1000
Insert^JLine^JSingle@Line Single
1002
}
  0
LINE
  5
2AD
100
AcDbEntity
  8
0
370
           0
  6
DASHED
 62
           7
 48
0.300000011921
100
AcDbLine
 10
3.1693
 20
2.082419517139
 30
0.0
 11
3.4842
 21
2.082419517139
 31
0.0
1001
TCAD
1000
TCW_CUSTOM_DATA
1002
{
1000
#$AUX@_ToolInfo Properties
1070
           8
1000
Insert^JLine^JSingle@Line Single
1002
}
  0
LINE
  5
2AE
100
AcDbEntity
  8
0
370
           0
  6
DASHED
 62
           7
 48
0.300000011921
100
AcDbLine
 10
3.4842
 20
1.974444250739
 30
0.0
 11
3.1693
 21
1.974444250739
 31
0.0
1001
TCAD
1000
TCW_CUSTOM_DATA
1002
{
1000
#$AUX@_ToolInfo Properties
1070
           8
1000
Insert^JLine^JSingle@Line Single
1002
}
  0
LINE
  5
2AF
100
AcDbEntity
  8
0
370
           0
  6
Continuous
 62
           7
100
AcDbLine
 10
3.186021857987
 20
2.0724
 30
0.0
 11
3.186021857987
 21
1.9844
 31
0.0
1001
TCAD
1000
TCW_CUSTOM_DATA
1002
{
1000
#$AUX@_ToolInfo Properties
1070
           8
1000
Insert^JLine^JSingle@Line Single
1002
}
  0
LINE
  5
2B0
100
AcDbEntity
  8
0
370
           0
  6
Continuous
 62
           7
100
AcDbLine
 10
3.206021857987
 20
2.0624
 30
0.0
 11
3.206021857987
 21
1.9944
 31
0.0
1001
TCAD
1000
TCW_CUSTOM_DATA
1002
{
1000
#$AUX@_ToolInfo Properties
1070
           8
1000
Insert^JLine^JSingle@Line Single
1002
}
  0
LINE
  5
2B1
100
AcDbEntity
  8
0
370
           0
  6
Continuous
 62
           7
100
AcDbLine
 10
3.226021857987
 20
2.0724
 30
0.0
 11
3.226021857987
 21
1.9844
 31
0.0
1001
TCAD
1000
TCW_CUSTOM_DATA
1002
{
1000
#$AUX@_ToolInfo Properties
1070
           8
1000
Insert^JLine^JSingle@Line Single
1002
}
  0
LINE
  5
2B2
100
AcDbEntity
  8
0
370
           0
  6
Continuous
 62
           7
100
AcDbLine
 10
3.246021857987
 20
2.0624
 30
0.0
 11
3.246021857987
 21
1.9944
 31
0.0
1001
TCAD
1000
TCW_CUSTOM_DATA
1002
{
1000
#$AUX@_ToolInfo Properties
1070
           8
1000
Insert^JLine^JSingle@Line Single
1002
}
  0
LINE
  5
2B3
100
AcDbEntity
  8
0
370
           0
  6
Continuous
 62
           7
100
AcDbLine
 10
3.266021857987
 20
2.0724
 30
0.0
 11
3.266021857987
 21
1.9844
 31
0.0
1001
TCAD
1000
TCW_CUSTOM_DATA
1002
{
1000
#$AUX@_ToolInfo Properties
1070
           8
1000
Insert^JLine^JSingle@Line Single
1002
}
  0
LINE
  5
2B4
100
AcDbEntity
  8
0
370
           0
  6
Continuous
 62
           7
100
AcDbLine
 10
3.286021857987
 20
2.0624
 30
0.0
 11
3.286021857987
 21
1.9944
 31
0.0
1001
TCAD
1000
TCW_CUSTOM_DATA
1002
{
1000
#$AUX@_ToolInfo Properties
1070
           8
1000
Insert^JLine^JSingle@Line Single
1002
}
  0
LINE
  5
2B5
100
AcDbEntity
  8
0
370
           0
  6
Continuous
 62
           7
100
AcDbLine
 10
3.306021857987
 20
2.0724
 30
0.0
 11
3.306021857987
 21
1.9844
 31
0.0
1001
TCAD
1000
TCW_CUSTOM_DATA
1002
{
1000
#$AUX@_ToolInfo Properties
1070
           8
1000
Insert^JLine^JSingle@Line Single
1002
}
  0
LINE
  5
2B6
100
AcDbEntity
  8
0
370
           0
  6
Continuous
 62
           7
100
AcDbLine
 10
3.326021857987
 20
2.0624
 30
0.0
 11
3.326021857987
 21
1.9944
 31
0.0
1001
TCAD
1000
TCW_CUSTOM_DATA
1002
{
1000
#$AUX@_ToolInfo Properties
1070
           8
1000
Insert^JLine^JSingle@Line Single
1002
}
  0
LINE
  5
2B7
100
AcDbEntity
  8
0
370
           0
  6
Continuous
 62
           7
100
AcDbLine
 10
3.346021857987
 20
2.0724
 30
0.0
 11
3.346021857987
 21
1.9844
 31
0.0
1001
TCAD
1000
TCW_CUSTOM_DATA
1002
{
1000
#$AUX@_ToolInfo Properties
1070
           8
1000
Insert^JLine^JSingle@Line Single
1002
}
  0
LINE
  5
2B8
100
AcDbEntity
  8
0
370
           0
  6
Continuous
 62
           7
100
AcDbLine
 10
3.366021857987
 20
2.0624
 30
0.0
 11
3.366021857987
 21
1.9944
 31
0.0
1001
TCAD
1000
TCW_CUSTOM_DATA
1002
{
1000
#$AUX@_ToolInfo Properties
1070
           8
1000
Insert^JLine^JSingle@Line Single
1002
}
  0
LINE
  5
2B9
100
AcDbEntity
  8
0
370
           0
  6
Continuous
 62
           7
100
AcDbLine
 10
3.386021857987
 20
2.0724
 30
0.0
 11
3.386021857987
 21
1.9844
 31
0.0
1001
TCAD
1000
TCW_CUSTOM_DATA
1002
{
1000
#$AUX@_ToolInfo Properties
1070
           8
1000
Insert^JLine^JSingle@Line Single
1002
}
  0
LINE
  5
2BA
100
AcDbEntity
  8
0
370
           0
  6
Continuous
 62
           7
100
AcDbLine
 10
3.406021857987
 20
1.9944
 30
0.0
 11
3.406021857987
 21
2.0624
 31
0.0
1001
TCAD
1000
TCW_CUSTOM_DATA
1002
{
1000
#$AUX@_ToolInfo Properties
1070
           8
1000
Insert^JLine^JSingle@Line Single
1002
}
  0
LINE
  5
2BB
100
AcDbEntity
  8
0
370
           0
  6
Continuous
 62
           7
100
AcDbLine
 10
3.426021857987
 20
2.0724
 30
0.0
 11
3.426021857987
 21
1.9844
 31
0.0
1001
TCAD
1000
TCW_CUSTOM_DATA
1002
{
1000
#$AUX@_ToolInfo Properties
1070
           8
1000
Insert^JLine^JSingle@Line Single
1002
}
  0
LINE
  5
2BC
100
AcDbEntity
  8
0
370
           0
  6
Continuous
 62
           7
100
AcDbLine
 10
3.446021857987
 20
2.0624
 30
0.0
 11
3.446021857987
 21
1.9944
 31
0.0
1001
TCAD
1000
TCW_CUSTOM_DATA
1002
{
1000
#$AUX@_ToolInfo Properties
1070
           8
1000
Insert^JLine^JSingle@Line Single
1002
}
  0
LINE
  5
2BD
100
AcDbEntity
  8
0
370
           0
  6
Continuous
 62
           7
100
AcDbLine
 10
3.466021857987
 20
2.0724
 30
0.0
 11
3.466021857987
 21
1.9844
 31
0.0
1001
TCAD
1000
TCW_CUSTOM_DATA
1002
{
1000
#$AUX@_ToolInfo Properties
1070
           8
1000
Insert^JLine^JSingle@Line Single
1002
}
  0
DIMENSION
  5
2CC
100
AcDbEntity
  8
0
  6
Continuous
 62
           7
100
AcDbDimension
  2
*D3
 10
-1.1811
 20
2.04572520882
 30
0.0
 11
0.0
 21
2.553135183665
 31
0.0
 70
           2
 71
           5
 72
           1
 41
1.0
 42
0.0
  1
<60%%d>
  3
STANDARD
100
AcDb2LineAngularDimension
 13
0.59055
 23
1.02286260441
 33
0.0
 14
1.1811
 24
2.04572520882
 34
0.0
 15
-0.59055
 25
1.02286260441
 35
0.0
 16
-0.765408125463
 26
2.435703115642
 36
0.0
1001
TCAD
1000
TCW_CUSTOM_DATA
1002
{
1000
#$AUX@_ToolInfo Properties
1070
           8
1000
Insert^JDimension^JAngular@Dimension Angular
1002
}
1001
ACAD
1000
DSTYLE
1002
{
1070
          41
1040
0.1
1070
         271
1070
           2
1070
         147
1040
0.03
1070
           3
1000

1070
          45
1040
0.01
1070
         272
1070
           2
1070
         174
1070
           0
1070
         172
1070
           1
1070
         140
1040
0.04998
1002
}
1000
TCW_DSTYLE
1002
{
1070
           0
1002
}
  0
DIMENSION
  5
2D7
100
AcDbEntity
  8
0
  6
Continuous
 62
           7
100
AcDbDimension
  2
*D4
 10
0.0
 20
0.0
 30
0.0
 11
1.293307835376
 21
1.325821134478
 31
0.0
 70
           4
 71
           5
 72
           1
 41
1.0
 42
0.0
  1
<R1.1811>
  3
STANDARD
100
AcDbRadialDimension
 15
0.786493238435
 25
0.881150155136
 35
0.0
 40
0.5
1001
TCAD
1000
TCW_CUSTOM_DATA
1002
{
1000
#$AUX@_ToolInfo Properties
1070
           8
1000
Insert^JDimension^JRadius@Dimension Radius
1002
}
1001
ACAD
1000
DSTYLE
1002
{
1070
          41
1040
0.1
1070
         147
1040
0.03
1070
         174
1070
           0
1070
         140
1040
0.04998
1002
}
  0
DIMENSION
  5
2E2
100
AcDbEntity
  8
0
  6
Continuous
 62
           7
100
AcDbDimension
  2
*D5
 10
0.0
 20
0.0
 30
0.0
 11
1.806996492085
 21
2.516385903602
 31
0.0
 70
           4
 71
           5
 72
           1
 41
1.0
 42
0.0
  1
<R2.3622>
  3
STANDARD
100
AcDbRadialDimension
 15
1.312151954298
 25
1.964241861083
 35
0.0
 40
0.577842804117
1001
TCAD
1000
TCW_CUSTOM_DATA
1002
{
1000
#$AUX@_ToolInfo Properties
1070
           8
1000
Insert^JDimension^JRadius@Dimension Radius
1002
}
1001
ACAD
1000
DSTYLE
1002
{
1070
          41
1040
0.1
1070
         147
1040
0.03
1070
         174
1070
           0
1070
         140
1040
0.04998
1002
}
  0
DIMENSION
  5
2F1
100
AcDbEntity
  8
0
  6
Continuous
 62
           7
100
AcDbDimension
  2
*D6
 10
-1.187774553871
 20
2.690962984889
 30
0.0
 11
-1.12564171506
 21
2.71753949487
 31
0.0
 70
           5
 71
           5
 72
           1
 41
1.0
 42
0.0
  1
<15%%d>
  3
STANDARD
100
AcDb3PointAngularDimension
 13
-0.543519994715
 23
2.028444235207
 33
0.0
 14
-1.05
 24
1.818653347947
 34
0.0
 15
0.0
 25
-0.0
 35
0.0
1001
TCAD
1000
TCW_CUSTOM_DATA
1002
{
1000
#$AUX@_ToolInfo Properties
1070
           8
1000
Insert^JDimension^JAngular@Dimension Angular
1002
}
1001
ACAD
1000
DSTYLE
1002
{
1070
          41
1040
0.1
1070
         271
1070
           2
1070
         147
1040
0.03
1070
           3
1000

1070
          45
1040
0.01
1070
         272
1070
           2
1070
         174
1070
           0
1070
         172
1070
           1
1070
         140
1040
0.04998
1002
}
1000
TCW_DSTYLE
1002
{
1070
           0
1002
}
  0
DIMENSION
  5
2FD
100
AcDbEntity
  8
0
  6
Continuous
 62
           7
100
AcDbDimension
  2
*D7
 10
0.514683219217
 20
1.982788563283
 30
0.0
 11
1.461148782545
 21
2.773056313844
 31
0.0
 70
           3
 71
           5
 72
           1
 41
1.0
 42
0.0
  1
two 4/40 threaded through holes ^M^Jon a 4.2" diameter bolt circle
  3
STANDARD
100
AcDbDiametricDimension
 15
0.572356770213
 25
2.074099907132
 35
0.0
 40
0.71654716446
1001
TCAD
1000
TCW_CUSTOM_DATA
1002
{
1000
#$AUX@_ToolInfo Properties
1070
           8
1000
Insert^JDimension^JDiameter@Dimension Diameter
1002
}
1001
ACAD
1000
DSTYLE
1002
{
1070
          41
1040
0.1
1070
         271
1070
           2
1070
           3
1000

1070
          45
1040
0.01
1070
         272
1070
           2
1070
         174
1070
           0
1070
         140
1040
0.04998
1002
}
  0
XLINE
  5
2FE
100
AcDbEntity
  8
$CONSTRUCTION
100
AcDbXline
 10
-0.59482575
 20
1.45
 30
0.0
 11
1.0
 21
0.0
 31
0.0
1001
TCAD
1000
TCW_CUSTOM_DATA
1002
{
1000
#$AUX@_ToolInfo Properties
1070
           8
1000
Insert^JConstruction^JHorizontalLine@Construction HorizontalLine
1002
}
  0
DIMENSION
  5
30D
100
AcDbEntity
  8
0
  6
Continuous
 62
           7
100
AcDbDimension
  2
*D8
 10
-1.12081487954
 20
0.000479443551
 30
0.0
 11
-1.120145784297
 21
0.725479443551
 31
0.0
 70
           1
 71
           5
 72
           1
 41
1.0
 42
0.0
  1
<1.45>
  3
STANDARD
100
AcDbAlignedDimension
 13
-0.599974304848
 23
1.45
 33
0.0
 14
-0.601312495335
 24
-0.0
 34
0.0
 50
-90.05287768644
1001
TCAD
1000
TCW_CUSTOM_DATA
1002
{
1000
#$AUX@_ToolInfo Properties
1070
           8
1000
Insert^JDimension^JParallel@Dimension Parallel
1002
}
1001
ACAD
1000
DSTYLE
1002
{
1070
          41
1040
0.1
1070
         147
1040
0.03
1070
         174
1070
           0
1070
         140
1040
0.04998
1002
}
  0
DIMENSION
  5
31C
100
AcDbEntity
  8
0
  6
Continuous
 62
           7
100
AcDbDimension
  2
*D9
 10
0.543519994715
 20
-1.342510949378
 30
0.0
 11
-0.0
 21
-1.270860948418
 31
0.0
 70
           1
 71
           5
 72
           1
 41
1.0
 42
0.0
  1
<1.087>
  3
STANDARD
100
AcDbAlignedDimension
 13
-0.543519994715
 23
-1.1842
 33
0.0
 14
0.543519994715
 24
-1.1842
 34
0.0
1001
TCAD
1000
TCW_CUSTOM_DATA
1002
{
1000
#$AUX@_ToolInfo Properties
1070
           8
1000
Insert^JDimension^JParallel@Dimension Parallel
1002
}
1001
ACAD
1000
DSTYLE
1002
{
1070
          41
1040
0.1
1070
         147
1040
0.03
1070
         174
1070
           0
1070
         140
1040
0.04998
1002
}
  0
DIMENSION
  5
32B
100
AcDbEntity
  8
0
  6
Continuous
 62
           7
100
AcDbDimension
  2
*D10
 10
0.59055
 20
-1.493726494268
 30
0.0
 11
-0.0
 21
-1.422076493308
 31
0.0
 70
           1
 71
           5
 72
           1
 41
1.0
 42
0.0
  1
<1.1811>
  3
STANDARD
100
AcDbAlignedDimension
 13
-0.59055
 23
-1.1842
 33
0.0
 14
0.59055
 24
-1.1842
 34
0.0
1001
TCAD
1000
TCW_CUSTOM_DATA
1002
{
1000
#$AUX@_ToolInfo Properties
1070
           8
1000
Insert^JDimension^JParallel@Dimension Parallel
1002
}
1001
ACAD
1000
DSTYLE
1002
{
1070
          41
1040
0.1
1070
         147
1040
0.03
1070
         174
1070
           0
1070
         140
1040
0.04998
1002
}
  0
DIMENSION
  5
33A
100
AcDbEntity
  8
0
  6
Continuous
 62
           7
100
AcDbDimension
  2
*D11
 10
1.1811
 20
-0.163564974706
 30
0.0
 11
-0.0
 21
-0.091914973747
 31
0.0
 70
           1
 71
           5
 72
           1
 41
1.0
 42
0.0
  1
<2.3622>
  3
STANDARD
100
AcDbAlignedDimension
 13
-1.1811
 23
-0.8693
 33
0.0
 14
1.1811
 24
-0.8693
 34
0.0
1001
TCAD
1000
TCW_CUSTOM_DATA
1002
{
1000
#$AUX@_ToolInfo Properties
1070
           8
1000
Insert^JDimension^JParallel@Dimension Parallel
1002
}
1001
ACAD
1000
DSTYLE
1002
{
1070
          41
1040
0.1
1070
         147
1040
0.03
1070
         174
1070
           0
1070
         140
1040
0.04998
1002
}
  0
DIMENSION
  5
349
100
AcDbEntity
  8
0
  6
Continuous
 62
           7
100
AcDbDimension
  2
*D12
 10
3.1693
 20
0.911671223712
 30
0.0
 11
2.83465
 21
0.983321224671
 31
0.0
 70
           1
 71
           5
 72
           1
 41
1.0
 42
0.0
  1
<0.6693>
  3
STANDARD
100
AcDbAlignedDimension
 13
2.5
 23
1.03
 33
0.0
 14
3.1693
 24
1.03
 34
0.0
1001
TCAD
1000
TCW_CUSTOM_DATA
1002
{
1000
#$AUX@_ToolInfo Properties
1070
           8
1000
Insert^JDimension^JParallel@Dimension Parallel
1002
}
1001
ACAD
1000
DSTYLE
1002
{
1070
          41
1040
0.1
1070
         147
1040
0.03
1070
         174
1070
           0
1070
         140
1040
0.04998
1002
}
  0
DIMENSION
  5
358
100
AcDbEntity
  8
0
  6
Continuous
 62
           7
100
AcDbDimension
  2
*D13
 10
3.4842
 20
0.781197633942
 30
0.0
 11
2.9921
 21
0.852847634901
 31
0.0
 70
           1
 71
           5
 72
           1
 41
1.0
 42
0.0
  1
<0.9842>
  3
STANDARD
100
AcDbAlignedDimension
 13
2.5
 23
1.02286260441
 33
0.0
 14
3.4842
 24
1.02286260441
 34
0.0
1001
TCAD
1000
TCW_CUSTOM_DATA
1002
{
1000
#$AUX@_ToolInfo Properties
1070
           8
1000
Insert^JDimension^JParallel@Dimension Parallel
1002
}
1001
ACAD
1000
DSTYLE
1002
{
1070
          41
1040
0.1
1070
         147
1040
0.03
1070
         174
1070
           0
1070
         140
1040
0.04998
1002
}
  0
DIMENSION
  5
368
100
AcDbEntity
  8
0
  6
Continuous
 62
           7
100
AcDbDimension
  2
*D14
 10
3.4842
 20
2.484714348822
 30
0.0
 11
2.840520367634
 21
2.536364349782
 31
0.0
 70
           1
 71
           5
 72
           1
 41
1.0
 42
0.0
  1
<0.3149>
  3
STANDARD
100
AcDbAlignedDimension
 13
3.1693
 23
2.3622
 33
0.0
 14
3.4842
 24
2.3622
 34
0.0
1001
TCAD
1000
TCW_CUSTOM_DATA
1002
{
1000
#$AUX@_ToolInfo Properties
1070
           8
1000
Insert^JDimension^JParallel@Dimension Parallel
1002
}
1001
ACAD
1000
DSTYLE
1002
{
1070
          41
1040
0.1
1070
          43
1040
0.375
1070
          44
1040
0.125
1070
          42
1040
0.0625
1070
         280
1070
           1
1070
         174
1070
           0
1070
         140
1040
0.04998
1002
}
  0
XLINE
  5
369
100
AcDbEntity
  8
$CONSTRUCTION
100
AcDbXline
 10
-1.1896515
 20
3.1
 30
0.0
 11
1.0
 21
0.0
 31
0.0
1001
TCAD
1000
TCW_CUSTOM_DATA
1002
{
1000
#$AUX@_ToolInfo Properties
1070
           8
1000
Insert^JConstruction^JHorizontalLine@Construction HorizontalLine
1002
}
  0
XLINE
  5
36A
100
AcDbEntity
  8
$CONSTRUCTION
100
AcDbXline
 10
-1.1896515
 20
3.2
 30
0.0
 11
1.0
 21
0.0
 31
0.0
1001
TCAD
1000
TCW_CUSTOM_DATA
1002
{
1000
#$AUX@_ToolInfo Properties
1070
           8
1000
Insert^JConstruction^JHorizontalLine@Construction HorizontalLine
1002
}
  0
XLINE
  5
36B
100
AcDbEntity
  8
$CONSTRUCTION
100
AcDbXline
 10
-1.1896515
 20
3.3
 30
0.0
 11
1.0
 21
0.0
 31
0.0
1001
TCAD
1000
TCW_CUSTOM_DATA
1002
{
1000
#$AUX@_ToolInfo Properties
1070
           8
1000
Insert^JConstruction^JHorizontalLine@Construction HorizontalLine
1002
}
  0
XLINE
  5
36C
100
AcDbEntity
  8
$CONSTRUCTION
100
AcDbXline
 10
-1.1896515
 20
3.4
 30
0.0
 11
1.0
 21
0.0
 31
0.0
1001
TCAD
1000
TCW_CUSTOM_DATA
1002
{
1000
#$AUX@_ToolInfo Properties
1070
           8
1000
Insert^JConstruction^JHorizontalLine@Construction HorizontalLine
1002
}
  0
XLINE
  5
36D
100
AcDbEntity
  8
$CONSTRUCTION
100
AcDbXline
 10
-0.3
 20
-1.053156052306
 30
0.0
 11
0.0
 21
1.0
 31
0.0
1001
TCAD
1000
TCW_CUSTOM_DATA
1002
{
1000
#$AUX@_ToolInfo Properties
1070
           8
1000
Insert^JConstruction^JVerticalLine@Construction VerticalLine
1002
}
  0
XLINE
  5
36E
100
AcDbEntity
  8
$CONSTRUCTION
100
AcDbXline
 10
-0.4
 20
-1.053156052306
 30
0.0
 11
0.0
 21
1.0
 31
0.0
1001
TCAD
1000
TCW_CUSTOM_DATA
1002
{
1000
#$AUX@_ToolInfo Properties
1070
           8
1000
Insert^JConstruction^JVerticalLine@Construction VerticalLine
1002
}
  0
XLINE
  5
36F
100
AcDbEntity
  8
$CONSTRUCTION
100
AcDbXline
 10
-0.5
 20
-1.053156052306
 30
0.0
 11
0.0
 21
1.0
 31
0.0
1001
TCAD
1000
TCW_CUSTOM_DATA
1002
{
1000
#$AUX@_ToolInfo Properties
1070
           8
1000
Insert^JConstruction^JVerticalLine@Construction VerticalLine
1002
}
  0
XLINE
  5
370
100
AcDbEntity
  8
$CONSTRUCTION
100
AcDbXline
 10
-0.6
 20
-1.053156052306
 30
0.0
 11
0.0
 21
1.0
 31
0.0
1001
TCAD
1000
TCW_CUSTOM_DATA
1002
{
1000
#$AUX@_ToolInfo Properties
1070
           8
1000
Insert^JConstruction^JVerticalLine@Construction VerticalLine
1002
}
  0
XLINE
  5
371
100
AcDbEntity
  8
$CONSTRUCTION
100
AcDbXline
 10
-0.45
 20
-1.053156052306
 30
0.0
 11
0.0
 21
1.0
 31
0.0
1001
TCAD
1000
TCW_CUSTOM_DATA
1002
{
1000
#$AUX@_ToolInfo Properties
1070
           8
1000
Insert^JConstruction^JVerticalLine@Construction VerticalLine
1002
}
  0
XLINE
  5
372
100
AcDbEntity
  8
$CONSTRUCTION
100
AcDbXline
 10
-1.1896515
 20
3.25
 30
0.0
 11
1.0
 21
0.0
 31
0.0
1001
TCAD
1000
TCW_CUSTOM_DATA
1002
{
1000
#$AUX@_ToolInfo Properties
1070
           8
1000
Insert^JConstruction^JHorizontalLine@Construction HorizontalLine
1002
}
  0
CIRCLE
  5
373
100
AcDbEntity
  8
0
370
           0
  6
Continuous
 62
           7
100
AcDbCircle
 10
-0.45
 20
3.25
 30
0.0
 40
0.271423347743
1001
TCAD
1000
TCW_CUSTOM_DATA
1002
{
1000
#$AUX@_ToolInfo Properties
1070
           8
1000
Insert^JCircle^JCenterAndPoint@Circle CenterAndPoint
1002
}
  0
XLINE
  5
374
100
AcDbEntity
  8
$CONSTRUCTION
100
AcDbXline
 10
-0.297412875
 20
1.42
 30
0.0
 11
1.0
 21
0.0
 31
0.0
1001
TCAD
1000
TCW_CUSTOM_DATA
1002
{
1000
#$AUX@_ToolInfo Properties
1070
           8
1000
Insert^JConstruction^JHorizontalLine@Construction HorizontalLine
1002
}
  0
XLINE
  5
375
100
AcDbEntity
  8
$CONSTRUCTION
100
AcDbXline
 10
-0.18
 20
-0.263289013076
 30
0.0
 11
0.0
 21
1.0
 31
0.0
1001
TCAD
1000
TCW_CUSTOM_DATA
1002
{
1000
#$AUX@_ToolInfo Properties
1070
           8
1000
Insert^JConstruction^JVerticalLine@Construction VerticalLine
1002
}
  0
CIRCLE
  5
376
100
AcDbEntity
  8
0
370
           0
  6
Continuous
 62
           7
100
AcDbCircle
 10
-0.18
 20
1.42
 30
0.0
 40
0.047959875388
1001
TCAD
1000
TCW_CUSTOM_DATA
1002
{
1000
#$AUX@_ToolInfo Properties
1070
           8
1000
Insert^JCircle^JCenterAndPoint@Circle CenterAndPoint
1002
}
  0
LINE
  5
377
100
AcDbEntity
  8
0
370
           0
  6
Continuous
 62
           7
100
AcDbLine
 10
-0.4
 20
2.983221751824
 30
0.0
 11
-0.194728365713
 21
1.465642358513
 31
0.0
1001
TCAD
1000
TCW_CUSTOM_DATA
1002
{
1000
#$AUX@_ToolInfo Properties
1070
           8
1000
Insert^JLine^JSingle@Line Single
1002
}
  0
LWPOLYLINE
  5
378
100
AcDbEntity
  8
0
370
           0
  6
Continuous
 62
           7
100
AcDbPolyline
 90
        4
 70
           1
 10
-0.6
 20
3.4
 10
-0.5
 20
3.4
 10
-0.5
 20
3.3
 10
-0.6
 20
3.3
1001
TCAD
1000
TCW_CUSTOM_DATA
1002
{
1000
#$AUX@_ToolInfo Properties
1070
           8
1000
Insert^JLine^JRectangle@Line Rectangle
1002
}
  0
LWPOLYLINE
  5
379
100
AcDbEntity
  8
0
370
           0
  6
Continuous
 62
           7
100
AcDbPolyline
 90
        4
 70
           1
 10
-0.4
 20
3.4
 10
-0.3
 20
3.4
 10
-0.3
 20
3.3
 10
-0.4
 20
3.3
1001
TCAD
1000
TCW_CUSTOM_DATA
1002
{
1000
#$AUX@_ToolInfo Properties
1070
           8
1000
Insert^JLine^JRectangle@Line Rectangle
1002
}
  0
LWPOLYLINE
  5
37A
100
AcDbEntity
  8
0
370
           0
  6
Continuous
 62
           7
100
AcDbPolyline
 90
        4
 70
           1
 10
-0.4
 20
3.2
 10
-0.3
 20
3.2
 10
-0.3
 20
3.1
 10
-0.4
 20
3.1
1001
TCAD
1000
TCW_CUSTOM_DATA
1002
{
1000
#$AUX@_ToolInfo Properties
1070
           8
1000
Insert^JLine^JRectangle@Line Rectangle
1002
}
  0
LWPOLYLINE
  5
37B
100
AcDbEntity
  8
0
370
           0
  6
Continuous
 62
           7
100
AcDbPolyline
 90
        4
 70
           1
 10
-0.6
 20
3.2
 10
-0.5
 20
3.2
 10
-0.5
 20
3.1
 10
-0.6
 20
3.1
1001
TCAD
1000
TCW_CUSTOM_DATA
1002
{
1000
#$AUX@_ToolInfo Properties
1070
           8
1000
Insert^JLine^JRectangle@Line Rectangle
1002
}
  0
DIMENSION
  5
38B
100
AcDbEntity
  8
0
  6
Continuous
 62
           7
100
AcDbDimension
  2
*D15
 10
-0.5
 20
3.040732569562
 30
0.0
 11
-0.55
 21
3.061582570465
 31
0.0
 70
           1
 71
           5
 72
           1
 41
1.0
 42
0.0
  1
0.02"
  3
STANDARD
100
AcDbAlignedDimension
 13
-0.6
 23
3.1
 33
0.0
 14
-0.5
 24
3.1
 34
0.0
1001
TCAD
1000
TCW_CUSTOM_DATA
1002
{
1000
#$AUX@_ToolInfo Properties
1070
           8
1000
Insert^JDimension^JParallel@Dimension Parallel
1002
}
1001
ACAD
1000
DSTYLE
1002
{
1070
         147
1040
0.0
1002
}
  0
DIMENSION
  5
39B
100
AcDbEntity
  8
0
  6
Continuous
 62
           7
100
AcDbDimension
  2
*D16
 10
-0.647006927556
 20
3.2
 30
0.0
 11
-0.647006927556
 21
3.25
 31
0.0
 70
           1
 71
           5
 72
           1
 41
1.0
 42
0.0
  1
0.02"
  3
STANDARD
100
AcDbAlignedDimension
 13
-0.6
 23
3.3
 33
0.0
 14
-0.6
 24
3.2
 34
0.0
 50
-90.0
1001
TCAD
1000
TCW_CUSTOM_DATA
1002
{
1000
#$AUX@_ToolInfo Properties
1070
           8
1000
Insert^JDimension^JParallel@Dimension Parallel
1002
}
1001
ACAD
1000
DSTYLE
1002
{
1002
}
  0
DIMENSION
  5
3AB
100
AcDbEntity
  8
0
  6
Continuous
 62
           7
100
AcDbDimension
  2
*D17
 10
-0.4
 20
3.444866150029
 30
0.0
 11
-0.45
 21
3.475716150932
 31
0.0
 70
           1
 71
           5
 72
           1
 41
1.0
 42
0.0
  1
0.02"
  3
STANDARD
100
AcDbAlignedDimension
 13
-0.5
 23
3.4
 33
0.0
 14
-0.4
 24
3.4
 34
0.0
1001
TCAD
1000
TCW_CUSTOM_DATA
1002
{
1000
#$AUX@_ToolInfo Properties
1070
           8
1000
Insert^JDimension^JParallel@Dimension Parallel
1002
}
1001
ACAD
1000
DSTYLE
1002
{
1002
}
  0
DIMENSION
  5
3BB
100
AcDbEntity
  8
0
  6
Continuous
 62
           7
100
AcDbDimension
  2
*D18
 10
-0.258931635053
 20
3.1
 30
0.0
 11
-0.258931635053
 21
3.15
 31
0.0
 70
           1
 71
           5
 72
           1
 41
1.0
 42
0.0
  1
0.02"
  3
STANDARD
100
AcDbAlignedDimension
 13
-0.3
 23
3.2
 33
0.0
 14
-0.3
 24
3.1
 34
0.0
 50
-90.0
1001
TCAD
1000
TCW_CUSTOM_DATA
1002
{
1000
#$AUX@_ToolInfo Properties
1070
           8
1000
Insert^JDimension^JParallel@Dimension Parallel
1002
}
1001
ACAD
1000
DSTYLE
1002
{
1002
}
  0
ARC
  5
3BC
100
AcDbEntity
  8
0
370
           0
  6
DASHDOT
 62
           7
 48
0.300000011921
100
AcDbCircle
 10
0.0
 20
-0.0
 30
0.0
 40
1.1811
100
AcDbArc
 50
40.102377341835
 51
60.0
1001
TCAD
1000
TCW_CUSTOM_DATA
1002
{
1000
#$AUX@_ToolInfo Properties
1070
           8
1000
Insert^JArc^JCenterAndPoint@Arc CenterAndPoint
1002
}
  0
ARC
  5
3BD
100
AcDbEntity
  8
0
370
           0
  6
DASHDOT
 62
           7
 48
0.300000011921
100
AcDbCircle
 10
0.0
 20
-0.0
 30
0.0
 40
2.3622
100
AcDbArc
 50
50.810786638114
 51
60.0
1001
TCAD
1000
TCW_CUSTOM_DATA
1002
{
1000
#$AUX@_ToolInfo Properties
1070
           8
1000
Insert^JArc^JCenterAndPoint@Arc CenterAndPoint
1002
}
  0
LINE
  5
3BE
100
AcDbEntity
  8
0
370
           0
  6
DASHDOT
 62
           7
 48
0.300000011921
100
AcDbLine
 10
0.59055
 20
1.02286260441
 30
0.0
 11
-0.0
 21
-0.0
 31
0.0
1001
TCAD
1000
TCW_CUSTOM_DATA
1002
{
1000
#$AUX@_ToolInfo Properties
1070
           8
1000
Insert^JLine^JSingle@Line Single
1002
}
  0
LINE
  5
3BF
100
AcDbEntity
  8
0
370
           0
  6
DASHDOT
 62
           7
 48
0.300000011921
100
AcDbLine
 10
-0.0
 20
-0.0
 30
0.0
 11
-0.59055
 21
1.02286260441
 31
0.0
1001
TCAD
1000
TCW_CUSTOM_DATA
1002
{
1000
#$AUX@_ToolInfo Properties
1070
           8
1000
Insert^JLine^JSingle@Line Single
1002
}
  0
LINE
  5
3C0
100
AcDbEntity
  8
0
370
           0
  6
DASHDOT
 62
           7
 48
0.300000011921
100
AcDbLine
 10
0.0
 20
-0.0
 30
0.0
 11
-0.557496223151
 21
2.080604229827
 31
0.0
1001
TCAD
1000
TCW_CUSTOM_DATA
1002
{
1000
#$AUX@_ToolInfo Properties
1070
           8
1000
Insert^JLine^JSingle@Line Single
1002
}
  0
ENDSEC
  0
SECTION
  2
OBJECTS
  0
DICTIONARY
  5
19
100
AcDbDictionary
280
           0
281
           1
  3
ACAD_GROUP
350
1A
  3
ACAD_MLINESTYLE
350
1B
  3
ACAD_LAYOUT
350
1E
  3
ACAD_PLOTSETTINGS
350
22
  3
ACAD_PLOTSTYLENAME
350
1F
  0
DICTIONARY
  5
1A
102
{ACAD_REACTORS
330
19
102
}
100
AcDbDictionary
280
           0
281
           1
  3
Group_2
350
1A0
  3
Group_2
350
241
  3
Group_1
350
26C
  3
Group_1
350
283
  0
DICTIONARY
  5
1B
102
{ACAD_REACTORS
330
19
102
}
100
AcDbDictionary
280
           0
281
           1
  3
Standard
350
1C
  0
MLINESTYLE
  5
1C
100
AcDbMlineStyle
  2
STANDARD
 70
           0
  3

 62
         256
 51
90.0
 52
90.0
 71
           3
 49
0.25
 62
           7
  6
ByLayer
 49
0.0
 62
           7
  6
ByLayer
 49
-0.25
 62
           7
  6
ByLayer
  0
ACDBDICTIONARYWDFLT
  5
1F
102
{ACAD_REACTORS
330
19
102
}
100
AcDbDictionary
281
           1
  3
Normal
350
1D
100
AcDbDictionaryWithDefault
340
1D
  0
ACDBPLACEHOLDER
  5
1D
102
{ACAD_REACTORS
330
1F
102
}
  0
LAYOUT
  5
21
102
{ACAD_REACTORS
330
1E
102
}
100
AcDbPlotSettings
  1

  2

  4

  6

 40
0.0
 41
0.0
 42
0.0
 43
0.0
 44
0.0
 45
0.0
 46
0.0
 47
0.0
 48
0.0
 49
0.0
140
0.0
141
0.0
142
1.0
143
1.0
 70
           0
 72
           0
 73
           0
 74
           0
  7

 75
           0
147
1.0
148
0.0
149
0.0
100
AcDbLayout
  1
Layout1
 70
           0
 71
           0
 10
0.0
 20
0.0
 11
0.0
 21
0.0
 12
0.0
 22
0.0
 32
0.0
 14
0.0
 24
0.0
 34
0.0
 15
0.0
 25
0.0
 35
0.0
146
0.0
 13
0.0
 23
0.0
 33
0.0
 16
0.0
 26
0.0
 36
0.0
 17
0.0
 27
0.0
 37
0.0
 76
           0
330
B
331
0
345
0
346
0
  0
DICTIONARY
  5
1E
102
{ACAD_REACTORS
330
19
102
}
100
AcDbDictionary
280
           0
281
           1
  3
Model
350
3C1
  3
Paper 1
350
3C4
  0
DICTIONARY
  5
22
102
{ACAD_REACTORS
330
19
102
}
100
AcDbDictionary
280
           0
281
           1
  0
GROUP
  5
1A0
102
{ACAD_REACTORS
330
1A
102
}
100
AcDbGroup
300

 70
           0
 71
           1
340
100
340
101
340
102
340
103
340
104
340
105
340
106
340
107
340
108
340
109
340
10A
340
10B
340
10C
340
10D
340
10E
340
10F
340
110
340
111
340
112
340
113
340
114
340
115
340
116
340
117
340
118
340
119
340
11A
340
11B
340
11C
340
11D
340
11E
340
11F
340
120
340
121
340
122
340
123
340
124
340
125
340
126
340
127
340
128
340
129
340
12A
340
12B
340
12C
340
12D
340
12E
340
12F
340
130
340
131
340
132
340
133
340
134
340
135
340
136
340
137
340
138
340
139
340
13A
340
13B
340
13C
340
13D
340
13E
340
13F
340
140
340
141
340
142
340
143
340
144
340
145
340
146
340
147
340
148
340
149
340
14A
340
14B
340
14C
340
14D
340
14E
340
14F
340
150
340
151
340
152
340
153
340
154
340
155
340
156
340
157
340
158
340
159
340
15A
340
15B
340
15C
340
15D
340
15E
340
15F
340
160
340
161
340
162
340
163
340
164
340
165
340
166
340
167
340
168
340
169
340
16A
340
16B
340
16C
340
16D
340
16E
340
16F
340
170
340
171
340
172
340
173
340
174
340
175
340
176
340
177
340
178
340
179
340
17A
340
17B
340
17C
340
17D
340
17E
340
17F
340
180
340
181
340
182
340
183
340
184
340
185
340
186
340
187
340
188
340
189
340
18A
340
18B
340
18C
340
18D
340
18E
340
18F
340
190
340
191
340
192
340
193
340
194
340
195
340
196
340
197
340
198
340
199
340
19A
340
19B
340
19C
340
19D
340
19E
340
19F
  0
GROUP
  5
241
102
{ACAD_REACTORS
330
1A
102
}
100
AcDbGroup
300

 70
           0
 71
           1
340
1A1
340
1A2
340
1A3
340
1A4
340
1A5
340
1A6
340
1A7
340
1A8
340
1A9
340
1AA
340
1AB
340
1AC
340
1AD
340
1AE
340
1AF
340
1B0
340
1B1
340
1B2
340
1B3
340
1B4
340
1B5
340
1B6
340
1B7
340
1B8
340
1B9
340
1BA
340
1BB
340
1BC
340
1BD
340
1BE
340
1BF
340
1C0
340
1C1
340
1C2
340
1C3
340
1C4
340
1C5
340
1C6
340
1C7
340
1C8
340
1C9
340
1CA
340
1CB
340
1CC
340
1CD
340
1CE
340
1CF
340
1D0
340
1D1
340
1D2
340
1D3
340
1D4
340
1D5
340
1D6
340
1D7
340
1D8
340
1D9
340
1DA
340
1DB
340
1DC
340
1DD
340
1DE
340
1DF
340
1E0
340
1E1
340
1E2
340
1E3
340
1E4
340
1E5
340
1E6
340
1E7
340
1E8
340
1E9
340
1EA
340
1EB
340
1EC
340
1ED
340
1EE
340
1EF
340
1F0
340
1F1
340
1F2
340
1F3
340
1F4
340
1F5
340
1F6
340
1F7
340
1F8
340
1F9
340
1FA
340
1FB
340
1FC
340
1FD
340
1FE
340
1FF
340
200
340
201
340
202
340
203
340
204
340
205
340
206
340
207
340
208
340
209
340
20A
340
20B
340
20C
340
20D
340
20E
340
20F
340
210
340
211
340
212
340
213
340
214
340
215
340
216
340
217
340
218
340
219
340
21A
340
21B
340
21C
340
21D
340
21E
340
21F
340
220
340
221
340
222
340
223
340
224
340
225
340
226
340
227
340
228
340
229
340
22A
340
22B
340
22C
340
22D
340
22E
340
22F
340
230
340
231
340
232
340
233
340
234
340
235
340
236
340
237
340
238
340
239
340
23A
340
23B
340
23C
340
23D
340
23E
340
23F
340
240
  0
GROUP
  5
26C
102
{ACAD_REACTORS
330
1A
102
}
100
AcDbGroup
300

 70
           0
 71
           1
340
257
340
258
340
259
340
25A
340
25B
340
25C
340
25D
340
25E
340
25F
340
260
340
261
340
262
340
263
340
264
340
265
340
266
340
267
340
268
340
269
340
26A
340
26B
  0
GROUP
  5
283
102
{ACAD_REACTORS
330
1A
102
}
100
AcDbGroup
300

 70
           0
 71
           1
340
26E
340
26F
340
270
340
271
340
272
340
273
340
274
340
275
340
276
340
277
340
278
340
279
340
27A
340
27B
340
27C
340
27D
340
27E
340
27F
340
280
340
281
340
282
  0
LAYOUT
  5
3C1
100
AcDbPlotSettings
  1

  2

  4

  6

 40
0.0
 41
0.0
 42
0.0
 43
0.0
 44
0.0
 45
0.0
 46
0.0
 47
0.0
 48
0.0
 49
0.0
140
0.0
141
0.0
142
1.0
143
1.0
 70
           0
 72
           0
 73
           0
 74
           0
  7

 75
           0
147
1.0
148
0.0
149
0.0
100
AcDbLayout
  1
Model
 70
           0
 71
           0
 10
0.0
 20
0.0
 11
0.0
 21
0.0
 12
0.0
 22
0.0
 32
0.0
 14
0.0
 24
0.0
 34
0.0
 15
0.0
 25
0.0
 35
0.0
146
0.0
 13
0.0
 23
0.0
 33
0.0
 16
0.0
 26
0.0
 36
0.0
 17
0.0
 27
0.0
 37
0.0
 76
           0
330
A
331
0
345
0
346
0
  0
LAYOUT
  5
3C4
100
AcDbPlotSettings
  1

  2

  4

  6

 40
4.572
 41
4.61518
 42
4.23418
 43
4.572
 44
279.4
 45
215.9
 46
-4.572
 47
-4.61518
 48
0.0
 49
0.0
140
0.0
141
0.0
142
1.0
143
1.0
 70
           0
 72
           0
 73
           0
 74
           0
  7

 75
           0
147
1.0
148
0.0
149
0.0
100
AcDbLayout
  1
Paper 1
 70
           1
 71
           1
 10
0.0
 20
0.0
 11
279.4
 21
215.9
 12
0.0
 22
0.0
 32
0.0
 14
0.0
 24
0.0
 34
0.0
 15
0.0
 25
0.0
 35
0.0
146
0.0
 13
0.0
 23
0.0
 33
0.0
 16
0.0
 26
0.0
 36
0.0
 17
0.0
 27
0.0
 37
0.0
 76
           0
330
B
331
3C2
345
0
346
0
  0
ENDSEC
  0
EOF
