  0
SECTION
  2
HEADER
  9
$ACADVER
  1
AC1015
  9
$ACADMAINTVER
 70
           6
  9
$DWGCODEPAGE
  3
ANSI_1252
  9
$INSBASE
 10
0.0
 20
0.0
 30
0.0
  9
$EXTMIN
 10
1.463820607507
 20
1.930358594517
 30
0.0
  9
$EXTMAX
 10
9.744212365343
 20
8.772635380128
 30
0.0
  9
$LIMMIN
 10
1.5
 20
-0.0922
  9
$LIMMAX
 10
10.0
 20
10.9078
  9
$ORTHOMODE
 70
           0
  9
$REGENMODE
 70
           1
  9
$FILLMODE
 70
           1
  9
$QTEXTMODE
 70
           0
  9
$MIRRTEXT
 70
           1
  9
$LTSCALE
 40
1.0
  9
$ATTMODE
 70
           1
  9
$TEXTSIZE
 40
0.25
  9
$TRACEWID
 40
1.0
  9
$TEXTSTYLE
  7
STANDARD
  9
$CLAYER
  8
0
  9
$CELTYPE
  6
Continuous
  9
$CECOLOR
 62
           7
  9
$CELTSCALE
 40
1.0
  9
$DISPSILH
 70
           0
  9
$DIMSCALE
 40
1.0
  9
$DIMASZ
 40
0.1
  9
$DIMEXO
 40
0.0625
  9
$DIMDLI
 40
0.375
  9
$DIMRND
 40
0.01
  9
$DIMDLE
 40
0.0
  9
$DIMEXE
 40
0.125
  9
$DIMTP
 40
0.0
  9
$DIMTM
 40
0.0
  9
$DIMTXT
 40
0.15
  9
$DIMCEN
 40
0.09
  9
$DIMTSZ
 40
0.0
  9
$DIMTOL
 70
           0
  9
$DIMLIM
 70
           0
  9
$DIMTIH
 70
           1
  9
$DIMTOH
 70
           1
  9
$DIMSE1
 70
           0
  9
$DIMSE2
 70
           0
  9
$DIMTAD
 70
           1
  9
$DIMZIN
 70
           0
  9
$DIMBLK
  1

  9
$DIMASO
 70
           0
  9
$DIMSHO
 70
           1
  9
$DIMPOST
  1

  9
$DIMAPOST
  1

  9
$DIMALT
 70
           0
  9
$DIMALTD
 70
           2
  9
$DIMALTF
 40
1.0
  9
$DIMLFAC
 40
1.0
  9
$DIMTOFL
 70
           1
  9
$DIMTVP
 40
0.0
  9
$DIMTIX
 70
           0
  9
$DIMSOXD
 70
           0
  9
$DIMSAH
 70
           0
  9
$DIMBLK1
  1

  9
$DIMBLK2
  1

  9
$DIMSTYLE
  2
STANDARD
  9
$DIMCLRD
 70
           7
  9
$DIMCLRE
 70
           7
  9
$DIMCLRT
 70
           7
  9
$DIMTFAC
 40
1.0
  9
$DIMGAP
 40
0.0625
  9
$DIMJUST
 70
           0
  9
$DIMSD1
 70
           0
  9
$DIMSD2
 70
           0
  9
$DIMTOLJ
 70
           1
  9
$DIMTZIN
 70
           0
  9
$DIMALTZ
 70
           8
  9
$DIMALTTZ
 70
           0
  9
$DIMUPT
 70
           0
  9
$DIMDEC
 70
           2
  9
$DIMTDEC
 70
           2
  9
$DIMALTU
 70
           2
  9
$DIMALTTD
 70
           2
  9
$DIMTXSTY
  7
STANDARD
  9
$DIMAUNIT
 70
           0
  9
$DIMADEC
 70
           0
  9
$DIMALTRND
 40
0.0
  9
$DIMAZIN
 70
           0
  9
$DIMDSEP
 70
           0
  9
$DIMATFIT
 70
           0
  9
$DIMFRAC
 70
           0
  9
$DIMLDRBLK
  1

  9
$DIMLUNIT
 70
           2
  9
$DIMLWD
 70
           0
  9
$DIMLWE
 70
           0
  9
$DIMTMOVE
 70
           0
  9
$LUNITS
 70
           2
  9
$LUPREC
 70
           4
  9
$SKETCHINC
 40
1.0
  9
$FILLETRAD
 40
1.0
  9
$AUNITS
 70
           0
  9
$AUPREC
 70
           2
  9
$MENU
  1
acad
  9
$ELEVATION
 40
0.0
  9
$PELEVATION
 40
0.0
  9
$THICKNESS
 40
0.0
  9
$LIMCHECK
 70
           0
  9
$CHAMFERA
 40
0.0
  9
$CHAMFERB
 40
0.0
  9
$CHAMFERC
 40
0.0
  9
$CHAMFERD
 40
0.0
  9
$SKPOLY
 70
           0
  9
$TDCREATE
 40
0.000000000
  9
$TDUCREATE
 40
0.000000000
  9
$TDUPDATE
 40
2449702.667959363
  9
$TDUUPDATE
 40
0.000000000
  9
$TDINDWG
 40
0.0000000000
  9
$TDUSRTIMER
 40
0.0000000000
  9
$USRTIMER
 70
           1
  9
$ANGBASE
 50
0.0
  9
$ANGDIR
 70
           0
  9
$PDMODE
 70
           0
  9
$PDSIZE
 40
0.0
  9
$PLINEWID
 40
0.0
  9
$SPLFRAME
 70
           0
  9
$SPLINETYPE
 70
           5
  9
$SPLINESEGS
 70
          20
  9
$HANDSEED
  5
12C
  9
$SURFTAB1
 70
           6
  9
$SURFTAB2
 70
           6
  9
$SURFTYPE
 70
           6
  9
$SURFU
 70
           6
  9
$SURFV
 70
           6
  9
$UCSBASE
  2

  9
$UCSNAME
  2

  9
$UCSORG
 10
0.0
 20
0.0
 30
0.0
  9
$UCSXDIR
 10
1.0
 20
0.0
 30
0.0
  9
$UCSYDIR
 10
0.0
 20
1.0
 30
0.0
  9
$UCSORTHOREF
  2

  9
$UCSORTHOVIEW
 70
           0
  9
$UCSORGTOP
 10
0.0
 20
0.0
 30
0.0
  9
$UCSORGBOTTOM
 10
0.0
 20
0.0
 30
0.0
  9
$UCSORGLEFT
 10
0.0
 20
0.0
 30
0.0
  9
$UCSORGRIGHT
 10
0.0
 20
0.0
 30
0.0
  9
$UCSORGFRONT
 10
0.0
 20
0.0
 30
0.0
  9
$UCSORGBACK
 10
0.0
 20
0.0
 30
0.0
  9
$PUCSBASE
  2

  9
$PUCSNAME
  2

  9
$PUCSORG
 10
0.0
 20
0.0
 30
0.0
  9
$PUCSXDIR
 10
1.0
 20
0.0
 30
0.0
  9
$PUCSYDIR
 10
0.0
 20
1.0
 30
0.0
  9
$PUCSORTHOREF
  2

  9
$PUCSORTHOVIEW
 70
           0
  9
$PUCSORGTOP
 10
0.0
 20
0.0
 30
0.0
  9
$PUCSORGBOTTOM
 10
0.0
 20
0.0
 30
0.0
  9
$PUCSORGLEFT
 10
0.0
 20
0.0
 30
0.0
  9
$PUCSORGRIGHT
 10
0.0
 20
0.0
 30
0.0
  9
$PUCSORGFRONT
 10
0.0
 20
0.0
 30
0.0
  9
$PUCSORGBACK
 10
0.0
 20
0.0
 30
0.0
  9
$USERI1
 70
           0
  9
$USERI2
 70
           0
  9
$USERI3
 70
           0
  9
$USERI4
 70
           0
  9
$USERI5
 70
           0
  9
$USERR1
 40
0.0
  9
$USERR2
 40
0.0
  9
$USERR3
 40
0.0
  9
$USERR4
 40
0.0
  9
$USERR5
 40
0.0
  9
$WORLDVIEW
 70
           1
  9
$SHADEDGE
 70
           3
  9
$SHADEDIF
 70
          70
  9
$TILEMODE
 70
           1
  9
$MAXACTVP
 70
          16
  9
$PINSBASE
 10
0.0
 20
0.0
 30
0.0
  9
$PLIMCHECK
 70
           0
  9
$PEXTMIN
 10
0.0
 20
0.0
 30
0.0
  9
$PEXTMAX
 10
11.0
 20
8.5
 30
0.0
  9
$PLIMMIN
 10
0.0
 20
0.0
  9
$PLIMMAX
 10
11.0
 20
8.5
  9
$UNITMODE
 70
           0
  9
$VISRETAIN
 70
           0
  9
$PLINEGEN
 70
           1
  9
$PSLTSCALE
 70
           1
  9
$TREEDEPTH
 70
        3020
  9
$CMLSTYLE
  2
STANDARD
  9
$CMLJUST
 70
           0
  9
$CMLSCALE
 40
1.0
  9
$PROXYGRAPHICS
 70
           0
  9
$MEASUREMENT
 70
           0
  9
$CELWEIGHT
370
           0
  9
$ENDCAPS
280
           0
  9
$JOINSTYLE
280
           0
  9
$LWDISPLAY
290
           0
  9
$INSUNITS
 70
           0
  9
$HYPERLINKBASE
  1

  9
$STYLESHEET
  1

  9
$XEDIT
290
           1
  9
$CEPSNTYPE
380
           0
  9
$PSTYLEMODE
290
           1
  9
$FINGERPRINTGUID
  2

  9
$VERSIONGUID
  2

  9
$EXTNAMES
290
           1
  9
$PSVPSCALE
 40
0.0
  0
ENDSEC
  0
SECTION
  2
CLASSES
  0
CLASS
  1
LWPOLYLINE
  2
AcDbPolyline
  3
AutoCAD 2000
 90
        0
280
           0
281
           1
  0
CLASS
  1
IMAGE
  2
AcDbRasterImage
  3
ISM
 90
    32895
280
           0
281
           1
  0
CLASS
  1
OLE2FRAME
  2
AcDbOle2Frame
  3
AutoCAD 2000
 90
    32768
280
           0
281
           1
  0
CLASS
  1
HATCH
  2
AcDbHatch
  3
AutoCAD 2000
 90
        0
280
           0
281
           1
  0
CLASS
  1
DICTIONARYVAR
  2
AcDbDictionaryVar
  3
AutoCAD 2000
 90
    32768
280
           0
281
           0
  0
CLASS
  1
RASTERVARIABLES
  2
AcDbRasterVariables
  3
ISM
 90
    32768
280
           0
281
           0
  0
CLASS
  1
IMAGEDEF
  2
AcDbRasterImageDef
  3
ISM
 90
    32768
280
           0
281
           0
  0
CLASS
  1
IMAGEDEF_REACTOR
  2
AcDbRasterImageDefReactor
  3
ISM
 90
    32769
280
           0
281
           0
  0
CLASS
  1
IDBUFFER
  2
AcDbIdBuffer
  3
AutoCAD 2000
 90
    32768
280
           0
281
           0
  0
CLASS
  1
SPATIAL_FILTER
  2
AcDbSpatialFilter
  3
AutoCAD 2000
 90
    32768
280
           0
281
           0
  0
CLASS
  1
XRECORD
  2
AcDbXrecord
  3
AutoCAD 2000
 90
    32768
280
           0
281
           0
  0
CLASS
  1
SORTENTSTABLE
  2
AcDbSortentsTable
  3
AutoCAD 2000
 90
    32768
280
           0
281
           0
  0
CLASS
  1
LAYER_INDEX
  2
AcDbLayerIndex
  3
AutoCAD 2000
 90
    32768
280
           0
281
           0
  0
CLASS
  1
SPATIAL_INDEX
  2
AcDbSpatialIndex
  3
AutoCAD 2000
 90
    32768
280
           0
281
           0
  0
CLASS
  1
OBJECT_PTR
  2
CAseDLPNTableRecord
  3
"ASE-LPNTableRecord"
 90
    32769
280
           0
281
           0
  0
CLASS
  1
LAYOUT
  2
AcDbLayout
  3
AutoCAD 2000
 90
        0
280
           0
281
           0
  0
CLASS
  1
PLOTSETTINGS
  2
AcDbPlotSettings
  3
AutoCAD 2000
 90
    32768
280
           0
281
           0
  0
CLASS
  1
ACDBDICTIONARYWDFLT
  2
AcDbDictionaryWithDefault
  3
AutoCAD 2000
 90
        0
280
           0
281
           0
  0
CLASS
  1
ACDBPLACEHOLDER
  2
AcDbPlaceHolder
  3
AutoCAD 2000
 90
        0
280
           0
281
           0
  0
ENDSEC
  0
SECTION
  2
TABLES
  0
TABLE
  2
VPORT
  5
7
100
AcDbSymbolTable
 70
           1
  0
VPORT
  5
15
100
AcDbSymbolTableRecord
100
AcDbViewportTableRecord
  2
*ACTIVE
 70
           0
 10
0.0
 20
0.0
 11
1.0
 21
1.0
 12
0.0
 22
0.0
 13
0.0
 23
0.0
 14
0.5
 24
0.5
 15
0.5
 25
0.5
 16
0.0
 26
0.0
 36
1.0
 17
5.3589744035
 27
5.2561514492
 37
0.0
 40
7.3924825232
 41
1.510800508259
 42
50.0
 43
0.0
 44
0.0
 50
0.0
 51
0.0
 71
           0
 72
         100
 73
           1
 74
           1
 75
           0
 76
           0
 77
           0
 78
           0
281
           0
 65
           0
110
0.0
120
0.0
130
0.0
111
1.0
121
0.0
131
0.0
112
0.0
122
1.0
132
0.0
345
0
346
0
 79
           0
146
0.0
  0
ENDTAB
  0
TABLE
  2
LTYPE
  5
4
100
AcDbSymbolTable
 70
          15
  0
LTYPE
  5
11
100
AcDbSymbolTableRecord
100
AcDbLinetypeTableRecord
  2
ByBlock
 70
          64
  3

 72
          65
 73
           0
 40
0.0
  0
LTYPE
  5
12
100
AcDbSymbolTableRecord
100
AcDbLinetypeTableRecord
  2
ByLayer
 70
          64
  3

 72
          65
 73
           0
 40
0.0
  0
LTYPE
  5
13
100
AcDbSymbolTableRecord
100
AcDbLinetypeTableRecord
  2
Continuous
 70
          64
  3
Solid line
 72
          65
 73
           0
 40
0.0
  0
LTYPE
  5
24
100
AcDbSymbolTableRecord
100
AcDbLinetypeTableRecord
  2
BORDER
 70
           0
  3
BORDER
 72
          65
 73
           6
 40
1.75
 49
0.5
 74
           0
 49
-0.25
 74
           0
 49
0.5
 74
           0
 49
-0.25
 74
           0
 49
0.0
 74
           0
 49
-0.25
 74
           0
  0
LTYPE
  5
25
100
AcDbSymbolTableRecord
100
AcDbLinetypeTableRecord
  2
CENTER
 70
           0
  3
CENTER
 72
          65
 73
           4
 40
2.0
 49
1.25
 74
           0
 49
-0.25
 74
           0
 49
0.25
 74
           0
 49
-0.25
 74
           0
  0
LTYPE
  5
26
100
AcDbSymbolTableRecord
100
AcDbLinetypeTableRecord
  2
DASHDOT
 70
           0
  3
DASHDOT
 72
          65
 73
           4
 40
1.0
 49
0.5
 74
           0
 49
-0.25
 74
           0
 49
0.0
 74
           0
 49
-0.25
 74
           0
  0
LTYPE
  5
27
100
AcDbSymbolTableRecord
100
AcDbLinetypeTableRecord
  2
DASHED
 70
           0
  3
DASHED
 72
          65
 73
           2
 40
0.75
 49
0.5
 74
           0
 49
-0.25
 74
           0
  0
LTYPE
  5
28
100
AcDbSymbolTableRecord
100
AcDbLinetypeTableRecord
  2
DIVIDE
 70
           0
  3
DIVIDE
 72
          65
 73
           6
 40
1.25
 49
0.5
 74
           0
 49
-0.25
 74
           0
 49
0.0
 74
           0
 49
-0.25
 74
           0
 49
0.0
 74
           0
 49
-0.25
 74
           0
  0
LTYPE
  5
29
100
AcDbSymbolTableRecord
100
AcDbLinetypeTableRecord
  2
DOT
 70
           0
  3
DOT
 72
          65
 73
           2
 40
0.25
 49
0.0
 74
           0
 49
-0.25
 74
           0
  0
LTYPE
  5
2A
100
AcDbSymbolTableRecord
100
AcDbLinetypeTableRecord
  2
HIDDEN
 70
           0
  3
HIDDEN
 72
          65
 73
           2
 40
0.375
 49
0.25
 74
           0
 49
-0.125
 74
           0
  0
LTYPE
  5
2B
100
AcDbSymbolTableRecord
100
AcDbLinetypeTableRecord
  2
PHANTOM
 70
           0
  3
PHANTOM
 72
          65
 73
           6
 40
2.5
 49
1.25
 74
           0
 49
-0.25
 74
           0
 49
0.25
 74
           0
 49
-0.25
 74
           0
 49
0.25
 74
           0
 49
-0.25
 74
           0
  0
LTYPE
  5
2C
100
AcDbSymbolTableRecord
100
AcDbLinetypeTableRecord
  2
$INVISIBLE
 70
           0
  3
$INVISIBLE
 72
          65
 73
           2
 40
200.0
 49
-100.0
 74
           0
 49
-100.0
 74
           0
  0
LTYPE
  5
2D
100
AcDbSymbolTableRecord
100
AcDbLinetypeTableRecord
  2
$CONSTRUCTION
 70
           0
  3
$CONSTRUCTION
 72
          65
 73
           4
 40
0.3
 49
0.2
 74
           0
 49
-0.05
 74
           0
 49
0.0
 74
           0
 49
-0.05
 74
           0
  0
LTYPE
  5
2E
100
AcDbSymbolTableRecord
100
AcDbLinetypeTableRecord
  2
$SNAPEXT
 70
           0
  3
$SNAPEXT
 72
          65
 73
           2
 40
0.04
 49
0.02
 74
           0
 49
-0.02
 74
           0
  0
LTYPE
  5
2F
100
AcDbSymbolTableRecord
100
AcDbLinetypeTableRecord
  2
$AUXILIARY
 70
           0
  3
$AUXILIARY
 72
          65
 73
           2
 40
0.1
 49
0.05
 74
           0
 49
-0.05
 74
           0
  0
ENDTAB
  0
TABLE
  2
LAYER
  5
2
100
AcDbSymbolTable
 70
           3
  0
LAYER
  5
14
100
AcDbSymbolTableRecord
100
AcDbLayerTableRecord
  2
0
 70
           0
 62
           7
  6
Continuous
290
           1
370
           0
390
0
1001
TCAD
1000
TCW_LAYER_ORDER
1002
{
1071
        0
1002
}
  0
LAYER
  5
30
100
AcDbSymbolTableRecord
100
AcDbLayerTableRecord
  2
$CONSTRUCTION
 70
           0
 62
           1
  6
$CONSTRUCTION
290
           1
370
           0
390
0
1001
TCAD
1000
TCW_LAYER_ORDER
1002
{
1071
        0
1002
}
  0
LAYER
  5
31
100
AcDbSymbolTableRecord
100
AcDbLayerTableRecord
  2
mount holes
 70
           0
 62
           7
  6
Continuous
290
           1
370
           0
390
0
1001
TCAD
1000
TCW_LAYER_ORDER
1002
{
1071
        0
1002
}
  0
ENDTAB
  0
TABLE
  2
STYLE
  5
3
100
AcDbSymbolTable
 70
           1
  0
STYLE
  5
17
100
AcDbSymbolTableRecord
100
AcDbTextStyleTableRecord
  2
STANDARD
 70
           0
 40
0.0
 41
1.0
 50
0.0
 71
           0
 42
0.15000000596
  3
TIMES.TTF
  4

1001
ACAD
1000
Times New Roman
1071
      290
  0
ENDTAB
  0
TABLE
  2
VIEW
  5
5
100
AcDbSymbolTable
 70
           1
  0
VIEW
  5
32
100
AcDbSymbolTableRecord
100
AcDbViewTableRecord
  2
View_0
 70
           0
 40
8.267716535433
 10
5.846456692913
 20
4.133858267717
 41
11.692913385827
 11
0.0
 21
0.0
 31
1.0
 12
0.0
 22
0.0
 32
0.0
 42
92.090489446729
 43
0.0
 44
0.0
 50
0.0
 71
           0
281
           0
 72
           0
110
0.0
120
0.0
130
0.0
111
1.0
121
0.0
131
0.0
112
0.0
122
1.0
132
0.0
  0
ENDTAB
  0
TABLE
  2
UCS
  5
6
100
AcDbSymbolTable
 70
           0
  0
ENDTAB
  0
TABLE
  2
APPID
  5
8
100
AcDbSymbolTable
 70
           2
  0
APPID
  5
16
100
AcDbSymbolTableRecord
100
AcDbRegAppTableRecord
  2
ACAD
 70
           0
  0
APPID
  5
23
100
AcDbSymbolTableRecord
100
AcDbRegAppTableRecord
  2
TCAD
 70
           0
  0
ENDTAB
  0
TABLE
  2
DIMSTYLE
  5
9
100
AcDbSymbolTable
 70
           1
100
AcDbDimStyleTable
 71
           0
  0
DIMSTYLE
105
18
100
AcDbSymbolTableRecord
100
AcDbDimStyleTableRecord
  2
STANDARD
 70
           0
  3

  4

 40
1.0
 41
0.1
 42
0.0625
 43
0.375
 44
0.125
 45
0.01
 46
0.0
 47
0.0
 48
0.0
 71
           0
 72
           0
 73
           1
 74
           1
 75
           0
 76
           0
 77
           1
 78
           0
 79
           0
140
0.15
141
0.09
142
0.0
143
1.0
144
1.0
145
0.0
146
1.0
147
0.0625
148
0.01
170
           0
171
           2
172
           1
173
           0
174
           0
175
           0
176
           7
177
           7
178
           7
179
           0
271
           2
272
           2
273
           2
274
           2
275
           0
276
           0
277
           2
278
          46
279
           0
280
           0
281
           0
282
           0
283
           1
284
           0
285
           8
286
           0
288
           0
340
17
341
0
342
0
343
0
344
0
371
          -2
372
          -2
  0
ENDTAB
  0
TABLE
  2
BLOCK_RECORD
  5
1
100
AcDbSymbolTable
 70
          12
  0
BLOCK_RECORD
  5
A
100
AcDbSymbolTableRecord
100
AcDbBlockTableRecord
  2
*MODEL_SPACE
340
12A
  0
BLOCK_RECORD
  5
B
100
AcDbSymbolTableRecord
100
AcDbBlockTableRecord
  2
*PAPER_SPACE
340
12B
  0
BLOCK_RECORD
  5
4F
100
AcDbSymbolTableRecord
100
AcDbBlockTableRecord
  2
*D0
340
0
  0
BLOCK_RECORD
  5
7A
100
AcDbSymbolTableRecord
100
AcDbBlockTableRecord
  2
*D1
340
0
  0
BLOCK_RECORD
  5
8C
100
AcDbSymbolTableRecord
100
AcDbBlockTableRecord
  2
*D2
340
0
  0
BLOCK_RECORD
  5
A1
100
AcDbSymbolTableRecord
100
AcDbBlockTableRecord
  2
*D3
340
0
  0
BLOCK_RECORD
  5
B2
100
AcDbSymbolTableRecord
100
AcDbBlockTableRecord
  2
*D4
340
0
  0
BLOCK_RECORD
  5
CE
100
AcDbSymbolTableRecord
100
AcDbBlockTableRecord
  2
*D5
340
0
  0
BLOCK_RECORD
  5
DA
100
AcDbSymbolTableRecord
100
AcDbBlockTableRecord
  2
*D6
340
0
  0
BLOCK_RECORD
  5
E6
100
AcDbSymbolTableRecord
100
AcDbBlockTableRecord
  2
*D7
340
0
  0
BLOCK_RECORD
  5
F2
100
AcDbSymbolTableRecord
100
AcDbBlockTableRecord
  2
*D8
340
0
  0
BLOCK_RECORD
  5
FE
100
AcDbSymbolTableRecord
100
AcDbBlockTableRecord
  2
*D9
340
0
  0
BLOCK_RECORD
  5
10E
100
AcDbSymbolTableRecord
100
AcDbBlockTableRecord
  2
*D10
340
0
  0
BLOCK_RECORD
  5
11D
100
AcDbSymbolTableRecord
100
AcDbBlockTableRecord
  2
*D11
340
0
  0
ENDTAB
  0
ENDSEC
  0
SECTION
  2
BLOCKS
  0
BLOCK
  5
D
100
AcDbEntity
  8
0
100
AcDbBlockBegin
  2
*MODEL_SPACE
 70
           0
 10
0.0
 20
0.0
 30
0.0
  3
*MODEL_SPACE
  1

  0
ENDBLK
  5
E
100
AcDbEntity
  8
0
100
AcDbBlockEnd
  0
BLOCK
  5
F
100
AcDbEntity
 67
           1
  8
0
100
AcDbBlockBegin
  2
*PAPER_SPACE
 70
           0
 10
0.0
 20
0.0
 30
0.0
  3
*PAPER_SPACE
  1

  0
ENDBLK
  5
10
100
AcDbEntity
 67
           1
  8
0
100
AcDbBlockEnd
  0
BLOCK
  5
50
100
AcDbEntity
  8
0
100
AcDbBlockBegin
  2
*D0
 70
           1
 10
0.0
 20
0.0
 30
0.0
  3
*D0
  1

  0
MTEXT
  5
51
100
AcDbEntity
  8
0
  6
Continuous
 62
           7
100
AcDbMText
 10
7.655994694323
 20
3.56636457261
 30
0.0
 40
0.15
 41
0.0
 71
           5
 72
           1
  1
\A1;%%c0.275{}in
 73
           1
 44
1.0
1001
TCAD
1000
TCW_REFPOINT
1002
{
1010
7.655994694323
1020
3.56636457261
1030
0.0
1002
}
1000
TCW_ATTRIBUTE
1002
{
1000
<%%c0.275>
1002
}
  0
LWPOLYLINE
  5
52
100
AcDbEntity
  8
0
370
           0
  6
Continuous
 62
           7
100
AcDbPolyline
 90
        3
 70
           0
 10
6.283887293332
 20
3.22258121271
 40
0.0
 41
0.0
 10
7.170214271043
 20
3.37886457261
 40
0.0
 41
0.0
 10
8.079275117603
 20
3.37886457261
 40
0.0
 41
0.0
1001
TCAD
1000
TCW_ATTRIBUTE
1002
{
1000
<%%c0.275>
1002
}
  0
LINE
  5
53
100
AcDbEntity
  8
0
370
           0
  6
Continuous
 62
           7
100
AcDbLine
 10
5.914584385952
 20
3.157463146085
 30
0.0
 11
5.914584385952
 21
3.157463146085
 31
0.0
1001
TCAD
1000
TCW_ATTRIBUTE
1002
{
1000
<%%c0.275>
1002
}
  0
LWPOLYLINE
  5
56
100
AcDbEntity
  8
0
370
           0
  6
Continuous
 62
           7
100
AcDbPolyline
 90
        4
 70
           0
 10
6.18540651803
 20
3.205216394943
 40
0.0
 41
0.0
 10
6.286144719641
 20
3.209778711921
 40
0.0
 41
0.0
 10
6.281629867022
 20
3.235383713499
 40
0.0
 41
0.0
 10
6.18540651803
 20
3.205216394943
 40
0.0
 41
0.0
1001
TCAD
1000
TCW_ATTRIBUTE
1002
{
1000
<%%c0.275>
1002
}
  0
HATCH
  5
54
100
AcDbEntity
  8
0
  6
Continuous
 62
           7
100
AcDbHatch
 10
0.0
 20
0.0
 30
0.0
210
0.0
220
0.0
230
1.0
  2
SOLID
 70
           1
 71
           1
 91
        1
 92
        3
 72
           0
 73
           1
 93
        3
 10
6.1854065180303621
 20
3.2052163949433101
 10
6.2861447196412534
 20
3.2097787119208441
 10
6.2816298670219126
 20
3.2353837134991617
 97
        1
330
55
 75
           0
 76
           0
 98
        0
1001
TCAD
1000
TCW_ATTRIBUTE
1002
{
1000
<%%c0.275>
1002
}
  0
LWPOLYLINE
  5
57
100
AcDbEntity
  8
0
370
           0
  6
Continuous
 62
           7
100
AcDbPolyline
 90
        2
 70
           0
 10
5.999995451991
 20
3.181339770514
 10
6.099995451991
 20
3.181339770514
1001
TCAD
1000
TCW_ATTRIBUTE
1002
{
1000
<%%c0.275>
1002
}
  0
LWPOLYLINE
  5
58
100
AcDbEntity
  8
0
370
           0
  6
Continuous
 62
           7
100
AcDbPolyline
 90
        2
 70
           0
 10
6.049995451991
 20
3.131339770514
 40
0.0
 41
0.0
 10
6.049995451991
 20
3.231339770514
 40
0.0
 41
0.0
1001
TCAD
1000
TCW_ATTRIBUTE
1002
{
1000
<%%c0.275>
1002
}
  0
ENDBLK
  5
59
100
AcDbEntity
  8
0
100
AcDbBlockEnd
  0
BLOCK
  5
7B
100
AcDbEntity
  8
0
100
AcDbBlockBegin
  2
*D1
 70
           1
 10
0.0
 20
0.0
 30
0.0
  3
*D1
  1

  0
LINE
  5
7C
100
AcDbEntity
  8
0
370
           0
  6
Continuous
 62
           7
100
AcDbLine
 10
6.25453422867
 20
2.827095726865
 30
0.0
 11
6.31078422867
 21
2.729667868939
 31
0.0
1001
TCAD
1000
TCW_ATTRIBUTE
1002
{
1000
<0.17>
1002
}
  0
LINE
  5
7D
100
AcDbEntity
  8
0
370
           0
  6
Continuous
 62
           7
100
AcDbLine
 10
6.401735898277
 20
2.912082650437
 30
0.0
 11
6.457985898277
 21
2.814654792512
 31
0.0
1001
TCAD
1000
TCW_ATTRIBUTE
1002
{
1000
<0.17>
1002
}
  0
LWPOLYLINE
  5
7E
100
AcDbEntity
  8
0
370
           0
  6
Continuous
 62
           7
100
AcDbPolyline
 90
        2
 70
           0
 10
6.075079147913
 20
2.737921044412
 10
6.161681688291
 20
2.787921044412
1001
TCAD
1000
TCW_ATTRIBUTE
1002
{
1000
<0.17>
1002
}
  0
LWPOLYLINE
  5
7F
100
AcDbEntity
  8
0
370
           0
  6
Continuous
 62
           7
100
AcDbPolyline
 90
        2
 70
           0
 10
6.24828422867
 20
2.837921044412
 40
0.0
 41
0.0
 10
6.395485898277
 20
2.922907967985
 40
0.0
 41
0.0
1001
TCAD
1000
TCW_ATTRIBUTE
1002
{
1000
<0.17>
1002
}
  0
LWPOLYLINE
  5
80
100
AcDbEntity
  8
0
370
           0
  6
Continuous
 62
           7
100
AcDbPolyline
 90
        3
 70
           0
 10
6.668690979034
 20
3.022907967985
 40
0.0
 41
0.0
 10
6.568690979034
 20
3.022907967985
 40
0.0
 41
0.0
 10
6.482088438655
 20
2.972907967985
 40
0.0
 41
0.0
1001
TCAD
1000
TCW_ATTRIBUTE
1002
{
1000
<0.17>
1002
}
  0
LWPOLYLINE
  5
83
100
AcDbEntity
  8
0
370
           0
  6
Continuous
 62
           7
100
AcDbPolyline
 90
        4
 70
           0
 10
6.395485898277
 20
2.922907967985
 40
0.0
 41
0.0
 10
6.488588438655
 20
2.961649637736
 40
0.0
 41
0.0
 10
6.475588438655
 20
2.984166298234
 40
0.0
 41
0.0
 10
6.395485898277
 20
2.922907967985
 40
0.0
 41
0.0
1001
TCAD
1000
TCW_ATTRIBUTE
1002
{
1000
<0.17>
1002
}
  0
HATCH
  5
81
100
AcDbEntity
  8
0
  6
Continuous
 62
           7
100
AcDbHatch
 10
0.0
 20
0.0
 30
0.0
210
0.0
220
0.0
230
1.0
  2
SOLID
 70
           1
 71
           1
 91
        1
 92
        3
 72
           0
 73
           1
 93
        3
 10
6.3954858982766591
 20
2.922907967984794
 10
6.4885884386551034
 20
2.9616496377355963
 10
6.4755884386551035
 20
2.9841662982339914
 97
        1
330
82
 75
           0
 76
           0
 98
        0
1001
TCAD
1000
TCW_ATTRIBUTE
1002
{
1000
<0.17>
1002
}
  0
LWPOLYLINE
  5
86
100
AcDbEntity
  8
0
370
           0
  6
Continuous
 62
           7
100
AcDbPolyline
 90
        4
 70
           0
 10
6.24828422867
 20
2.837921044412
 40
0.0
 41
0.0
 10
6.155181688291
 20
2.799179374661
 40
0.0
 41
0.0
 10
6.168181688291
 20
2.776662714163
 40
0.0
 41
0.0
 10
6.24828422867
 20
2.837921044412
 40
0.0
 41
0.0
1001
TCAD
1000
TCW_ATTRIBUTE
1002
{
1000
<0.17>
1002
}
  0
HATCH
  5
84
100
AcDbEntity
  8
0
  6
Continuous
 62
           7
100
AcDbHatch
 10
0.0
 20
0.0
 30
0.0
210
0.0
220
0.0
230
1.0
  2
SOLID
 70
           1
 71
           1
 91
        1
 92
        3
 72
           0
 73
           1
 93
        3
 10
6.2482842286697338
 20
2.8379210444120742
 10
6.1551816882912895
 20
2.7991793746612723
 10
6.1681816882912894
 20
2.7766627141628772
 97
        1
330
85
 75
           0
 76
           0
 98
        0
1001
TCAD
1000
TCW_ATTRIBUTE
1002
{
1000
<0.17>
1002
}
  0
MTEXT
  5
87
100
AcDbEntity
  8
0
  6
Continuous
 62
           7
100
AcDbMText
 10
6.896953769031
 20
2.922907966495
 30
0.0
 40
0.120000001788
 41
0.0
 71
           5
 72
           1
  1
\A1;0.17{}in
 73
           1
 44
1.0
1001
TCAD
1000
TCW_REFPOINT
1002
{
1010
6.896953769031
1020
2.922907966495
1030
0.0
1002
}
1000
TCW_ATTRIBUTE
1002
{
1000
<0.17>
1002
}
  0
ENDBLK
  5
88
100
AcDbEntity
  8
0
100
AcDbBlockEnd
  0
BLOCK
  5
8D
100
AcDbEntity
  8
0
100
AcDbBlockBegin
  2
*D2
 70
           1
 10
0.0
 20
0.0
 30
0.0
  3
*D2
  1

  0
LINE
  5
8E
100
AcDbEntity
  8
0
370
           0
  6
Continuous
 62
           7
100
AcDbLine
 10
5.74167782845
 20
3.003336763323
 30
0.0
 11
5.882406956565
 21
3.084586763323
 31
0.0
1001
TCAD
1000
TCW_ATTRIBUTE
1002
{
1000
<0.17>
1002
}
  0
LINE
  5
8F
100
AcDbEntity
  8
0
370
           0
  6
Continuous
 62
           7
100
AcDbLine
 10
5.826656535886
 20
2.856149324482
 30
0.0
 11
5.967385664001
 21
2.937399324482
 31
0.0
1001
TCAD
1000
TCW_ATTRIBUTE
1002
{
1000
<0.17>
1002
}
  0
LWPOLYLINE
  5
90
100
AcDbEntity
  8
0
370
           0
  6
Continuous
 62
           7
100
AcDbPolyline
 90
        2
 70
           0
 10
5.674153781092
 20
3.195291844079
 10
5.724153781092
 20
3.108689303701
1001
TCAD
1000
TCW_ATTRIBUTE
1002
{
1000
<0.17>
1002
}
  0
LWPOLYLINE
  5
91
100
AcDbEntity
  8
0
370
           0
  6
Continuous
 62
           7
100
AcDbPolyline
 90
        2
 70
           0
 10
5.774153781092
 20
3.022086763323
 40
0.0
 41
0.0
 10
5.859132488528
 20
2.874899324482
 40
0.0
 41
0.0
1001
TCAD
1000
TCW_ATTRIBUTE
1002
{
1000
<0.17>
1002
}
  0
LWPOLYLINE
  5
92
100
AcDbEntity
  8
0
370
           0
  6
Continuous
 62
           7
100
AcDbPolyline
 90
        3
 70
           0
 10
6.009132488528
 20
2.615091703347
 40
0.0
 41
0.0
 10
5.959132488528
 20
2.701694243725
 40
0.0
 41
0.0
 10
5.909132488528
 20
2.788296784104
 40
0.0
 41
0.0
1001
TCAD
1000
TCW_ATTRIBUTE
1002
{
1000
<0.17>
1002
}
  0
LWPOLYLINE
  5
95
100
AcDbEntity
  8
0
370
           0
  6
Continuous
 62
           7
100
AcDbPolyline
 90
        4
 70
           0
 10
5.859132488528
 20
2.874899324482
 40
0.0
 41
0.0
 10
5.897874158279
 20
2.781796784104
 40
0.0
 41
0.0
 10
5.920390818777
 20
2.794796784104
 40
0.0
 41
0.0
 10
5.859132488528
 20
2.874899324482
 40
0.0
 41
0.0
1001
TCAD
1000
TCW_ATTRIBUTE
1002
{
1000
<0.17>
1002
}
  0
HATCH
  5
93
100
AcDbEntity
  8
0
  6
Continuous
 62
           7
100
AcDbHatch
 10
0.0
 20
0.0
 30
0.0
210
0.0
220
0.0
230
1.0
  2
SOLID
 70
           1
 71
           1
 91
        1
 92
        3
 72
           0
 73
           1
 93
        3
 10
5.8591324885279636
 20
2.874899324482346
 10
5.8978741582787659
 20
2.7817967841039017
 10
5.920390818777161
 20
2.7947967841039016
 97
        1
330
94
 75
           0
 76
           0
 98
        0
1001
TCAD
1000
TCW_ATTRIBUTE
1002
{
1000
<0.17>
1002
}
  0
LWPOLYLINE
  5
98
100
AcDbEntity
  8
0
370
           0
  6
Continuous
 62
           7
100
AcDbPolyline
 90
        4
 70
           0
 10
5.774153781092
 20
3.022086763323
 40
0.0
 41
0.0
 10
5.735412111341
 20
3.115189303701
 40
0.0
 41
0.0
 10
5.712895450843
 20
3.102189303701
 40
0.0
 41
0.0
 10
5.774153781092
 20
3.022086763323
 40
0.0
 41
0.0
1001
TCAD
1000
TCW_ATTRIBUTE
1002
{
1000
<0.17>
1002
}
  0
HATCH
  5
96
100
AcDbEntity
  8
0
  6
Continuous
 62
           7
100
AcDbHatch
 10
0.0
 20
0.0
 30
0.0
210
0.0
220
0.0
230
1.0
  2
SOLID
 70
           1
 71
           1
 91
        1
 92
        3
 72
           0
 73
           1
 93
        3
 10
5.774153781092255
 20
3.0220867633225259
 10
5.7354121113414527
 20
3.1151893037009701
 10
5.7128954508430576
 20
3.1021893037009702
 97
        1
330
97
 75
           0
 76
           0
 98
        0
1001
TCAD
1000
TCW_ATTRIBUTE
1002
{
1000
<0.17>
1002
}
  0
MTEXT
  5
99
100
AcDbEntity
  8
0
  6
Continuous
 62
           7
100
AcDbMText
 10
6.209866425196
 20
2.467410329216
 30
0.0
 40
0.120000001788
 41
0.0
 71
           5
 72
           1
  1
\A1;0.17{}in
 11
0.5
 21
-0.866025403784
 31
0.0
 73
           1
 44
1.0
1001
TCAD
1000
TCW_REFPOINT
1002
{
1010
6.209866425196
1020
2.467410329216
1030
0.0
1002
}
1000
TCW_ATTRIBUTE
1002
{
1000
<0.17>
1002
}
  0
ENDBLK
  5
9A
100
AcDbEntity
  8
0
100
AcDbBlockEnd
  0
BLOCK
  5
A2
100
AcDbEntity
  8
0
100
AcDbBlockBegin
  2
*D3
 70
           1
 10
0.0
 20
0.0
 30
0.0
  3
*D3
  1

  0
LINE
  5
A3
100
AcDbEntity
  8
0
370
           0
  6
Continuous
 62
           7
100
AcDbLine
 10
3.918757013727
 20
6.872783985043
 30
0.0
 11
3.330640812152
 21
7.891439937161
 31
0.0
1001
TCAD
1000
TCW_ATTRIBUTE
1002
{
1000
<30°>
1002
}
  0
LINE
  5
A4
100
AcDbEntity
  8
0
370
           0
  6
Continuous
 62
           7
100
AcDbLine
 10
5.0
 20
7.5927
 30
0.0
 11
5.0
 21
8.338740033046
 31
0.0
1001
TCAD
1000
TCW_ATTRIBUTE
1002
{
1000
<30°>
1002
}
  0
ARC
  5
A5
100
AcDbEntity
  8
0
370
           0
  6
Continuous
 62
           7
100
AcDbCircle
 10
5.0
 20
5.0
 30
0.0
 40
3.213740033046
100
AcDbArc
 50
107.937862691849
 51
115.541565753954
1001
TCAD
1000
TCW_ATTRIBUTE
1002
{
1000
<30°>
1002
}
  0
ARC
  5
A6
100
AcDbEntity
  8
0
370
           0
  6
Continuous
 62
           7
100
AcDbCircle
 10
5.0
 20
5.0
 30
0.0
 40
3.213740033046
100
AcDbArc
 50
94.458219668516
 51
102.101788308977
1001
TCAD
1000
TCW_ATTRIBUTE
1002
{
1000
<30°>
1002
}
  0
LWPOLYLINE
  5
A9
100
AcDbEntity
  8
0
370
           0
  6
Continuous
 62
           7
100
AcDbPolyline
 90
        4
 70
           0
 10
5.0
 20
8.213740033046
 40
0.0
 41
0.0
 10
4.748925075498
 20
8.236491566757
 40
0.0
 41
0.0
 10
4.751453282483
 20
8.171540753295
 40
0.0
 41
0.0
 10
5.0
 20
8.213740033046
 40
0.0
 41
0.0
1001
TCAD
1000
TCW_ATTRIBUTE
1002
{
1000
<30°>
1002
}
  0
HATCH
  5
A7
100
AcDbEntity
  8
0
  6
Continuous
 62
           7
100
AcDbHatch
 10
0.0
 20
0.0
 30
0.0
210
0.0
220
0.0
230
1.0
  2
SOLID
 70
           1
 71
           1
 91
        1
 92
        3
 72
           0
 73
           1
 93
        3
 10
4.9999999999999991
 20
8.2137400330456103
 10
4.7489250754978158
 20
8.2364915667570546
 10
4.7514532824829647
 20
8.1715407532945559
 97
        1
330
A8
 75
           0
 76
           0
 98
        0
1001
TCAD
1000
TCW_ATTRIBUTE
1002
{
1000
<30°>
1002
}
  0
LWPOLYLINE
  5
AC
100
AcDbEntity
  8
0
370
           0
  6
Continuous
 62
           7
100
AcDbPolyline
 90
        4
 70
           0
 10
3.393140406734
 20
7.783186527621
 40
0.0
 41
0.0
 10
3.629488146553
 20
7.870913352952
 40
0.0
 41
0.0
 10
3.599202446689
 20
7.928426624322
 40
0.0
 41
0.0
 10
3.393140406734
 20
7.783186527621
 40
0.0
 41
0.0
1001
TCAD
1000
TCW_ATTRIBUTE
1002
{
1000
<30°>
1002
}
  0
HATCH
  5
AA
100
AcDbEntity
  8
0
  6
Continuous
 62
           7
100
AcDbHatch
 10
0.0
 20
0.0
 30
0.0
210
0.0
220
0.0
230
1.0
  2
SOLID
 70
           1
 71
           1
 91
        1
 92
        3
 72
           0
 73
           1
 93
        3
 10
3.3931404067343784
 20
7.7831865276208561
 10
3.6294881465529141
 20
7.8709133529519359
 10
3.5992024466886727
 20
7.9284266243224035
 97
        1
330
AB
 75
           0
 76
           0
 98
        0
1001
TCAD
1000
TCW_ATTRIBUTE
1002
{
1000
<30°>
1002
}
  0
MTEXT
  5
AD
100
AcDbEntity
  8
0
  6
Continuous
 62
           7
100
AcDbMText
 10
4.168228686251
 20
8.10423605443
 30
0.0
 40
0.15
 41
0.0
 71
           5
 72
           1
  1
\A1;30%%d{}
 73
           1
 44
1.0
1001
TCAD
1000
TCW_REFPOINT
1002
{
1010
4.168228686251
1020
8.10423605443
1030
0.0
1002
}
1000
TCW_ATTRIBUTE
1002
{
1000
<30°>
1002
}
  0
ENDBLK
  5
AE
100
AcDbEntity
  8
0
100
AcDbBlockEnd
  0
BLOCK
  5
B3
100
AcDbEntity
  8
0
100
AcDbBlockBegin
  2
*D4
 70
           1
 10
0.0
 20
0.0
 30
0.0
  3
*D4
  1

  0
MTEXT
  5
B4
100
AcDbEntity
  8
0
  6
Continuous
 62
           7
100
AcDbMText
 10
8.284695473991
 20
5.448152912019
 30
0.0
 40
0.15
 41
0.0
 71
           5
 72
           1
  1
\A1;%%c1.60{}in
 73
           1
 44
1.0
1001
TCAD
1000
TCW_REFPOINT
1002
{
1010
8.284695473991
1020
5.448152912019
1030
0.0
1002
}
1000
TCW_ATTRIBUTE
1002
{
1000
<%%c1.60>
1002
}
  0
LWPOLYLINE
  5
B5
100
AcDbEntity
  8
0
370
           0
  6
Continuous
 62
           7
100
AcDbPolyline
 90
        3
 70
           0
 10
6.045652284918
 20
5.095453124861
 40
0.0
 41
0.0
 10
7.855352440482
 20
5.260652912019
 40
0.0
 41
0.0
 10
8.651538507501
 20
5.260652912019
 40
0.0
 41
0.0
1001
TCAD
1000
TCW_ATTRIBUTE
1002
{
1000
<%%c1.60>
1002
}
  0
LINE
  5
B6
100
AcDbEntity
  8
0
370
           0
  6
Continuous
 62
           7
100
AcDbLine
 10
4.203312544824
 20
4.92727380963
 30
0.0
 11
4.203312544824
 21
4.92727380963
 31
0.0
1001
TCAD
1000
TCW_ATTRIBUTE
1002
{
1000
<%%c1.60>
1002
}
  0
LWPOLYLINE
  5
B9
100
AcDbEntity
  8
0
370
           0
  6
Continuous
 62
           7
100
AcDbPolyline
 90
        4
 70
           0
 10
5.796687455176
 20
5.07272619037
 40
0.0
 41
0.0
 10
6.048606786402
 20
5.063087696994
 40
0.0
 41
0.0
 10
6.042697783434
 20
5.127818552727
 40
0.0
 41
0.0
 10
5.796687455176
 20
5.07272619037
 40
0.0
 41
0.0
1001
TCAD
1000
TCW_ATTRIBUTE
1002
{
1000
<%%c1.60>
1002
}
  0
HATCH
  5
B7
100
AcDbEntity
  8
0
  6
Continuous
 62
           7
100
AcDbHatch
 10
0.0
 20
0.0
 30
0.0
210
0.0
220
0.0
230
1.0
  2
SOLID
 70
           1
 71
           1
 91
        1
 92
        3
 72
           0
 73
           1
 93
        3
 10
5.7966874551756273
 20
5.0727261903702621
 10
6.0486067864018054
 20
5.0630876969944598
 10
6.042697783434221
 20
5.1278185527274793
 97
        1
330
B8
 75
           0
 76
           0
 98
        0
1001
TCAD
1000
TCW_ATTRIBUTE
1002
{
1000
<%%c1.60>
1002
}
  0
LWPOLYLINE
  5
BA
100
AcDbEntity
  8
0
370
           0
  6
Continuous
 62
           7
100
AcDbPolyline
 90
        2
 70
           0
 10
4.875
 20
5.0
 10
5.125
 20
5.0
1001
TCAD
1000
TCW_ATTRIBUTE
1002
{
1000
<%%c1.60>
1002
}
  0
LWPOLYLINE
  5
BB
100
AcDbEntity
  8
0
370
           0
  6
Continuous
 62
           7
100
AcDbPolyline
 90
        2
 70
           0
 10
5.0
 20
4.875
 40
0.0
 41
0.0
 10
5.0
 20
5.125
 40
0.0
 41
0.0
1001
TCAD
1000
TCW_ATTRIBUTE
1002
{
1000
<%%c1.60>
1002
}
  0
ENDBLK
  5
BC
100
AcDbEntity
  8
0
100
AcDbBlockEnd
  0
BLOCK
  5
CF
100
AcDbEntity
  8
0
100
AcDbBlockBegin
  2
*D5
 70
           1
 10
0.0
 20
0.0
 30
0.0
  3
*D5
  1

  0
MTEXT
  5
D0
100
AcDbEntity
  8
0
  6
Continuous
 62
           7
100
AcDbMText
 10
2.581269848864
 20
3.010129791065
 30
0.0
 40
0.15
 41
0.0
 71
           5
 72
           1
  1
\A1;%%c4.20{}in
 73
           1
 44
1.0
1001
TCAD
1000
TCW_REFPOINT
1002
{
1010
2.581269848864
1020
3.010129791065
1030
0.0
1002
}
1000
TCW_ATTRIBUTE
1002
{
1000
<%%c4.20>
1002
}
  0
LWPOLYLINE
  5
D1
100
AcDbEntity
  8
0
370
           0
  6
Continuous
 62
           7
100
AcDbPolyline
 90
        3
 70
           0
 10
3.414878961633
 20
3.265096171621
 40
0.0
 41
0.0
 10
3.010612882374
 20
2.822629791065
 40
0.0
 41
0.0
 10
2.214426815355
 20
2.822629791065
 40
0.0
 41
0.0
1001
TCAD
1000
TCW_ATTRIBUTE
1002
{
1000
<%%c4.20>
1002
}
  0
LINE
  5
D2
100
AcDbEntity
  8
0
370
           0
  6
Continuous
 62
           7
100
AcDbLine
 10
6.416491140669
 20
6.550339591318
 30
0.0
 11
6.416491140669
 21
6.550339591318
 31
0.0
1001
TCAD
1000
TCW_ATTRIBUTE
1002
{
1000
<%%c4.20>
1002
}
  0
LWPOLYLINE
  5
D5
100
AcDbEntity
  8
0
370
           0
  6
Continuous
 62
           7
100
AcDbPolyline
 90
        4
 70
           0
 10
3.583508859331
 20
3.449660408682
 40
0.0
 41
0.0
 10
3.390885610815
 20
3.287018058321
 40
0.0
 41
0.0
 10
3.438872312451
 20
3.24317428492
 40
0.0
 41
0.0
 10
3.583508859331
 20
3.449660408682
 40
0.0
 41
0.0
1001
TCAD
1000
TCW_ATTRIBUTE
1002
{
1000
<%%c4.20>
1002
}
  0
HATCH
  5
D3
100
AcDbEntity
  8
0
  6
Continuous
 62
           7
100
AcDbHatch
 10
0.0
 20
0.0
 30
0.0
210
0.0
220
0.0
230
1.0
  2
SOLID
 70
           1
 71
           1
 91
        1
 92
        3
 72
           0
 73
           1
 93
        3
 10
3.5835088593313209
 20
3.449660408682294
 10
3.3908856108146566
 20
3.287018058321487
 10
3.4388723124506804
 20
3.2431742849198377
 97
        1
330
D4
 75
           0
 76
           0
 98
        0
1001
TCAD
1000
TCW_ATTRIBUTE
1002
{
1000
<%%c4.20>
1002
}
  0
LWPOLYLINE
  5
D6
100
AcDbEntity
  8
0
370
           0
  6
Continuous
 62
           7
100
AcDbPolyline
 90
        2
 70
           0
 10
4.875
 20
5.0
 10
5.125
 20
5.0
1001
TCAD
1000
TCW_ATTRIBUTE
1002
{
1000
<%%c4.20>
1002
}
  0
LWPOLYLINE
  5
D7
100
AcDbEntity
  8
0
370
           0
  6
Continuous
 62
           7
100
AcDbPolyline
 90
        2
 70
           0
 10
5.0
 20
4.875
 40
0.0
 41
0.0
 10
5.0
 20
5.125
 40
0.0
 41
0.0
1001
TCAD
1000
TCW_ATTRIBUTE
1002
{
1000
<%%c4.20>
1002
}
  0
ENDBLK
  5
D8
100
AcDbEntity
  8
0
100
AcDbBlockEnd
  0
BLOCK
  5
DB
100
AcDbEntity
  8
0
100
AcDbBlockBegin
  2
*D6
 70
           1
 10
0.0
 20
0.0
 30
0.0
  3
*D6
  1

  0
MTEXT
  5
DC
100
AcDbEntity
  8
0
  6
Continuous
 62
           7
100
AcDbMText
 10
2.904315370251
 20
2.656607326527
 30
0.0
 40
0.15
 41
0.0
 71
           5
 72
           1
  1
\A1;%%c5.06{}in
 73
           1
 44
1.0
1001
TCAD
1000
TCW_REFPOINT
1002
{
1010
2.904315370251
1020
2.656607326527
1030
0.0
1002
}
1000
TCW_ATTRIBUTE
1002
{
1000
<%%c5.06>
1002
}
  0
LWPOLYLINE
  5
DD
100
AcDbEntity
  8
0
370
           0
  6
Continuous
 62
           7
100
AcDbPolyline
 90
        3
 70
           0
 10
3.471136259697
 20
2.677913071483
 40
0.0
 41
0.0
 10
3.33365840376
 20
2.469107326527
 40
0.0
 41
0.0
 10
2.537472336741
 20
2.469107326527
 40
0.0
 41
0.0
1001
TCAD
1000
TCW_ATTRIBUTE
1002
{
1000
<%%c5.06>
1002
}
  0
LINE
  5
DE
100
AcDbEntity
  8
0
370
           0
  6
Continuous
 62
           7
100
AcDbLine
 10
6.391385884366
 20
7.11328118356
 30
0.0
 11
6.391385884366
 21
7.11328118356
 31
0.0
1001
TCAD
1000
TCW_ATTRIBUTE
1002
{
1000
<%%c5.06>
1002
}
  0
LWPOLYLINE
  5
E1
100
AcDbEntity
  8
0
370
           0
  6
Continuous
 62
           7
100
AcDbPolyline
 90
        4
 70
           0
 10
3.608614115634
 20
2.88671881644
 40
0.0
 41
0.0
 10
3.443991512853
 20
2.695785192755
 40
0.0
 41
0.0
 10
3.498281006542
 20
2.660040950212
 40
0.0
 41
0.0
 10
3.608614115634
 20
2.88671881644
 40
0.0
 41
0.0
1001
TCAD
1000
TCW_ATTRIBUTE
1002
{
1000
<%%c5.06>
1002
}
  0
HATCH
  5
DF
100
AcDbEntity
  8
0
  6
Continuous
 62
           7
100
AcDbHatch
 10
0.0
 20
0.0
 30
0.0
210
0.0
220
0.0
230
1.0
  2
SOLID
 70
           1
 71
           1
 91
        1
 92
        3
 72
           0
 73
           1
 93
        3
 10
3.6086141156340341
 20
2.8867188164403812
 10
3.4439915128527603
 20
2.6957851927552929
 10
3.4982810065415495
 20
2.6600409502117039
 97
        1
330
E0
 75
           0
 76
           0
 98
        0
1001
TCAD
1000
TCW_ATTRIBUTE
1002
{
1000
<%%c5.06>
1002
}
  0
LWPOLYLINE
  5
E2
100
AcDbEntity
  8
0
370
           0
  6
Continuous
 62
           7
100
AcDbPolyline
 90
        2
 70
           0
 10
4.875
 20
5.0
 10
5.125
 20
5.0
1001
TCAD
1000
TCW_ATTRIBUTE
1002
{
1000
<%%c5.06>
1002
}
  0
LWPOLYLINE
  5
E3
100
AcDbEntity
  8
0
370
           0
  6
Continuous
 62
           7
100
AcDbPolyline
 90
        2
 70
           0
 10
5.0
 20
4.875
 40
0.0
 41
0.0
 10
5.0
 20
5.125
 40
0.0
 41
0.0
1001
TCAD
1000
TCW_ATTRIBUTE
1002
{
1000
<%%c5.06>
1002
}
  0
ENDBLK
  5
E4
100
AcDbEntity
  8
0
100
AcDbBlockEnd
  0
BLOCK
  5
E7
100
AcDbEntity
  8
0
100
AcDbBlockBegin
  2
*D7
 70
           1
 10
0.0
 20
0.0
 30
0.0
  3
*D7
  1

  0
MTEXT
  5
E8
100
AcDbEntity
  8
0
  6
Continuous
 62
           7
100
AcDbMText
 10
3.172659395268
 20
2.309027698439
 30
0.0
 40
0.15
 41
0.0
 71
           5
 72
           1
  1
\A1;%%c5.40{}in
 73
           1
 44
1.0
1001
TCAD
1000
TCW_REFPOINT
1002
{
1010
3.172659395268
1020
2.309027698439
1030
0.0
1002
}
1000
TCW_ATTRIBUTE
1002
{
1000
<%%c5.40>
1002
}
  0
LWPOLYLINE
  5
E9
100
AcDbEntity
  8
0
370
           0
  6
Continuous
 62
           7
100
AcDbPolyline
 90
        3
 70
           0
 10
3.711220989029
 20
2.346408346998
 40
0.0
 41
0.0
 10
3.602002428778
 20
2.121527698439
 40
0.0
 41
0.0
 10
2.805816361758
 20
2.121527698439
 40
0.0
 41
0.0
1001
TCAD
1000
TCW_ATTRIBUTE
1002
{
1000
<%%c5.40>
1002
}
  0
LINE
  5
EA
100
AcDbEntity
  8
0
370
           0
  6
Continuous
 62
           7
100
AcDbLine
 10
6.179560450719
 20
7.428711004442
 30
0.0
 11
6.179560450719
 21
7.428711004442
 31
0.0
1001
TCAD
1000
TCW_ATTRIBUTE
1002
{
1000
<%%c5.40>
1002
}
  0
LWPOLYLINE
  5
ED
100
AcDbEntity
  8
0
370
           0
  6
Continuous
 62
           7
100
AcDbPolyline
 90
        4
 70
           0
 10
3.820439549281
 20
2.571288995558
 40
0.0
 41
0.0
 10
3.681986504717
 20
2.360606759831
 40
0.0
 41
0.0
 10
3.740455473342
 20
2.332209934165
 40
0.0
 41
0.0
 10
3.820439549281
 20
2.571288995558
 40
0.0
 41
0.0
1001
TCAD
1000
TCW_ATTRIBUTE
1002
{
1000
<%%c5.40>
1002
}
  0
HATCH
  5
EB
100
AcDbEntity
  8
0
  6
Continuous
 62
           7
100
AcDbHatch
 10
0.0
 20
0.0
 30
0.0
210
0.0
220
0.0
230
1.0
  2
SOLID
 70
           1
 71
           1
 91
        1
 92
        3
 72
           0
 73
           1
 93
        3
 10
3.8204395492811969
 20
2.5712889955575076
 10
3.6819865047167224
 20
2.3606067598307434
 10
3.7404554733421898
 20
2.3322099341652911
 97
        1
330
EC
 75
           0
 76
           0
 98
        0
1001
TCAD
1000
TCW_ATTRIBUTE
1002
{
1000
<%%c5.40>
1002
}
  0
LWPOLYLINE
  5
EE
100
AcDbEntity
  8
0
370
           0
  6
Continuous
 62
           7
100
AcDbPolyline
 90
        2
 70
           0
 10
4.875
 20
5.0
 10
5.125
 20
5.0
1001
TCAD
1000
TCW_ATTRIBUTE
1002
{
1000
<%%c5.40>
1002
}
  0
LWPOLYLINE
  5
EF
100
AcDbEntity
  8
0
370
           0
  6
Continuous
 62
           7
100
AcDbPolyline
 90
        2
 70
           0
 10
5.0
 20
4.875
 40
0.0
 41
0.0
 10
5.0
 20
5.125
 40
0.0
 41
0.0
1001
TCAD
1000
TCW_ATTRIBUTE
1002
{
1000
<%%c5.40>
1002
}
  0
ENDBLK
  5
F0
100
AcDbEntity
  8
0
100
AcDbBlockEnd
  0
BLOCK
  5
F3
100
AcDbEntity
  8
0
100
AcDbBlockBegin
  2
*D8
 70
           1
 10
0.0
 20
0.0
 30
0.0
  3
*D8
  1

  0
MTEXT
  5
F4
100
AcDbEntity
  8
0
  6
Continuous
 62
           7
100
AcDbMText
 10
1.830663641017
 20
5.701320747525
 30
0.0
 40
0.15
 41
0.0
 71
           5
 72
           1
  1
\A1;%%c0.11{}in
 73
           1
 44
1.0
1001
TCAD
1000
TCW_REFPOINT
1002
{
1010
1.830663641017
1020
5.701320747525
1030
0.0
1002
}
1000
TCW_ATTRIBUTE
1002
{
1000
<%%c0.11>
1002
}
  0
LWPOLYLINE
  5
F5
100
AcDbEntity
  8
0
370
           0
  6
Continuous
 62
           7
100
AcDbPolyline
 90
        3
 70
           0
 10
2.354508172487
 20
5.282369960351
 40
0.0
 41
0.0
 10
2.260006674526
 20
5.513820747525
 40
0.0
 41
0.0
 10
1.463820607507
 20
5.513820747525
 40
0.0
 41
0.0
1001
TCAD
1000
TCW_ATTRIBUTE
1002
{
1000
<%%c0.11>
1002
}
  0
LINE
  5
F6
100
AcDbEntity
  8
0
370
           0
  6
Continuous
 62
           7
100
AcDbLine
 10
2.490590329551
 20
4.949080826822
 30
0.0
 11
2.490590329551
 21
4.949080826822
 31
0.0
1001
TCAD
1000
TCW_ATTRIBUTE
1002
{
1000
<%%c0.11>
1002
}
  0
LWPOLYLINE
  5
F9
100
AcDbEntity
  8
0
370
           0
  6
Continuous
 62
           7
100
AcDbPolyline
 90
        4
 70
           0
 10
2.449009670449
 20
5.050919173178
 40
0.0
 41
0.0
 10
2.38459677482
 20
5.294655155086
 40
0.0
 41
0.0
 10
2.324419570155
 20
5.270084765616
 40
0.0
 41
0.0
 10
2.449009670449
 20
5.050919173178
 40
0.0
 41
0.0
1001
TCAD
1000
TCW_ATTRIBUTE
1002
{
1000
<%%c0.11>
1002
}
  0
HATCH
  5
F7
100
AcDbEntity
  8
0
  6
Continuous
 62
           7
100
AcDbHatch
 10
0.0
 20
0.0
 30
0.0
210
0.0
220
0.0
230
1.0
  2
SOLID
 70
           1
 71
           1
 91
        1
 92
        3
 72
           0
 73
           1
 93
        3
 10
2.4490096704485649
 20
5.0509191731781131
 10
2.384596774820019
 20
5.2946551550862955
 10
2.3244195701549755
 20
5.270084765616418
 97
        1
330
F8
 75
           0
 76
           0
 98
        0
1001
TCAD
1000
TCW_ATTRIBUTE
1002
{
1000
<%%c0.11>
1002
}
  0
LWPOLYLINE
  5
FA
100
AcDbEntity
  8
0
370
           0
  6
Continuous
 62
           7
100
AcDbPolyline
 90
        2
 70
           0
 10
2.3448
 20
5.0
 10
2.5948
 20
5.0
1001
TCAD
1000
TCW_ATTRIBUTE
1002
{
1000
<%%c0.11>
1002
}
  0
LWPOLYLINE
  5
FB
100
AcDbEntity
  8
0
370
           0
  6
Continuous
 62
           7
100
AcDbPolyline
 90
        2
 70
           0
 10
2.4698
 20
4.875
 40
0.0
 41
0.0
 10
2.4698
 20
5.125
 40
0.0
 41
0.0
1001
TCAD
1000
TCW_ATTRIBUTE
1002
{
1000
<%%c0.11>
1002
}
  0
ENDBLK
  5
FC
100
AcDbEntity
  8
0
100
AcDbBlockEnd
  0
BLOCK
  5
FF
100
AcDbEntity
  8
0
100
AcDbBlockBegin
  2
*D9
 70
           1
 10
0.0
 20
0.0
 30
0.0
  3
*D9
  1

  0
LINE
  5
100
100
AcDbEntity
  8
0
370
           0
  6
Continuous
 62
           7
100
AcDbLine
 10
3.127224113702
 20
6.081257013711
 30
0.0
 11
2.108572566702
 21
6.669380845174
 31
0.0
1001
TCAD
1000
TCW_ATTRIBUTE
1002
{
1000
<30°>
1002
}
  0
LINE
  5
101
100
AcDbEntity
  8
0
370
           0
  6
Continuous
 62
           7
100
AcDbLine
 10
3.70365
 20
7.245344064392
 30
0.0
 11
3.330629983477
 21
7.89143368525
 31
0.0
1001
TCAD
1000
TCW_ATTRIBUTE
1002
{
1000
<30°>
1002
}
  0
ARC
  5
102
100
AcDbEntity
  8
0
370
           0
  6
Continuous
 62
           7
100
AcDbCircle
 10
5.0
 20
5.0
 30
0.0
 40
3.213740033046
100
AcDbArc
 50
138.070737126041
 51
145.541565753954
1001
TCAD
1000
TCW_ATTRIBUTE
1002
{
1000
<30°>
1002
}
  0
ARC
  5
103
100
AcDbEntity
  8
0
370
           0
  6
Continuous
 62
           7
100
AcDbCircle
 10
5.0
 20
5.0
 30
0.0
 40
3.213740033046
100
AcDbArc
 50
124.458219668516
 51
131.754627093037
1001
TCAD
1000
TCW_ATTRIBUTE
1002
{
1000
<30°>
1002
}
  0
LWPOLYLINE
  5
106
100
AcDbEntity
  8
0
370
           0
  6
Continuous
 62
           7
100
AcDbPolyline
 90
        4
 70
           0
 10
3.393129983477
 20
7.783180509777
 40
0.0
 41
0.0
 10
3.164316953749
 20
7.677346453695
 40
0.0
 41
0.0
 10
3.198981851956
 20
7.622361502732
 40
0.0
 41
0.0
 10
3.393129983477
 20
7.783180509777
 40
0.0
 41
0.0
1001
TCAD
1000
TCW_ATTRIBUTE
1002
{
1000
<30°>
1002
}
  0
HATCH
  5
104
100
AcDbEntity
  8
0
  6
Continuous
 62
           7
100
AcDbHatch
 10
0.0
 20
0.0
 30
0.0
210
0.0
220
0.0
230
1.0
  2
SOLID
 70
           1
 71
           1
 91
        1
 92
        3
 72
           0
 73
           1
 93
        3
 10
3.3931299834771944
 20
7.783180509776539
 10
3.1643169537493216
 20
7.6773464536946161
 10
3.1989818519557351
 20
7.6223615027322023
 97
        1
330
105
 75
           0
 76
           0
 98
        0
1001
TCAD
1000
TCW_ATTRIBUTE
1002
{
1000
<30°>
1002
}
  0
LWPOLYLINE
  5
109
100
AcDbEntity
  8
0
370
           0
  6
Continuous
 62
           7
100
AcDbPolyline
 90
        4
 70
           0
 10
2.216825508107
 20
6.606880439757
 40
0.0
 41
0.0
 10
2.377645242251
 20
6.801027968997
 40
0.0
 41
0.0
 10
2.322660421112
 20
6.835693073126
 40
0.0
 41
0.0
 10
2.216825508107
 20
6.606880439757
 40
0.0
 41
0.0
1001
TCAD
1000
TCW_ATTRIBUTE
1002
{
1000
<30°>
1002
}
  0
HATCH
  5
107
100
AcDbEntity
  8
0
  6
Continuous
 62
           7
100
AcDbHatch
 10
0.0
 20
0.0
 30
0.0
210
0.0
220
0.0
230
1.0
  2
SOLID
 70
           1
 71
           1
 91
        1
 92
        3
 72
           0
 73
           1
 93
        3
 10
2.2168255081068127
 20
6.6068804397574512
 10
2.3776452422511598
 20
6.8010279689967943
 10
2.3226604211121016
 20
6.8356930731262464
 97
        1
330
108
 75
           0
 76
           0
 98
        0
1001
TCAD
1000
TCW_ATTRIBUTE
1002
{
1000
<30°>
1002
}
  0
MTEXT
  5
10A
100
AcDbEntity
  8
0
  6
Continuous
 62
           7
100
AcDbMText
 10
2.727546884939
 20
7.272461625606
 30
0.0
 40
0.15
 41
0.0
 71
           5
 72
           1
  1
\A1;30%%d{}
 73
           1
 44
1.0
1001
TCAD
1000
TCW_REFPOINT
1002
{
1010
2.727546884939
1020
7.272461625606
1030
0.0
1002
}
1000
TCW_ATTRIBUTE
1002
{
1000
<30°>
1002
}
  0
ENDBLK
  5
10B
100
AcDbEntity
  8
0
100
AcDbBlockEnd
  0
BLOCK
  5
10F
100
AcDbEntity
  8
0
100
AcDbBlockBegin
  2
*D10
 70
           1
 10
0.0
 20
0.0
 30
0.0
  3
*D10
  1

  0
MTEXT
  5
110
100
AcDbEntity
  8
0
  6
Continuous
 62
           7
100
AcDbMText
 10
5.614140368349
 20
6.213286077897
 30
0.0
 40
0.15
 41
0.0
 71
           5
 72
           1
  1
\A1;%%c0.197{}in
 73
           1
 44
1.0
1001
TCAD
1000
TCW_REFPOINT
1002
{
1010
5.614140368349
1020
6.213286077897
1030
0.0
1002
}
1000
TCW_ATTRIBUTE
1002
{
1000
<%%c0.197>
1002
}
  0
LWPOLYLINE
  5
111
100
AcDbEntity
  8
0
370
           0
  6
Continuous
 62
           7
100
AcDbPolyline
 90
        3
 70
           0
 10
5.043271473787
 20
5.345803165914
 40
0.0
 41
0.0
 10
5.128359945068
 20
6.025786077897
 40
0.0
 41
0.0
 10
6.037420791629
 20
6.025786077897
 40
0.0
 41
0.0
1001
TCAD
1000
TCW_ATTRIBUTE
1002
{
1000
<%%c0.197>
1002
}
  0
LINE
  5
112
100
AcDbEntity
  8
0
370
           0
  6
Continuous
 62
           7
100
AcDbLine
 10
4.987769755615
 20
4.902262232876
 30
0.0
 11
4.987769755615
 21
4.902262232876
 31
0.0
1001
TCAD
1000
TCW_ATTRIBUTE
1002
{
1000
<%%c0.197>
1002
}
  0
LWPOLYLINE
  5
115
100
AcDbEntity
  8
0
370
           0
  6
Continuous
 62
           7
100
AcDbPolyline
 90
        4
 70
           0
 10
5.012230244385
 20
5.097737767124
 40
0.0
 41
0.0
 10
5.07551997563
 20
5.341767806092
 40
0.0
 41
0.0
 10
5.011022971945
 20
5.349838525737
 40
0.0
 41
0.0
 10
5.012230244385
 20
5.097737767124
 40
0.0
 41
0.0
1001
TCAD
1000
TCW_ATTRIBUTE
1002
{
1000
<%%c0.197>
1002
}
  0
HATCH
  5
113
100
AcDbEntity
  8
0
  6
Continuous
 62
           7
100
AcDbHatch
 10
0.0
 20
0.0
 30
0.0
210
0.0
220
0.0
230
1.0
  2
SOLID
 70
           1
 71
           1
 91
        1
 92
        3
 72
           0
 73
           1
 93
        3
 10
5.0122302443846838
 20
5.0977377671235189
 10
5.0755199756302201
 20
5.3417678060918146
 10
5.0110229719446497
 20
5.34983852573653
 97
        1
330
114
 75
           0
 76
           0
 98
        0
1001
TCAD
1000
TCW_ATTRIBUTE
1002
{
1000
<%%c0.197>
1002
}
  0
LWPOLYLINE
  5
116
100
AcDbEntity
  8
0
370
           0
  6
Continuous
 62
           7
100
AcDbPolyline
 90
        2
 70
           0
 10
4.875
 20
5.0
 10
5.125
 20
5.0
1001
TCAD
1000
TCW_ATTRIBUTE
1002
{
1000
<%%c0.197>
1002
}
  0
LWPOLYLINE
  5
117
100
AcDbEntity
  8
0
370
           0
  6
Continuous
 62
           7
100
AcDbPolyline
 90
        2
 70
           0
 10
5.0
 20
4.875
 40
0.0
 41
0.0
 10
5.0
 20
5.125
 40
0.0
 41
0.0
1001
TCAD
1000
TCW_ATTRIBUTE
1002
{
1000
<%%c0.197>
1002
}
  0
ENDBLK
  5
118
100
AcDbEntity
  8
0
100
AcDbBlockEnd
  0
BLOCK
  5
11E
100
AcDbEntity
  8
0
100
AcDbBlockBegin
  2
*D11
 70
           1
 10
0.0
 20
0.0
 30
0.0
  3
*D11
  1

  0
MTEXT
  5
11F
100
AcDbEntity
  8
0
  6
Continuous
 62
           7
100
AcDbMText
 10
5.447923503077
 20
3.703661014419
 30
0.0
 40
0.15
 41
0.0
 71
           5
 72
           1
  1
\A1;%%c0.10{}in
 73
           1
 44
1.0
1001
TCAD
1000
TCW_REFPOINT
1002
{
1010
5.447923503077
1020
3.703661014419
1030
0.0
1002
}
1000
TCW_ATTRIBUTE
1002
{
1000
<%%c0.10>
1002
}
  0
LWPOLYLINE
  5
120
100
AcDbEntity
  8
0
370
           0
  6
Continuous
 62
           7
100
AcDbPolyline
 90
        3
 70
           0
 10
5.974754283899
 20
3.473591082724
 40
0.0
 41
0.0
 10
5.877266536587
 20
3.516161014419
 40
0.0
 41
0.0
 10
5.081080469568
 20
3.516161014419
 40
0.0
 41
0.0
1001
TCAD
1000
TCW_ATTRIBUTE
1002
{
1000
<%%c0.10>
1002
}
  0
LINE
  5
121
100
AcDbEntity
  8
0
370
           0
  6
Continuous
 62
           7
100
AcDbLine
 10
6.158041599546
 20
3.393555091302
 30
0.0
 11
6.158041599546
 21
3.393555091302
 31
0.0
1001
TCAD
1000
TCW_ATTRIBUTE
1002
{
1000
<%%c0.10>
1002
}
  0
LWPOLYLINE
  5
124
100
AcDbEntity
  8
0
370
           0
  6
Continuous
 62
           7
100
AcDbPolyline
 90
        4
 70
           0
 10
6.066397941723
 20
3.433573087013
 40
0.0
 41
0.0
 10
5.979956623342
 20
3.485504758241
 40
0.0
 41
0.0
 10
5.969551944457
 20
3.461677407207
 40
0.0
 41
0.0
 10
6.066397941723
 20
3.433573087013
 40
0.0
 41
0.0
1001
TCAD
1000
TCW_ATTRIBUTE
1002
{
1000
<%%c0.10>
1002
}
  0
HATCH
  5
122
100
AcDbEntity
  8
0
  6
Continuous
 62
           7
100
AcDbHatch
 10
0.0
 20
0.0
 30
0.0
210
0.0
220
0.0
230
1.0
  2
SOLID
 70
           1
 71
           1
 91
        1
 92
        3
 72
           0
 73
           1
 93
        3
 10
6.0663979417227933
 20
3.4335730870130026
 10
5.9799566233417467
 20
3.4855047582411309
 10
5.9695519444568665
 20
3.4616774072070244
 97
        1
330
123
 75
           0
 76
           0
 98
        0
1001
TCAD
1000
TCW_ATTRIBUTE
1002
{
1000
<%%c0.10>
1002
}
  0
LWPOLYLINE
  5
125
100
AcDbEntity
  8
0
370
           0
  6
Continuous
 62
           7
100
AcDbPolyline
 90
        2
 70
           0
 10
6.062219770635
 20
3.413564089157
 10
6.162219770635
 20
3.413564089157
1001
TCAD
1000
TCW_ATTRIBUTE
1002
{
1000
<%%c0.10>
1002
}
  0
LWPOLYLINE
  5
126
100
AcDbEntity
  8
0
370
           0
  6
Continuous
 62
           7
100
AcDbPolyline
 90
        2
 70
           0
 10
6.112219770635
 20
3.363564089157
 40
0.0
 41
0.0
 10
6.112219770635
 20
3.463564089157
 40
0.0
 41
0.0
1001
TCAD
1000
TCW_ATTRIBUTE
1002
{
1000
<%%c0.10>
1002
}
  0
ENDBLK
  5
127
100
AcDbEntity
  8
0
100
AcDbBlockEnd
  0
ENDSEC
  0
SECTION
  2
ENTITIES
  0
POINT
  5
33
100
AcDbEntity
  8
0
  6
Continuous
 62
           7
100
AcDbPoint
 10
4.307230538267
 20
4.599967285225
 30
0.0
1001
TCAD
1000
TCW_CUSTOM_DATA
1002
{
1000
#$AUX@_ToolInfo Properties
1070
           8
1000
Insert^JPoint^JDot@Point Dot
1002
}
1000
TC25ExternalObject
1002
{
1000
TCW30POINT
1000

1070
           0
1071
        0
1040
1.0
1040
0.0
1000
Continuous
1000
0
1070
          21
1071
        1
1071
      242
1010
4.307230538267
1020
4.599967285225
1030
0.0
1070
           3
1071
-2147483645
1070
           1
1000
#$AUX@_ToolInfo Properties
1070
           8
1000
Insert^JPoint^JDot@Point Dot
1000
$POINTSIZE
1070
           5
1040
0.25
1000
$POINTTYPE
1070
          18
1070
           0
1000
ExplodeScale
1070
           5
1040
1.0
1002
}
  0
POINT
  5
34
100
AcDbEntity
  8
0
  6
Continuous
 62
           7
100
AcDbPoint
 10
4.307230538267
 20
4.599967285225
 30
0.0
1001
TCAD
1000
TCW_CUSTOM_DATA
1002
{
1000
#$AUX@_ToolInfo Properties
1070
           8
1000
Insert^JPoint^JDot@Point Dot
1002
}
1000
TC25ExternalObject
1002
{
1000
TCW30POINT
1000

1070
           0
1071
        0
1040
1.0
1040
0.0
1000
Continuous
1000
0
1070
          21
1071
        1
1071
      242
1010
4.307230538267
1020
4.599967285225
1030
0.0
1070
           3
1071
-2147483645
1070
           1
1000
#$AUX@_ToolInfo Properties
1070
           8
1000
Insert^JPoint^JDot@Point Dot
1000
$POINTSIZE
1070
           5
1040
0.25
1000
$POINTTYPE
1070
          18
1070
           0
1000
ExplodeScale
1070
           5
1040
1.0
1002
}
  0
POINT
  5
35
100
AcDbEntity
  8
0
  6
Continuous
 62
           7
100
AcDbPoint
 10
4.307230538267
 20
4.599967285225
 30
0.0
1001
TCAD
1000
TCW_CUSTOM_DATA
1002
{
1000
#$AUX@_ToolInfo Properties
1070
           8
1000
Insert^JPoint^JDot@Point Dot
1002
}
1000
TC25ExternalObject
1002
{
1000
TCW30POINT
1000

1070
           0
1071
        0
1040
1.0
1040
0.0
1000
Continuous
1000
0
1070
          21
1071
        1
1071
      242
1010
4.307230538267
1020
4.599967285225
1030
0.0
1070
           3
1071
-2147483645
1070
           1
1000
#$AUX@_ToolInfo Properties
1070
           8
1000
Insert^JPoint^JDot@Point Dot
1000
$POINTSIZE
1070
           5
1040
0.25
1000
$POINTTYPE
1070
          18
1070
           0
1000
ExplodeScale
1070
           5
1040
1.0
1002
}
  0
LWPOLYLINE
  5
36
102
{ACAD_REACTORS
330
3B
102
}
100
AcDbEntity
  8
0
370
           0
  6
Continuous
 62
           7
100
AcDbPolyline
 90
       60
 70
           1
 10
4.426309031288
 20
4.668717285225
 10
4.418470374994
 20
4.680787757415
 10
4.40941295177
 20
4.691972743599
 10
4.399235996642
 20
4.702149698728
 10
4.388051010457
 20
4.711207121951
 10
4.375980538267
 20
4.719045778245
 10
4.36315682669
 20
4.725579785651
 10
4.349720374994
 20
4.730737556215
 10
4.335818395755
 20
4.734462580326
 10
4.321603201966
 20
4.736714045838
 10
4.307230538267
 20
4.737467285225
 10
4.292857874568
 20
4.736714045838
 10
4.27864268078
 20
4.734462580326
 10
4.264740701541
 20
4.730737556215
 10
4.251304249844
 20
4.725579785651
 10
4.238480538267
 20
4.719045778245
 10
4.226410066077
 20
4.711207121951
 10
4.215225079893
 20
4.702149698728
 10
4.205048124764
 20
4.691972743599
 10
4.195990701541
 20
4.680787757415
 10
4.188152045247
 20
4.668717285225
 10
4.181618037841
 20
4.655893573648
 10
4.176460267277
 20
4.642457121951
 10
4.172735243166
 20
4.628555142712
 10
4.170483777654
 20
4.614339948924
 10
4.169730538267
 20
4.599967285225
 10
4.170483777654
 20
4.585594621526
 10
4.172735243166
 20
4.571379427737
 10
4.176460267277
 20
4.557477448498
 10
4.181618037841
 20
4.544040996802
 10
4.188152045247
 20
4.531217285225
 10
4.195990701541
 20
4.519146813035
 10
4.205048124764
 20
4.50796182685
 10
4.215225079893
 20
4.497784871722
 10
4.226410066077
 20
4.488727448498
 10
4.238480538267
 20
4.480888792204
 10
4.251304249844
 20
4.474354784799
 10
4.264740701541
 20
4.469197014234
 10
4.27864268078
 20
4.465471990124
 10
4.292857874568
 20
4.463220524612
 10
4.307230538267
 20
4.462467285225
 10
4.321603201966
 20
4.463220524612
 10
4.335818395755
 20
4.465471990124
 10
4.349720374994
 20
4.469197014234
 10
4.36315682669
 20
4.474354784799
 10
4.375980538267
 20
4.480888792204
 10
4.388051010457
 20
4.488727448498
 10
4.399235996642
 20
4.497784871722
 10
4.40941295177
 20
4.50796182685
 10
4.418470374994
 20
4.519146813035
 10
4.426309031288
 20
4.531217285225
 10
4.432843038693
 20
4.544040996802
 10
4.438000809258
 20
4.557477448498
 10
4.441725833368
 20
4.571379427737
 10
4.44397729888
 20
4.585594621526
 10
4.444730538267
 20
4.599967285225
 10
4.44397729888
 20
4.614339948924
 10
4.441725833368
 20
4.628555142712
 10
4.438000809258
 20
4.642457121951
 10
4.432843038693
 20
4.655893573648
  0
LWPOLYLINE
  5
37
102
{ACAD_REACTORS
330
3B
102
}
100
AcDbEntity
  8
0
370
           0
  6
Continuous
 62
           7
100
AcDbPolyline
 90
       60
 70
           1
 10
4.4127561271
 20
4.857191603868
 10
4.409905706629
 20
4.861580866483
 10
4.406612098184
 20
4.865648134186
 10
4.402911387228
 20
4.869348845142
 10
4.398844119525
 20
4.872642453587
 10
4.394454856911
 20
4.875492874057
 10
4.389791689064
 20
4.87786887675
 10
4.384905706629
 20
4.879744429683
 10
4.379850441451
 20
4.881098983905
 10
4.374681280074
 20
4.881917698637
 10
4.369454856911
 20
4.882191603868
 10
4.364228433747
 20
4.881917698637
 10
4.35905927237
 20
4.881098983905
 10
4.354004007192
 20
4.879744429683
 10
4.349118024757
 20
4.87786887675
 10
4.344454856911
 20
4.875492874057
 10
4.340065594296
 20
4.872642453587
 10
4.335998326593
 20
4.869348845142
 10
4.332297615637
 20
4.865648134186
 10
4.329004007192
 20
4.861580866483
 10
4.326153586721
 20
4.857191603868
 10
4.323777584028
 20
4.852528436022
 10
4.321902031096
 20
4.847642453587
 10
4.320547476874
 20
4.842587188409
 10
4.319728762142
 20
4.837418027032
 10
4.319454856911
 20
4.832191603868
 10
4.319728762142
 20
4.826965180705
 10
4.320547476874
 20
4.821796019327
 10
4.321902031096
 20
4.816740754149
 10
4.323777584028
 20
4.811854771714
 10
4.326153586721
 20
4.807191603868
 10
4.329004007192
 20
4.802802341254
 10
4.332297615637
 20
4.79873507355
 10
4.335998326593
 20
4.795034362594
 10
4.340065594296
 20
4.791740754149
 10
4.344454856911
 20
4.788890333679
 10
4.349118024757
 20
4.786514330986
 10
4.354004007192
 20
4.784638778053
 10
4.35905927237
 20
4.783284223831
 10
4.364228433747
 20
4.7824655091
 10
4.369454856911
 20
4.782191603868
 10
4.374681280074
 20
4.7824655091
 10
4.379850441451
 20
4.783284223831
 10
4.384905706629
 20
4.784638778053
 10
4.389791689064
 20
4.786514330986
 10
4.394454856911
 20
4.788890333679
 10
4.398844119525
 20
4.791740754149
 10
4.402911387228
 20
4.795034362594
 10
4.406612098184
 20
4.79873507355
 10
4.409905706629
 20
4.802802341254
 10
4.4127561271
 20
4.807191603868
 10
4.415132129793
 20
4.811854771714
 10
4.417007682725
 20
4.816740754149
 10
4.418362236947
 20
4.821796019327
 10
4.419180951679
 20
4.826965180705
 10
4.419454856911
 20
4.832191603868
 10
4.419180951679
 20
4.837418027032
 10
4.418362236947
 20
4.842587188409
 10
4.417007682725
 20
4.847642453587
 10
4.415132129793
 20
4.852528436022
  0
LWPOLYLINE
  5
38
102
{ACAD_REACTORS
330
3B
102
}
100
AcDbEntity
  8
0
370
           0
  6
Continuous
 62
           7
100
AcDbPolyline
 90
       60
 70
           1
 10
4.5827561271
 20
4.562742966581
 10
4.579905706629
 20
4.567132229196
 10
4.576612098184
 20
4.571199496899
 10
4.572911387228
 20
4.574900207855
 10
4.568844119525
 20
4.5781938163
 10
4.564454856911
 20
4.581044236771
 10
4.559791689064
 20
4.583420239464
 10
4.554905706629
 20
4.585295792396
 10
4.549850441451
 20
4.586650346618
 10
4.544681280074
 20
4.58746906135
 10
4.539454856911
 20
4.587742966581
 10
4.534228433747
 20
4.58746906135
 10
4.52905927237
 20
4.586650346618
 10
4.524004007192
 20
4.585295792396
 10
4.519118024757
 20
4.583420239464
 10
4.514454856911
 20
4.581044236771
 10
4.510065594296
 20
4.5781938163
 10
4.505998326593
 20
4.574900207855
 10
4.502297615637
 20
4.571199496899
 10
4.499004007192
 20
4.567132229196
 10
4.496153586721
 20
4.562742966581
 10
4.493777584028
 20
4.558079798735
 10
4.491902031096
 20
4.5531938163
 10
4.490547476874
 20
4.548138551122
 10
4.489728762142
 20
4.542969389745
 10
4.489454856911
 20
4.537742966581
 10
4.489728762142
 20
4.532516543418
 10
4.490547476874
 20
4.527347382041
 10
4.491902031096
 20
4.522292116863
 10
4.493777584028
 20
4.517406134428
 10
4.496153586721
 20
4.512742966581
 10
4.499004007192
 20
4.508353703967
 10
4.502297615637
 20
4.504286436264
 10
4.505998326593
 20
4.500585725308
 10
4.510065594296
 20
4.497292116863
 10
4.514454856911
 20
4.494441696392
 10
4.519118024757
 20
4.492065693699
 10
4.524004007192
 20
4.490190140767
 10
4.52905927237
 20
4.488835586545
 10
4.534228433747
 20
4.488016871813
 10
4.539454856911
 20
4.487742966581
 10
4.544681280074
 20
4.488016871813
 10
4.549850441451
 20
4.488835586545
 10
4.554905706629
 20
4.490190140767
 10
4.559791689064
 20
4.492065693699
 10
4.564454856911
 20
4.494441696392
 10
4.568844119525
 20
4.497292116863
 10
4.572911387228
 20
4.500585725308
 10
4.576612098184
 20
4.504286436264
 10
4.579905706629
 20
4.508353703967
 10
4.5827561271
 20
4.512742966581
 10
4.585132129793
 20
4.517406134428
 10
4.587007682725
 20
4.522292116863
 10
4.588362236947
 20
4.527347382041
 10
4.589180951679
 20
4.532516543418
 10
4.589454856911
 20
4.537742966581
 10
4.589180951679
 20
4.542969389745
 10
4.588362236947
 20
4.548138551122
 10
4.587007682725
 20
4.5531938163
 10
4.585132129793
 20
4.558079798735
  0
LWPOLYLINE
  5
39
102
{ACAD_REACTORS
330
3B
102
}
100
AcDbEntity
  8
0
370
           0
  6
Continuous
 62
           7
100
AcDbPolyline
 90
       60
 70
           1
 10
4.288307489813
 20
4.392742966581
 10
4.285457069343
 20
4.397132229196
 10
4.282163460898
 20
4.401199496899
 10
4.278462749942
 20
4.404900207855
 10
4.274395482238
 20
4.4081938163
 10
4.270006219624
 20
4.411044236771
 10
4.265343051778
 20
4.413420239464
 10
4.260457069343
 20
4.415295792396
 10
4.255401804165
 20
4.416650346618
 10
4.250232642787
 20
4.41746906135
 10
4.245006219624
 20
4.417742966581
 10
4.23977979646
 20
4.41746906135
 10
4.234610635083
 20
4.416650346618
 10
4.229555369905
 20
4.415295792396
 10
4.22466938747
 20
4.413420239464
 10
4.220006219624
 20
4.411044236771
 10
4.215616957009
 20
4.4081938163
 10
4.211549689306
 20
4.404900207855
 10
4.20784897835
 20
4.401199496899
 10
4.204555369905
 20
4.397132229196
 10
4.201704949435
 20
4.392742966581
 10
4.199328946742
 20
4.388079798735
 10
4.197453393809
 20
4.3831938163
 10
4.196098839587
 20
4.378138551122
 10
4.195280124855
 20
4.372969389745
 10
4.195006219624
 20
4.367742966581
 10
4.195280124855
 20
4.362516543418
 10
4.196098839587
 20
4.357347382041
 10
4.197453393809
 20
4.352292116863
 10
4.199328946742
 20
4.347406134428
 10
4.201704949435
 20
4.342742966581
 10
4.204555369905
 20
4.338353703967
 10
4.20784897835
 20
4.334286436264
 10
4.211549689306
 20
4.330585725308
 10
4.215616957009
 20
4.327292116863
 10
4.220006219624
 20
4.324441696392
 10
4.22466938747
 20
4.322065693699
 10
4.229555369905
 20
4.320190140767
 10
4.234610635083
 20
4.318835586545
 10
4.23977979646
 20
4.318016871813
 10
4.245006219624
 20
4.317742966581
 10
4.250232642787
 20
4.318016871813
 10
4.255401804165
 20
4.318835586545
 10
4.260457069343
 20
4.320190140767
 10
4.265343051778
 20
4.322065693699
 10
4.270006219624
 20
4.324441696392
 10
4.274395482238
 20
4.327292116863
 10
4.278462749942
 20
4.330585725308
 10
4.282163460898
 20
4.334286436264
 10
4.285457069343
 20
4.338353703967
 10
4.288307489813
 20
4.342742966581
 10
4.290683492506
 20
4.347406134428
 10
4.292559045439
 20
4.352292116863
 10
4.293913599661
 20
4.357347382041
 10
4.294732314392
 20
4.362516543418
 10
4.295006219624
 20
4.367742966581
 10
4.294732314392
 20
4.372969389745
 10
4.293913599661
 20
4.378138551122
 10
4.292559045439
 20
4.3831938163
 10
4.290683492506
 20
4.388079798735
  0
LWPOLYLINE
  5
3A
102
{ACAD_REACTORS
330
3B
102
}
100
AcDbEntity
  8
0
370
           0
  6
Continuous
 62
           7
100
AcDbPolyline
 90
       60
 70
           1
 10
4.118307489813
 20
4.687191603868
 10
4.115457069343
 20
4.691580866483
 10
4.112163460898
 20
4.695648134186
 10
4.108462749942
 20
4.699348845142
 10
4.104395482238
 20
4.702642453587
 10
4.100006219624
 20
4.705492874057
 10
4.095343051778
 20
4.70786887675
 10
4.090457069343
 20
4.709744429683
 10
4.085401804165
 20
4.711098983905
 10
4.080232642787
 20
4.711917698637
 10
4.075006219624
 20
4.712191603868
 10
4.06977979646
 20
4.711917698637
 10
4.064610635083
 20
4.711098983905
 10
4.059555369905
 20
4.709744429683
 10
4.05466938747
 20
4.70786887675
 10
4.050006219624
 20
4.705492874057
 10
4.045616957009
 20
4.702642453587
 10
4.041549689306
 20
4.699348845142
 10
4.03784897835
 20
4.695648134186
 10
4.034555369905
 20
4.691580866483
 10
4.031704949435
 20
4.687191603868
 10
4.029328946742
 20
4.682528436022
 10
4.027453393809
 20
4.677642453587
 10
4.026098839587
 20
4.672587188409
 10
4.025280124855
 20
4.667418027032
 10
4.025006219624
 20
4.662191603868
 10
4.025280124855
 20
4.656965180705
 10
4.026098839587
 20
4.651796019327
 10
4.027453393809
 20
4.646740754149
 10
4.029328946742
 20
4.641854771714
 10
4.031704949435
 20
4.637191603868
 10
4.034555369905
 20
4.632802341254
 10
4.03784897835
 20
4.62873507355
 10
4.041549689306
 20
4.625034362594
 10
4.045616957009
 20
4.621740754149
 10
4.050006219624
 20
4.618890333679
 10
4.05466938747
 20
4.616514330986
 10
4.059555369905
 20
4.614638778053
 10
4.064610635083
 20
4.613284223831
 10
4.06977979646
 20
4.6124655091
 10
4.075006219624
 20
4.612191603868
 10
4.080232642787
 20
4.6124655091
 10
4.085401804165
 20
4.613284223831
 10
4.090457069343
 20
4.614638778053
 10
4.095343051778
 20
4.616514330986
 10
4.100006219624
 20
4.618890333679
 10
4.104395482238
 20
4.621740754149
 10
4.108462749942
 20
4.625034362594
 10
4.112163460898
 20
4.62873507355
 10
4.115457069343
 20
4.632802341254
 10
4.118307489813
 20
4.637191603868
 10
4.120683492506
 20
4.641854771714
 10
4.122559045439
 20
4.646740754149
 10
4.123913599661
 20
4.651796019327
 10
4.124732314392
 20
4.656965180705
 10
4.125006219624
 20
4.662191603868
 10
4.124732314392
 20
4.667418027032
 10
4.123913599661
 20
4.672587188409
 10
4.122559045439
 20
4.677642453587
 10
4.120683492506
 20
4.682528436022
  0
LWPOLYLINE
  5
3C
102
{ACAD_REACTORS
330
41
102
}
100
AcDbEntity
  8
0
370
           0
  6
Continuous
 62
           7
100
AcDbPolyline
 90
       60
 70
           1
 10
5.519111207796
 20
4.375980538267
 10
5.511272551502
 20
4.388051010457
 10
5.502215128278
 20
4.399235996642
 10
5.49203817315
 20
4.40941295177
 10
5.480853186965
 20
4.418470374994
 10
5.468782714775
 20
4.426309031288
 10
5.455959003198
 20
4.432843038693
 10
5.442522551502
 20
4.438000809258
 10
5.428620572263
 20
4.441725833368
 10
5.414405378474
 20
4.44397729888
 10
5.400032714775
 20
4.444730538267
 10
5.385660051076
 20
4.44397729888
 10
5.371444857288
 20
4.441725833368
 10
5.357542878049
 20
4.438000809258
 10
5.344106426352
 20
4.432843038693
 10
5.331282714775
 20
4.426309031288
 10
5.319212242585
 20
4.418470374994
 10
5.308027256401
 20
4.40941295177
 10
5.297850301272
 20
4.399235996642
 10
5.288792878049
 20
4.388051010457
 10
5.280954221755
 20
4.375980538267
 10
5.274420214349
 20
4.36315682669
 10
5.269262443785
 20
4.349720374994
 10
5.265537419674
 20
4.335818395755
 10
5.263285954162
 20
4.321603201966
 10
5.262532714775
 20
4.307230538267
 10
5.263285954162
 20
4.292857874568
 10
5.265537419674
 20
4.27864268078
 10
5.269262443785
 20
4.264740701541
 10
5.274420214349
 20
4.251304249844
 10
5.280954221755
 20
4.238480538267
 10
5.288792878049
 20
4.226410066077
 10
5.297850301272
 20
4.215225079893
 10
5.308027256401
 20
4.205048124764
 10
5.319212242585
 20
4.195990701541
 10
5.331282714775
 20
4.188152045247
 10
5.344106426352
 20
4.181618037841
 10
5.357542878049
 20
4.176460267277
 10
5.371444857288
 20
4.172735243166
 10
5.385660051076
 20
4.170483777654
 10
5.400032714775
 20
4.169730538267
 10
5.414405378474
 20
4.170483777654
 10
5.428620572263
 20
4.172735243166
 10
5.442522551502
 20
4.176460267277
 10
5.455959003198
 20
4.181618037841
 10
5.468782714775
 20
4.188152045247
 10
5.480853186965
 20
4.195990701541
 10
5.49203817315
 20
4.205048124764
 10
5.502215128278
 20
4.215225079893
 10
5.511272551502
 20
4.226410066077
 10
5.519111207796
 20
4.238480538267
 10
5.525645215201
 20
4.251304249844
 10
5.530802985766
 20
4.264740701541
 10
5.534528009876
 20
4.27864268078
 10
5.536779475388
 20
4.292857874568
 10
5.537532714775
 20
4.307230538267
 10
5.536779475388
 20
4.321603201966
 10
5.534528009876
 20
4.335818395755
 10
5.530802985766
 20
4.349720374994
 10
5.525645215201
 20
4.36315682669
  0
LWPOLYLINE
  5
3D
102
{ACAD_REACTORS
330
41
102
}
100
AcDbEntity
  8
0
370
           0
  6
Continuous
 62
           7
100
AcDbPolyline
 90
       60
 70
           1
 10
5.505558303608
 20
4.564454856911
 10
5.502707883137
 20
4.568844119525
 10
5.499414274692
 20
4.572911387228
 10
5.495713563736
 20
4.576612098184
 10
5.491646296033
 20
4.579905706629
 10
5.487257033419
 20
4.5827561271
 10
5.482593865572
 20
4.585132129793
 10
5.477707883137
 20
4.587007682725
 10
5.472652617959
 20
4.588362236947
 10
5.467483456582
 20
4.589180951679
 10
5.462257033419
 20
4.589454856911
 10
5.457030610255
 20
4.589180951679
 10
5.451861448878
 20
4.588362236947
 10
5.4468061837
 20
4.587007682725
 10
5.441920201265
 20
4.585132129793
 10
5.437257033419
 20
4.5827561271
 10
5.432867770804
 20
4.579905706629
 10
5.428800503101
 20
4.576612098184
 10
5.425099792145
 20
4.572911387228
 10
5.4218061837
 20
4.568844119525
 10
5.418955763229
 20
4.564454856911
 10
5.416579760536
 20
4.559791689064
 10
5.414704207604
 20
4.554905706629
 10
5.413349653382
 20
4.549850441451
 10
5.41253093865
 20
4.544681280074
 10
5.412257033419
 20
4.539454856911
 10
5.41253093865
 20
4.534228433747
 10
5.413349653382
 20
4.52905927237
 10
5.414704207604
 20
4.524004007192
 10
5.416579760536
 20
4.519118024757
 10
5.418955763229
 20
4.514454856911
 10
5.4218061837
 20
4.510065594296
 10
5.425099792145
 20
4.505998326593
 10
5.428800503101
 20
4.502297615637
 10
5.432867770804
 20
4.499004007192
 10
5.437257033419
 20
4.496153586721
 10
5.441920201265
 20
4.493777584028
 10
5.4468061837
 20
4.491902031096
 10
5.451861448878
 20
4.490547476874
 10
5.457030610255
 20
4.489728762142
 10
5.462257033419
 20
4.489454856911
 10
5.467483456582
 20
4.489728762142
 10
5.472652617959
 20
4.490547476874
 10
5.477707883137
 20
4.491902031096
 10
5.482593865572
 20
4.493777584028
 10
5.487257033419
 20
4.496153586721
 10
5.491646296033
 20
4.499004007192
 10
5.495713563736
 20
4.502297615637
 10
5.499414274692
 20
4.505998326593
 10
5.502707883137
 20
4.510065594296
 10
5.505558303608
 20
4.514454856911
 10
5.507934306301
 20
4.519118024757
 10
5.509809859233
 20
4.524004007192
 10
5.511164413455
 20
4.52905927237
 10
5.511983128187
 20
4.534228433747
 10
5.512257033419
 20
4.539454856911
 10
5.511983128187
 20
4.544681280074
 10
5.511164413455
 20
4.549850441451
 10
5.509809859233
 20
4.554905706629
 10
5.507934306301
 20
4.559791689064
  0
LWPOLYLINE
  5
3E
102
{ACAD_REACTORS
330
41
102
}
100
AcDbEntity
  8
0
370
           0
  6
Continuous
 62
           7
100
AcDbPolyline
 90
       60
 70
           1
 10
5.675558303608
 20
4.270006219624
 10
5.672707883137
 20
4.274395482238
 10
5.669414274692
 20
4.278462749942
 10
5.665713563736
 20
4.282163460898
 10
5.661646296033
 20
4.285457069343
 10
5.657257033419
 20
4.288307489813
 10
5.652593865572
 20
4.290683492506
 10
5.647707883137
 20
4.292559045439
 10
5.642652617959
 20
4.293913599661
 10
5.637483456582
 20
4.294732314392
 10
5.632257033419
 20
4.295006219624
 10
5.627030610255
 20
4.294732314392
 10
5.621861448878
 20
4.293913599661
 10
5.6168061837
 20
4.292559045439
 10
5.611920201265
 20
4.290683492506
 10
5.607257033419
 20
4.288307489813
 10
5.602867770804
 20
4.285457069343
 10
5.598800503101
 20
4.282163460898
 10
5.595099792145
 20
4.278462749942
 10
5.5918061837
 20
4.274395482238
 10
5.588955763229
 20
4.270006219624
 10
5.586579760536
 20
4.265343051778
 10
5.584704207604
 20
4.260457069343
 10
5.583349653382
 20
4.255401804165
 10
5.58253093865
 20
4.250232642787
 10
5.582257033419
 20
4.245006219624
 10
5.58253093865
 20
4.23977979646
 10
5.583349653382
 20
4.234610635083
 10
5.584704207604
 20
4.229555369905
 10
5.586579760536
 20
4.22466938747
 10
5.588955763229
 20
4.220006219624
 10
5.5918061837
 20
4.215616957009
 10
5.595099792145
 20
4.211549689306
 10
5.598800503101
 20
4.20784897835
 10
5.602867770804
 20
4.204555369905
 10
5.607257033419
 20
4.201704949435
 10
5.611920201265
 20
4.199328946742
 10
5.6168061837
 20
4.197453393809
 10
5.621861448878
 20
4.196098839587
 10
5.627030610255
 20
4.195280124855
 10
5.632257033419
 20
4.195006219624
 10
5.637483456582
 20
4.195280124855
 10
5.642652617959
 20
4.196098839587
 10
5.647707883137
 20
4.197453393809
 10
5.652593865572
 20
4.199328946742
 10
5.657257033419
 20
4.201704949435
 10
5.661646296033
 20
4.204555369905
 10
5.665713563736
 20
4.20784897835
 10
5.669414274692
 20
4.211549689306
 10
5.672707883137
 20
4.215616957009
 10
5.675558303608
 20
4.220006219624
 10
5.677934306301
 20
4.22466938747
 10
5.679809859233
 20
4.229555369905
 10
5.681164413455
 20
4.234610635083
 10
5.681983128187
 20
4.23977979646
 10
5.682257033419
 20
4.245006219624
 10
5.681983128187
 20
4.250232642787
 10
5.681164413455
 20
4.255401804165
 10
5.679809859233
 20
4.260457069343
 10
5.677934306301
 20
4.265343051778
  0
LWPOLYLINE
  5
3F
102
{ACAD_REACTORS
330
41
102
}
100
AcDbEntity
  8
0
370
           0
  6
Continuous
 62
           7
100
AcDbPolyline
 90
       60
 70
           1
 10
5.381109666321
 20
4.100006219624
 10
5.378259245851
 20
4.104395482238
 10
5.374965637406
 20
4.108462749942
 10
5.37126492645
 20
4.112163460898
 10
5.367197658746
 20
4.115457069343
 10
5.362808396132
 20
4.118307489813
 10
5.358145228286
 20
4.120683492506
 10
5.353259245851
 20
4.122559045439
 10
5.348203980673
 20
4.123913599661
 10
5.343034819295
 20
4.124732314392
 10
5.337808396132
 20
4.125006219624
 10
5.332581972968
 20
4.124732314392
 10
5.327412811591
 20
4.123913599661
 10
5.322357546413
 20
4.122559045439
 10
5.317471563978
 20
4.120683492506
 10
5.312808396132
 20
4.118307489813
 10
5.308419133517
 20
4.115457069343
 10
5.304351865814
 20
4.112163460898
 10
5.300651154858
 20
4.108462749942
 10
5.297357546413
 20
4.104395482238
 10
5.294507125943
 20
4.100006219624
 10
5.29213112325
 20
4.095343051778
 10
5.290255570317
 20
4.090457069343
 10
5.288901016095
 20
4.085401804165
 10
5.288082301363
 20
4.080232642787
 10
5.287808396132
 20
4.075006219624
 10
5.288082301363
 20
4.06977979646
 10
5.288901016095
 20
4.064610635083
 10
5.290255570317
 20
4.059555369905
 10
5.29213112325
 20
4.05466938747
 10
5.294507125943
 20
4.050006219624
 10
5.297357546413
 20
4.045616957009
 10
5.300651154858
 20
4.041549689306
 10
5.304351865814
 20
4.03784897835
 10
5.308419133517
 20
4.034555369905
 10
5.312808396132
 20
4.031704949435
 10
5.317471563978
 20
4.029328946742
 10
5.322357546413
 20
4.027453393809
 10
5.327412811591
 20
4.026098839587
 10
5.332581972968
 20
4.025280124855
 10
5.337808396132
 20
4.025006219624
 10
5.343034819295
 20
4.025280124855
 10
5.348203980673
 20
4.026098839587
 10
5.353259245851
 20
4.027453393809
 10
5.358145228286
 20
4.029328946742
 10
5.362808396132
 20
4.031704949435
 10
5.367197658746
 20
4.034555369905
 10
5.37126492645
 20
4.03784897835
 10
5.374965637406
 20
4.041549689306
 10
5.378259245851
 20
4.045616957009
 10
5.381109666321
 20
4.050006219624
 10
5.383485669014
 20
4.05466938747
 10
5.385361221947
 20
4.059555369905
 10
5.386715776169
 20
4.064610635083
 10
5.3875344909
 20
4.06977979646
 10
5.387808396132
 20
4.075006219624
 10
5.3875344909
 20
4.080232642787
 10
5.386715776169
 20
4.085401804165
 10
5.385361221947
 20
4.090457069343
 10
5.383485669014
 20
4.095343051778
  0
LWPOLYLINE
  5
40
102
{ACAD_REACTORS
330
41
102
}
100
AcDbEntity
  8
0
370
           0
  6
Continuous
 62
           7
100
AcDbPolyline
 90
       60
 70
           1
 10
5.211109666321
 20
4.394454856911
 10
5.208259245851
 20
4.398844119525
 10
5.204965637406
 20
4.402911387228
 10
5.20126492645
 20
4.406612098184
 10
5.197197658746
 20
4.409905706629
 10
5.192808396132
 20
4.4127561271
 10
5.188145228286
 20
4.415132129793
 10
5.183259245851
 20
4.417007682725
 10
5.178203980673
 20
4.418362236947
 10
5.173034819295
 20
4.419180951679
 10
5.167808396132
 20
4.419454856911
 10
5.162581972968
 20
4.419180951679
 10
5.157412811591
 20
4.418362236947
 10
5.152357546413
 20
4.417007682725
 10
5.147471563978
 20
4.415132129793
 10
5.142808396132
 20
4.4127561271
 10
5.138419133517
 20
4.409905706629
 10
5.134351865814
 20
4.406612098184
 10
5.130651154858
 20
4.402911387228
 10
5.127357546413
 20
4.398844119525
 10
5.124507125943
 20
4.394454856911
 10
5.12213112325
 20
4.389791689064
 10
5.120255570317
 20
4.384905706629
 10
5.118901016095
 20
4.379850441451
 10
5.118082301363
 20
4.374681280074
 10
5.117808396132
 20
4.369454856911
 10
5.118082301363
 20
4.364228433747
 10
5.118901016095
 20
4.35905927237
 10
5.120255570317
 20
4.354004007192
 10
5.12213112325
 20
4.349118024757
 10
5.124507125943
 20
4.344454856911
 10
5.127357546413
 20
4.340065594296
 10
5.130651154858
 20
4.335998326593
 10
5.134351865814
 20
4.332297615637
 10
5.138419133517
 20
4.329004007192
 10
5.142808396132
 20
4.326153586721
 10
5.147471563978
 20
4.323777584028
 10
5.152357546413
 20
4.321902031096
 10
5.157412811591
 20
4.320547476874
 10
5.162581972968
 20
4.319728762142
 10
5.167808396132
 20
4.319454856911
 10
5.173034819295
 20
4.319728762142
 10
5.178203980673
 20
4.320547476874
 10
5.183259245851
 20
4.321902031096
 10
5.188145228286
 20
4.323777584028
 10
5.192808396132
 20
4.326153586721
 10
5.197197658746
 20
4.329004007192
 10
5.20126492645
 20
4.332297615637
 10
5.204965637406
 20
4.335998326593
 10
5.208259245851
 20
4.340065594296
 10
5.211109666321
 20
4.344454856911
 10
5.213485669014
 20
4.349118024757
 10
5.215361221947
 20
4.354004007192
 10
5.216715776169
 20
4.35905927237
 10
5.2175344909
 20
4.364228433747
 10
5.217808396132
 20
4.369454856911
 10
5.2175344909
 20
4.374681280074
 10
5.216715776169
 20
4.379850441451
 10
5.215361221947
 20
4.384905706629
 10
5.213485669014
 20
4.389791689064
  0
POINT
  5
42
100
AcDbEntity
  8
0
  6
Continuous
 62
           7
100
AcDbPoint
 10
5.400032714775
 20
4.307230538267
 30
0.0
1001
TCAD
1000
TCW_CUSTOM_DATA
1002
{
1000
#$AUX@_ToolInfo Properties
1070
           8
1000
Insert^JPoint^JCross@Point Cross
1002
}
1000
TC25ExternalObject
1002
{
1000
TCW30POINT
1000

1070
           0
1071
        0
1040
1.0
1040
0.0
1000
Continuous
1000
0
1070
          21
1071
        1
1071
      242
1010
5.400032714775
1020
4.307230538267
1030
0.0
1070
           3
1071
-2147483645
1070
           1
1000
#$AUX@_ToolInfo Properties
1070
           8
1000
Insert^JPoint^JCross@Point Cross
1000
$POINTSIZE
1070
           5
1040
0.25
1000
$POINTTYPE
1070
          18
1070
           3
1000
ExplodeScale
1070
           5
1040
1.0
1002
}
  0
LWPOLYLINE
  5
43
102
{ACAD_REACTORS
330
48
102
}
100
AcDbEntity
  8
0
370
           0
  6
Continuous
 62
           7
100
AcDbPolyline
 90
       60
 70
           1
 10
5.811847954753
 20
5.468782714775
 10
5.804009298459
 20
5.480853186965
 10
5.794951875236
 20
5.49203817315
 10
5.784774920107
 20
5.502215128278
 10
5.773589933923
 20
5.511272551502
 10
5.761519461733
 20
5.519111207796
 10
5.748695750156
 20
5.525645215201
 10
5.735259298459
 20
5.530802985766
 10
5.72135731922
 20
5.534528009876
 10
5.707142125432
 20
5.536779475388
 10
5.692769461733
 20
5.537532714775
 10
5.678396798034
 20
5.536779475388
 10
5.664181604245
 20
5.534528009876
 10
5.650279625006
 20
5.530802985766
 10
5.63684317331
 20
5.525645215201
 10
5.624019461733
 20
5.519111207796
 10
5.611948989543
 20
5.511272551502
 10
5.600764003358
 20
5.502215128278
 10
5.59058704823
 20
5.49203817315
 10
5.581529625006
 20
5.480853186965
 10
5.573690968712
 20
5.468782714775
 10
5.567156961307
 20
5.455959003198
 10
5.561999190742
 20
5.442522551502
 10
5.558274166632
 20
5.428620572263
 10
5.55602270112
 20
5.414405378474
 10
5.555269461733
 20
5.400032714775
 10
5.55602270112
 20
5.385660051076
 10
5.558274166632
 20
5.371444857288
 10
5.561999190742
 20
5.357542878049
 10
5.567156961307
 20
5.344106426352
 10
5.573690968712
 20
5.331282714775
 10
5.581529625006
 20
5.319212242585
 10
5.59058704823
 20
5.308027256401
 10
5.600764003358
 20
5.297850301272
 10
5.611948989543
 20
5.288792878049
 10
5.624019461733
 20
5.280954221755
 10
5.63684317331
 20
5.274420214349
 10
5.650279625006
 20
5.269262443785
 10
5.664181604245
 20
5.265537419674
 10
5.678396798034
 20
5.263285954162
 10
5.692769461733
 20
5.262532714775
 10
5.707142125432
 20
5.263285954162
 10
5.72135731922
 20
5.265537419674
 10
5.735259298459
 20
5.269262443785
 10
5.748695750156
 20
5.274420214349
 10
5.761519461733
 20
5.280954221755
 10
5.773589933923
 20
5.288792878049
 10
5.784774920107
 20
5.297850301272
 10
5.794951875236
 20
5.308027256401
 10
5.804009298459
 20
5.319212242585
 10
5.811847954753
 20
5.331282714775
 10
5.818381962159
 20
5.344106426352
 10
5.823539732723
 20
5.357542878049
 10
5.827264756834
 20
5.371444857288
 10
5.829516222346
 20
5.385660051076
 10
5.830269461733
 20
5.400032714775
 10
5.829516222346
 20
5.414405378474
 10
5.827264756834
 20
5.428620572263
 10
5.823539732723
 20
5.442522551502
 10
5.818381962159
 20
5.455959003198
  0
LWPOLYLINE
  5
44
102
{ACAD_REACTORS
330
48
102
}
100
AcDbEntity
  8
0
370
           0
  6
Continuous
 62
           7
100
AcDbPolyline
 90
       60
 70
           1
 10
5.798295050565
 20
5.657257033419
 10
5.795444630095
 20
5.661646296033
 10
5.79215102165
 20
5.665713563736
 10
5.788450310694
 20
5.669414274692
 10
5.784383042991
 20
5.672707883137
 10
5.779993780376
 20
5.675558303608
 10
5.77533061253
 20
5.677934306301
 10
5.770444630095
 20
5.679809859233
 10
5.765389364917
 20
5.681164413455
 10
5.76022020354
 20
5.681983128187
 10
5.754993780376
 20
5.682257033419
 10
5.749767357213
 20
5.681983128187
 10
5.744598195835
 20
5.681164413455
 10
5.739542930657
 20
5.679809859233
 10
5.734656948222
 20
5.677934306301
 10
5.729993780376
 20
5.675558303608
 10
5.725604517762
 20
5.672707883137
 10
5.721537250058
 20
5.669414274692
 10
5.717836539102
 20
5.665713563736
 10
5.714542930657
 20
5.661646296033
 10
5.711692510187
 20
5.657257033419
 10
5.709316507494
 20
5.652593865572
 10
5.707440954561
 20
5.647707883137
 10
5.706086400339
 20
5.642652617959
 10
5.705267685608
 20
5.637483456582
 10
5.704993780376
 20
5.632257033419
 10
5.705267685608
 20
5.627030610255
 10
5.706086400339
 20
5.621861448878
 10
5.707440954561
 20
5.6168061837
 10
5.709316507494
 20
5.611920201265
 10
5.711692510187
 20
5.607257033419
 10
5.714542930657
 20
5.602867770804
 10
5.717836539102
 20
5.598800503101
 10
5.721537250058
 20
5.595099792145
 10
5.725604517762
 20
5.5918061837
 10
5.729993780376
 20
5.588955763229
 10
5.734656948222
 20
5.586579760536
 10
5.739542930657
 20
5.584704207604
 10
5.744598195835
 20
5.583349653382
 10
5.749767357213
 20
5.58253093865
 10
5.754993780376
 20
5.582257033419
 10
5.76022020354
 20
5.58253093865
 10
5.765389364917
 20
5.583349653382
 10
5.770444630095
 20
5.584704207604
 10
5.77533061253
 20
5.586579760536
 10
5.779993780376
 20
5.588955763229
 10
5.784383042991
 20
5.5918061837
 10
5.788450310694
 20
5.595099792145
 10
5.79215102165
 20
5.598800503101
 10
5.795444630095
 20
5.602867770804
 10
5.798295050565
 20
5.607257033419
 10
5.800671053258
 20
5.611920201265
 10
5.802546606191
 20
5.6168061837
 10
5.803901160413
 20
5.621861448878
 10
5.804719875145
 20
5.627030610255
 10
5.804993780376
 20
5.632257033419
 10
5.804719875145
 20
5.637483456582
 10
5.803901160413
 20
5.642652617959
 10
5.802546606191
 20
5.647707883137
 10
5.800671053258
 20
5.652593865572
  0
LWPOLYLINE
  5
45
102
{ACAD_REACTORS
330
48
102
}
100
AcDbEntity
  8
0
370
           0
  6
Continuous
 62
           7
100
AcDbPolyline
 90
       60
 70
           1
 10
5.968295050565
 20
5.362808396132
 10
5.965444630095
 20
5.367197658746
 10
5.96215102165
 20
5.37126492645
 10
5.958450310694
 20
5.374965637406
 10
5.954383042991
 20
5.378259245851
 10
5.949993780376
 20
5.381109666321
 10
5.94533061253
 20
5.383485669014
 10
5.940444630095
 20
5.385361221947
 10
5.935389364917
 20
5.386715776169
 10
5.93022020354
 20
5.3875344909
 10
5.924993780376
 20
5.387808396132
 10
5.919767357213
 20
5.3875344909
 10
5.914598195835
 20
5.386715776169
 10
5.909542930657
 20
5.385361221947
 10
5.904656948222
 20
5.383485669014
 10
5.899993780376
 20
5.381109666321
 10
5.895604517762
 20
5.378259245851
 10
5.891537250058
 20
5.374965637406
 10
5.887836539102
 20
5.37126492645
 10
5.884542930657
 20
5.367197658746
 10
5.881692510187
 20
5.362808396132
 10
5.879316507494
 20
5.358145228286
 10
5.877440954561
 20
5.353259245851
 10
5.876086400339
 20
5.348203980673
 10
5.875267685608
 20
5.343034819295
 10
5.874993780376
 20
5.337808396132
 10
5.875267685608
 20
5.332581972968
 10
5.876086400339
 20
5.327412811591
 10
5.877440954561
 20
5.322357546413
 10
5.879316507494
 20
5.317471563978
 10
5.881692510187
 20
5.312808396132
 10
5.884542930657
 20
5.308419133517
 10
5.887836539102
 20
5.304351865814
 10
5.891537250058
 20
5.300651154858
 10
5.895604517762
 20
5.297357546413
 10
5.899993780376
 20
5.294507125943
 10
5.904656948222
 20
5.29213112325
 10
5.909542930657
 20
5.290255570317
 10
5.914598195835
 20
5.288901016095
 10
5.919767357213
 20
5.288082301363
 10
5.924993780376
 20
5.287808396132
 10
5.93022020354
 20
5.288082301363
 10
5.935389364917
 20
5.288901016095
 10
5.940444630095
 20
5.290255570317
 10
5.94533061253
 20
5.29213112325
 10
5.949993780376
 20
5.294507125943
 10
5.954383042991
 20
5.297357546413
 10
5.958450310694
 20
5.300651154858
 10
5.96215102165
 20
5.304351865814
 10
5.965444630095
 20
5.308419133517
 10
5.968295050565
 20
5.312808396132
 10
5.970671053258
 20
5.317471563978
 10
5.972546606191
 20
5.322357546413
 10
5.973901160413
 20
5.327412811591
 10
5.974719875145
 20
5.332581972968
 10
5.974993780376
 20
5.337808396132
 10
5.974719875145
 20
5.343034819295
 10
5.973901160413
 20
5.348203980673
 10
5.972546606191
 20
5.353259245851
 10
5.970671053258
 20
5.358145228286
  0
LWPOLYLINE
  5
46
102
{ACAD_REACTORS
330
48
102
}
100
AcDbEntity
  8
0
370
           0
  6
Continuous
 62
           7
100
AcDbPolyline
 90
       60
 70
           1
 10
5.673846413279
 20
5.192808396132
 10
5.670995992808
 20
5.197197658746
 10
5.667702384363
 20
5.20126492645
 10
5.664001673407
 20
5.204965637406
 10
5.659934405704
 20
5.208259245851
 10
5.655545143089
 20
5.211109666321
 10
5.650881975243
 20
5.213485669014
 10
5.645995992808
 20
5.215361221947
 10
5.64094072763
 20
5.216715776169
 10
5.635771566253
 20
5.2175344909
 10
5.630545143089
 20
5.217808396132
 10
5.625318719926
 20
5.2175344909
 10
5.620149558549
 20
5.216715776169
 10
5.615094293371
 20
5.215361221947
 10
5.610208310936
 20
5.213485669014
 10
5.605545143089
 20
5.211109666321
 10
5.601155880475
 20
5.208259245851
 10
5.597088612772
 20
5.204965637406
 10
5.593387901816
 20
5.20126492645
 10
5.590094293371
 20
5.197197658746
 10
5.5872438729
 20
5.192808396132
 10
5.584867870207
 20
5.188145228286
 10
5.582992317275
 20
5.183259245851
 10
5.581637763053
 20
5.178203980673
 10
5.580819048321
 20
5.173034819295
 10
5.580545143089
 20
5.167808396132
 10
5.580819048321
 20
5.162581972968
 10
5.581637763053
 20
5.157412811591
 10
5.582992317275
 20
5.152357546413
 10
5.584867870207
 20
5.147471563978
 10
5.5872438729
 20
5.142808396132
 10
5.590094293371
 20
5.138419133517
 10
5.593387901816
 20
5.134351865814
 10
5.597088612772
 20
5.130651154858
 10
5.601155880475
 20
5.127357546413
 10
5.605545143089
 20
5.124507125943
 10
5.610208310936
 20
5.12213112325
 10
5.615094293371
 20
5.120255570317
 10
5.620149558549
 20
5.118901016095
 10
5.625318719926
 20
5.118082301363
 10
5.630545143089
 20
5.117808396132
 10
5.635771566253
 20
5.118082301363
 10
5.64094072763
 20
5.118901016095
 10
5.645995992808
 20
5.120255570317
 10
5.650881975243
 20
5.12213112325
 10
5.655545143089
 20
5.124507125943
 10
5.659934405704
 20
5.127357546413
 10
5.664001673407
 20
5.130651154858
 10
5.667702384363
 20
5.134351865814
 10
5.670995992808
 20
5.138419133517
 10
5.673846413279
 20
5.142808396132
 10
5.676222415972
 20
5.147471563978
 10
5.678097968904
 20
5.152357546413
 10
5.679452523126
 20
5.157412811591
 10
5.680271237858
 20
5.162581972968
 10
5.680545143089
 20
5.167808396132
 10
5.680271237858
 20
5.173034819295
 10
5.679452523126
 20
5.178203980673
 10
5.678097968904
 20
5.183259245851
 10
5.676222415972
 20
5.188145228286
  0
LWPOLYLINE
  5
47
102
{ACAD_REACTORS
330
48
102
}
100
AcDbEntity
  8
0
370
           0
  6
Continuous
 62
           7
100
AcDbPolyline
 90
       60
 70
           1
 10
5.503846413279
 20
5.487257033419
 10
5.500995992808
 20
5.491646296033
 10
5.497702384363
 20
5.495713563736
 10
5.494001673407
 20
5.499414274692
 10
5.489934405704
 20
5.502707883137
 10
5.485545143089
 20
5.505558303608
 10
5.480881975243
 20
5.507934306301
 10
5.475995992808
 20
5.509809859233
 10
5.47094072763
 20
5.511164413455
 10
5.465771566253
 20
5.511983128187
 10
5.460545143089
 20
5.512257033419
 10
5.455318719926
 20
5.511983128187
 10
5.450149558549
 20
5.511164413455
 10
5.445094293371
 20
5.509809859233
 10
5.440208310936
 20
5.507934306301
 10
5.435545143089
 20
5.505558303608
 10
5.431155880475
 20
5.502707883137
 10
5.427088612772
 20
5.499414274692
 10
5.423387901816
 20
5.495713563736
 10
5.420094293371
 20
5.491646296033
 10
5.4172438729
 20
5.487257033419
 10
5.414867870207
 20
5.482593865572
 10
5.412992317275
 20
5.477707883137
 10
5.411637763053
 20
5.472652617959
 10
5.410819048321
 20
5.467483456582
 10
5.410545143089
 20
5.462257033419
 10
5.410819048321
 20
5.457030610255
 10
5.411637763053
 20
5.451861448878
 10
5.412992317275
 20
5.4468061837
 10
5.414867870207
 20
5.441920201265
 10
5.4172438729
 20
5.437257033419
 10
5.420094293371
 20
5.432867770804
 10
5.423387901816
 20
5.428800503101
 10
5.427088612772
 20
5.425099792145
 10
5.431155880475
 20
5.4218061837
 10
5.435545143089
 20
5.418955763229
 10
5.440208310936
 20
5.416579760536
 10
5.445094293371
 20
5.414704207604
 10
5.450149558549
 20
5.413349653382
 10
5.455318719926
 20
5.41253093865
 10
5.460545143089
 20
5.412257033419
 10
5.465771566253
 20
5.41253093865
 10
5.47094072763
 20
5.413349653382
 10
5.475995992808
 20
5.414704207604
 10
5.480881975243
 20
5.416579760536
 10
5.485545143089
 20
5.418955763229
 10
5.489934405704
 20
5.4218061837
 10
5.494001673407
 20
5.425099792145
 10
5.497702384363
 20
5.428800503101
 10
5.500995992808
 20
5.432867770804
 10
5.503846413279
 20
5.437257033419
 10
5.506222415972
 20
5.441920201265
 10
5.508097968904
 20
5.4468061837
 10
5.509452523126
 20
5.451861448878
 10
5.510271237858
 20
5.457030610255
 10
5.510545143089
 20
5.462257033419
 10
5.510271237858
 20
5.467483456582
 10
5.509452523126
 20
5.472652617959
 10
5.508097968904
 20
5.477707883137
 10
5.506222415972
 20
5.482593865572
  0
LWPOLYLINE
  5
49
102
{ACAD_REACTORS
330
4E
102
}
100
AcDbEntity
  8
0
370
           0
  6
Continuous
 62
           7
100
AcDbPolyline
 90
       60
 70
           1
 10
4.719045778245
 20
5.761519461733
 10
4.711207121951
 20
5.773589933923
 10
4.702149698728
 20
5.784774920107
 10
4.691972743599
 20
5.794951875236
 10
4.680787757415
 20
5.804009298459
 10
4.668717285225
 20
5.811847954753
 10
4.655893573648
 20
5.818381962159
 10
4.642457121951
 20
5.823539732723
 10
4.628555142712
 20
5.827264756834
 10
4.614339948924
 20
5.829516222346
 10
4.599967285225
 20
5.830269461733
 10
4.585594621526
 20
5.829516222346
 10
4.571379427737
 20
5.827264756834
 10
4.557477448498
 20
5.823539732723
 10
4.544040996802
 20
5.818381962159
 10
4.531217285225
 20
5.811847954753
 10
4.519146813035
 20
5.804009298459
 10
4.50796182685
 20
5.794951875236
 10
4.497784871722
 20
5.784774920107
 10
4.488727448498
 20
5.773589933923
 10
4.480888792204
 20
5.761519461733
 10
4.474354784799
 20
5.748695750156
 10
4.469197014234
 20
5.735259298459
 10
4.465471990124
 20
5.72135731922
 10
4.463220524612
 20
5.707142125432
 10
4.462467285225
 20
5.692769461733
 10
4.463220524612
 20
5.678396798034
 10
4.465471990124
 20
5.664181604245
 10
4.469197014234
 20
5.650279625006
 10
4.474354784799
 20
5.63684317331
 10
4.480888792204
 20
5.624019461733
 10
4.488727448498
 20
5.611948989543
 10
4.497784871722
 20
5.600764003358
 10
4.50796182685
 20
5.59058704823
 10
4.519146813035
 20
5.581529625006
 10
4.531217285225
 20
5.573690968712
 10
4.544040996802
 20
5.567156961307
 10
4.557477448498
 20
5.561999190742
 10
4.571379427737
 20
5.558274166632
 10
4.585594621526
 20
5.55602270112
 10
4.599967285225
 20
5.555269461733
 10
4.614339948924
 20
5.55602270112
 10
4.628555142712
 20
5.558274166632
 10
4.642457121951
 20
5.561999190742
 10
4.655893573648
 20
5.567156961307
 10
4.668717285225
 20
5.573690968712
 10
4.680787757415
 20
5.581529625006
 10
4.691972743599
 20
5.59058704823
 10
4.702149698728
 20
5.600764003358
 10
4.711207121951
 20
5.611948989543
 10
4.719045778245
 20
5.624019461733
 10
4.725579785651
 20
5.63684317331
 10
4.730737556215
 20
5.650279625006
 10
4.734462580326
 20
5.664181604245
 10
4.736714045838
 20
5.678396798034
 10
4.737467285225
 20
5.692769461733
 10
4.736714045838
 20
5.707142125432
 10
4.734462580326
 20
5.72135731922
 10
4.730737556215
 20
5.735259298459
 10
4.725579785651
 20
5.748695750156
  0
LWPOLYLINE
  5
4A
102
{ACAD_REACTORS
330
4E
102
}
100
AcDbEntity
  8
0
370
           0
  6
Continuous
 62
           7
100
AcDbPolyline
 90
       60
 70
           1
 10
4.705492874057
 20
5.949993780376
 10
4.702642453587
 20
5.954383042991
 10
4.699348845142
 20
5.958450310694
 10
4.695648134186
 20
5.96215102165
 10
4.691580866483
 20
5.965444630095
 10
4.687191603868
 20
5.968295050565
 10
4.682528436022
 20
5.970671053258
 10
4.677642453587
 20
5.972546606191
 10
4.672587188409
 20
5.973901160413
 10
4.667418027032
 20
5.974719875145
 10
4.662191603868
 20
5.974993780376
 10
4.656965180705
 20
5.974719875145
 10
4.651796019327
 20
5.973901160413
 10
4.646740754149
 20
5.972546606191
 10
4.641854771714
 20
5.970671053258
 10
4.637191603868
 20
5.968295050565
 10
4.632802341254
 20
5.965444630095
 10
4.62873507355
 20
5.96215102165
 10
4.625034362594
 20
5.958450310694
 10
4.621740754149
 20
5.954383042991
 10
4.618890333679
 20
5.949993780376
 10
4.616514330986
 20
5.94533061253
 10
4.614638778053
 20
5.940444630095
 10
4.613284223831
 20
5.935389364917
 10
4.6124655091
 20
5.93022020354
 10
4.612191603868
 20
5.924993780376
 10
4.6124655091
 20
5.919767357213
 10
4.613284223831
 20
5.914598195835
 10
4.614638778053
 20
5.909542930657
 10
4.616514330986
 20
5.904656948222
 10
4.618890333679
 20
5.899993780376
 10
4.621740754149
 20
5.895604517762
 10
4.625034362594
 20
5.891537250058
 10
4.62873507355
 20
5.887836539102
 10
4.632802341254
 20
5.884542930657
 10
4.637191603868
 20
5.881692510187
 10
4.641854771714
 20
5.879316507494
 10
4.646740754149
 20
5.877440954561
 10
4.651796019327
 20
5.876086400339
 10
4.656965180705
 20
5.875267685608
 10
4.662191603868
 20
5.874993780376
 10
4.667418027032
 20
5.875267685608
 10
4.672587188409
 20
5.876086400339
 10
4.677642453587
 20
5.877440954561
 10
4.682528436022
 20
5.879316507494
 10
4.687191603868
 20
5.881692510187
 10
4.691580866483
 20
5.884542930657
 10
4.695648134186
 20
5.887836539102
 10
4.699348845142
 20
5.891537250058
 10
4.702642453587
 20
5.895604517762
 10
4.705492874057
 20
5.899993780376
 10
4.70786887675
 20
5.904656948222
 10
4.709744429683
 20
5.909542930657
 10
4.711098983905
 20
5.914598195835
 10
4.711917698637
 20
5.919767357213
 10
4.712191603868
 20
5.924993780376
 10
4.711917698637
 20
5.93022020354
 10
4.711098983905
 20
5.935389364917
 10
4.709744429683
 20
5.940444630095
 10
4.70786887675
 20
5.94533061253
  0
LWPOLYLINE
  5
4B
102
{ACAD_REACTORS
330
4E
102
}
100
AcDbEntity
  8
0
370
           0
  6
Continuous
 62
           7
100
AcDbPolyline
 90
       60
 70
           1
 10
4.875492874057
 20
5.655545143089
 10
4.872642453587
 20
5.659934405704
 10
4.869348845142
 20
5.664001673407
 10
4.865648134186
 20
5.667702384363
 10
4.861580866483
 20
5.670995992808
 10
4.857191603868
 20
5.673846413279
 10
4.852528436022
 20
5.676222415972
 10
4.847642453587
 20
5.678097968904
 10
4.842587188409
 20
5.679452523126
 10
4.837418027032
 20
5.680271237858
 10
4.832191603868
 20
5.680545143089
 10
4.826965180705
 20
5.680271237858
 10
4.821796019327
 20
5.679452523126
 10
4.816740754149
 20
5.678097968904
 10
4.811854771714
 20
5.676222415972
 10
4.807191603868
 20
5.673846413279
 10
4.802802341254
 20
5.670995992808
 10
4.79873507355
 20
5.667702384363
 10
4.795034362594
 20
5.664001673407
 10
4.791740754149
 20
5.659934405704
 10
4.788890333679
 20
5.655545143089
 10
4.786514330986
 20
5.650881975243
 10
4.784638778053
 20
5.645995992808
 10
4.783284223831
 20
5.64094072763
 10
4.7824655091
 20
5.635771566253
 10
4.782191603868
 20
5.630545143089
 10
4.7824655091
 20
5.625318719926
 10
4.783284223831
 20
5.620149558549
 10
4.784638778053
 20
5.615094293371
 10
4.786514330986
 20
5.610208310936
 10
4.788890333679
 20
5.605545143089
 10
4.791740754149
 20
5.601155880475
 10
4.795034362594
 20
5.597088612772
 10
4.79873507355
 20
5.593387901816
 10
4.802802341254
 20
5.590094293371
 10
4.807191603868
 20
5.5872438729
 10
4.811854771714
 20
5.584867870207
 10
4.816740754149
 20
5.582992317275
 10
4.821796019327
 20
5.581637763053
 10
4.826965180705
 20
5.580819048321
 10
4.832191603868
 20
5.580545143089
 10
4.837418027032
 20
5.580819048321
 10
4.842587188409
 20
5.581637763053
 10
4.847642453587
 20
5.582992317275
 10
4.852528436022
 20
5.584867870207
 10
4.857191603868
 20
5.5872438729
 10
4.861580866483
 20
5.590094293371
 10
4.865648134186
 20
5.593387901816
 10
4.869348845142
 20
5.597088612772
 10
4.872642453587
 20
5.601155880475
 10
4.875492874057
 20
5.605545143089
 10
4.87786887675
 20
5.610208310936
 10
4.879744429683
 20
5.615094293371
 10
4.881098983905
 20
5.620149558549
 10
4.881917698637
 20
5.625318719926
 10
4.882191603868
 20
5.630545143089
 10
4.881917698637
 20
5.635771566253
 10
4.881098983905
 20
5.64094072763
 10
4.879744429683
 20
5.645995992808
 10
4.87786887675
 20
5.650881975243
  0
LWPOLYLINE
  5
4C
102
{ACAD_REACTORS
330
4E
102
}
100
AcDbEntity
  8
0
370
           0
  6
Continuous
 62
           7
100
AcDbPolyline
 90
       60
 70
           1
 10
4.581044236771
 20
5.485545143089
 10
4.5781938163
 20
5.489934405704
 10
4.574900207855
 20
5.494001673407
 10
4.571199496899
 20
5.497702384363
 10
4.567132229196
 20
5.500995992808
 10
4.562742966581
 20
5.503846413279
 10
4.558079798735
 20
5.506222415972
 10
4.5531938163
 20
5.508097968904
 10
4.548138551122
 20
5.509452523126
 10
4.542969389745
 20
5.510271237858
 10
4.537742966581
 20
5.510545143089
 10
4.532516543418
 20
5.510271237858
 10
4.527347382041
 20
5.509452523126
 10
4.522292116863
 20
5.508097968904
 10
4.517406134428
 20
5.506222415972
 10
4.512742966581
 20
5.503846413279
 10
4.508353703967
 20
5.500995992808
 10
4.504286436264
 20
5.497702384363
 10
4.500585725308
 20
5.494001673407
 10
4.497292116863
 20
5.489934405704
 10
4.494441696392
 20
5.485545143089
 10
4.492065693699
 20
5.480881975243
 10
4.490190140767
 20
5.475995992808
 10
4.488835586545
 20
5.47094072763
 10
4.488016871813
 20
5.465771566253
 10
4.487742966581
 20
5.460545143089
 10
4.488016871813
 20
5.455318719926
 10
4.488835586545
 20
5.450149558549
 10
4.490190140767
 20
5.445094293371
 10
4.492065693699
 20
5.440208310936
 10
4.494441696392
 20
5.435545143089
 10
4.497292116863
 20
5.431155880475
 10
4.500585725308
 20
5.427088612772
 10
4.504286436264
 20
5.423387901816
 10
4.508353703967
 20
5.420094293371
 10
4.512742966581
 20
5.4172438729
 10
4.517406134428
 20
5.414867870207
 10
4.522292116863
 20
5.412992317275
 10
4.527347382041
 20
5.411637763053
 10
4.532516543418
 20
5.410819048321
 10
4.537742966581
 20
5.410545143089
 10
4.542969389745
 20
5.410819048321
 10
4.548138551122
 20
5.411637763053
 10
4.5531938163
 20
5.412992317275
 10
4.558079798735
 20
5.414867870207
 10
4.562742966581
 20
5.4172438729
 10
4.567132229196
 20
5.420094293371
 10
4.571199496899
 20
5.423387901816
 10
4.574900207855
 20
5.427088612772
 10
4.5781938163
 20
5.431155880475
 10
4.581044236771
 20
5.435545143089
 10
4.583420239464
 20
5.440208310936
 10
4.585295792396
 20
5.445094293371
 10
4.586650346618
 20
5.450149558549
 10
4.58746906135
 20
5.455318719926
 10
4.587742966581
 20
5.460545143089
 10
4.58746906135
 20
5.465771566253
 10
4.586650346618
 20
5.47094072763
 10
4.585295792396
 20
5.475995992808
 10
4.583420239464
 20
5.480881975243
  0
LWPOLYLINE
  5
4D
102
{ACAD_REACTORS
330
4E
102
}
100
AcDbEntity
  8
0
370
           0
  6
Continuous
 62
           7
100
AcDbPolyline
 90
       60
 70
           1
 10
4.411044236771
 20
5.779993780376
 10
4.4081938163
 20
5.784383042991
 10
4.404900207855
 20
5.788450310694
 10
4.401199496899
 20
5.79215102165
 10
4.397132229196
 20
5.795444630095
 10
4.392742966581
 20
5.798295050565
 10
4.388079798735
 20
5.800671053258
 10
4.3831938163
 20
5.802546606191
 10
4.378138551122
 20
5.803901160413
 10
4.372969389745
 20
5.804719875145
 10
4.367742966581
 20
5.804993780376
 10
4.362516543418
 20
5.804719875145
 10
4.357347382041
 20
5.803901160413
 10
4.352292116863
 20
5.802546606191
 10
4.347406134428
 20
5.800671053258
 10
4.342742966581
 20
5.798295050565
 10
4.338353703967
 20
5.795444630095
 10
4.334286436264
 20
5.79215102165
 10
4.330585725308
 20
5.788450310694
 10
4.327292116863
 20
5.784383042991
 10
4.324441696392
 20
5.779993780376
 10
4.322065693699
 20
5.77533061253
 10
4.320190140767
 20
5.770444630095
 10
4.318835586545
 20
5.765389364917
 10
4.318016871813
 20
5.76022020354
 10
4.317742966581
 20
5.754993780376
 10
4.318016871813
 20
5.749767357213
 10
4.318835586545
 20
5.744598195835
 10
4.320190140767
 20
5.739542930657
 10
4.322065693699
 20
5.734656948222
 10
4.324441696392
 20
5.729993780376
 10
4.327292116863
 20
5.725604517762
 10
4.330585725308
 20
5.721537250058
 10
4.334286436264
 20
5.717836539102
 10
4.338353703967
 20
5.714542930657
 10
4.342742966581
 20
5.711692510187
 10
4.347406134428
 20
5.709316507494
 10
4.352292116863
 20
5.707440954561
 10
4.357347382041
 20
5.706086400339
 10
4.362516543418
 20
5.705267685608
 10
4.367742966581
 20
5.704993780376
 10
4.372969389745
 20
5.705267685608
 10
4.378138551122
 20
5.706086400339
 10
4.3831938163
 20
5.707440954561
 10
4.388079798735
 20
5.709316507494
 10
4.392742966581
 20
5.711692510187
 10
4.397132229196
 20
5.714542930657
 10
4.401199496899
 20
5.717836539102
 10
4.404900207855
 20
5.721537250058
 10
4.4081938163
 20
5.725604517762
 10
4.411044236771
 20
5.729993780376
 10
4.413420239464
 20
5.734656948222
 10
4.415295792396
 20
5.739542930657
 10
4.416650346618
 20
5.744598195835
 10
4.41746906135
 20
5.749767357213
 10
4.417742966581
 20
5.754993780376
 10
4.41746906135
 20
5.76022020354
 10
4.416650346618
 20
5.765389364917
 10
4.415295792396
 20
5.770444630095
 10
4.413420239464
 20
5.77533061253
  0
DIMENSION
  5
5A
100
AcDbEntity
  8
0
  6
Continuous
 62
           7
100
AcDbDimension
  2
*D0
 10
5.914584385952
 20
3.157463146085
 30
0.0
 11
7.655994694323
 21
3.56636457261
 31
0.0
 70
           3
 71
           5
 72
           1
 41
1.0
 42
0.0
  1
<%%c0.275>
  3
STANDARD
100
AcDbDiametricDimension
 15
6.18540651803
 25
3.205216394943
 35
0.0
 40
1.0
1001
TCAD
1000
TCW_CUSTOM_DATA
1002
{
1000
#$AUX@_ToolInfo Properties
1070
           8
1000
Insert^JDimension^JDiameter@Dimension Diameter
1002
}
1001
ACAD
1000
DSTYLE
1002
{
1070
         271
1070
           3
1070
           3
1000
<>in
1070
          45
1040
0.001
1070
         272
1070
           3
1070
         172
1070
           0
1002
}
  0
LINE
  5
5B
100
AcDbEntity
  8
0
370
           0
  6
Continuous
 62
           7
100
AcDbLine
 10
5.0
 20
7.5302
 30
0.0
 11
5.0
 21
5.0
 31
0.0
1001
TCAD
1000
TCW_CUSTOM_DATA
1002
{
1000
#$AUX@_ToolInfo Properties
1070
           8
1000
Insert^JLine^JSingle@Line Single
1002
}
  0
CIRCLE
  5
5C
100
AcDbEntity
  8
0
370
           0
  6
HIDDEN
 62
           7
 48
0.009999999776
100
AcDbCircle
 10
5.0
 20
5.0
 30
0.0
 40
0.8
1001
TCAD
1000
TCW_CUSTOM_DATA
1002
{
1000
#$AUX@_ToolInfo Properties
1070
           8
1000
Insert^JCircle^JCenterAndPoint@Circle CenterAndPoint
1002
}
  0
CIRCLE
  5
5D
100
AcDbEntity
  8
0
370
           0
  6
Continuous
 62
           7
100
AcDbCircle
 10
5.0
 20
5.0
 30
0.0
 40
2.7
1001
TCAD
1000
TCW_CUSTOM_DATA
1002
{
1000
#$AUX@_ToolInfo Properties
1070
           8
1000
Insert^JCircle^JCenterAndPoint@Circle CenterAndPoint
1002
}
  0
CIRCLE
  5
5E
100
AcDbEntity
  8
0
370
           0
  6
HIDDEN
 62
           7
 48
0.009999999776
100
AcDbCircle
 10
5.0
 20
5.0
 30
0.0
 40
2.1
1001
TCAD
1000
TCW_CUSTOM_DATA
1002
{
1000
#$AUX@_ToolInfo Properties
1070
           8
1000
Insert^JCircle^JCenterAndPoint@Circle CenterAndPoint
1002
}
  0
LWPOLYLINE
  5
5F
102
{ACAD_REACTORS
330
64
102
}
100
AcDbEntity
  8
0
370
           0
  6
Continuous
 62
           7
100
AcDbPolyline
 90
       60
 70
           1
 10
4.069085304038
 20
6.887407280273
 10
4.061246647744
 20
6.899477752463
 10
4.052189224521
 20
6.910662738648
 10
4.042012269392
 20
6.920839693776
 10
4.030827283208
 20
6.929897117
 10
4.018756811018
 20
6.937735773294
 10
4.005933099441
 20
6.944269780699
 10
3.992496647744
 20
6.949427551264
 10
3.978594668505
 20
6.953152575374
 10
3.964379474717
 20
6.955404040886
 10
3.950006811018
 20
6.956157280273
 10
3.935634147318
 20
6.955404040886
 10
3.92141895353
 20
6.953152575374
 10
3.907516974291
 20
6.949427551264
 10
3.894080522595
 20
6.944269780699
 10
3.881256811018
 20
6.937735773294
 10
3.869186338827
 20
6.929897117
 10
3.858001352643
 20
6.920839693776
 10
3.847824397515
 20
6.910662738648
 10
3.838766974291
 20
6.899477752463
 10
3.830928317997
 20
6.887407280273
 10
3.824394310592
 20
6.874583568696
 10
3.819236540027
 20
6.861147117
 10
3.815511515917
 20
6.847245137761
 10
3.813260050405
 20
6.833029943972
 10
3.812506811018
 20
6.818657280273
 10
3.813260050405
 20
6.804284616574
 10
3.815511515917
 20
6.790069422786
 10
3.819236540027
 20
6.776167443547
 10
3.824394310592
 20
6.76273099185
 10
3.830928317997
 20
6.749907280273
 10
3.838766974291
 20
6.737836808083
 10
3.847824397515
 20
6.726651821899
 10
3.858001352643
 20
6.71647486677
 10
3.869186338827
 20
6.707417443547
 10
3.881256811018
 20
6.699578787253
 10
3.894080522595
 20
6.693044779847
 10
3.907516974291
 20
6.687887009283
 10
3.92141895353
 20
6.684161985172
 10
3.935634147318
 20
6.68191051966
 10
3.950006811018
 20
6.681157280273
 10
3.964379474717
 20
6.68191051966
 10
3.978594668505
 20
6.684161985172
 10
3.992496647744
 20
6.687887009283
 10
4.005933099441
 20
6.693044779847
 10
4.018756811018
 20
6.699578787253
 10
4.030827283208
 20
6.707417443547
 10
4.042012269392
 20
6.71647486677
 10
4.052189224521
 20
6.726651821899
 10
4.061246647744
 20
6.737836808083
 10
4.069085304038
 20
6.749907280273
 10
4.075619311444
 20
6.76273099185
 10
4.080777082008
 20
6.776167443547
 10
4.084502106119
 20
6.790069422786
 10
4.086753571631
 20
6.804284616574
 10
4.087506811018
 20
6.818657280273
 10
4.086753571631
 20
6.833029943972
 10
4.084502106119
 20
6.847245137761
 10
4.080777082008
 20
6.861147117
 10
4.075619311444
 20
6.874583568696
  0
LWPOLYLINE
  5
60
102
{ACAD_REACTORS
330
64
102
}
100
AcDbEntity
  8
0
370
           0
  6
Continuous
 62
           7
100
AcDbPolyline
 90
       60
 70
           1
 10
4.05553239985
 20
7.075881598917
 10
4.05268197938
 20
7.080270861531
 10
4.049388370935
 20
7.084338129234
 10
4.045687659979
 20
7.08803884019
 10
4.041620392276
 20
7.091332448635
 10
4.037231129661
 20
7.094182869106
 10
4.032567961815
 20
7.096558871799
 10
4.02768197938
 20
7.098434424731
 10
4.022626714202
 20
7.099788978953
 10
4.017457552824
 20
7.100607693685
 10
4.012231129661
 20
7.100881598917
 10
4.007004706498
 20
7.100607693685
 10
4.00183554512
 20
7.099788978953
 10
3.996780279942
 20
7.098434424731
 10
3.991894297507
 20
7.096558871799
 10
3.987231129661
 20
7.094182869106
 10
3.982841867046
 20
7.091332448635
 10
3.978774599343
 20
7.08803884019
 10
3.975073888387
 20
7.084338129234
 10
3.971780279942
 20
7.080270861531
 10
3.968929859472
 20
7.075881598917
 10
3.966553856779
 20
7.07121843107
 10
3.964678303846
 20
7.066332448635
 10
3.963323749624
 20
7.061277183457
 10
3.962505034893
 20
7.05610802208
 10
3.962231129661
 20
7.050881598917
 10
3.962505034893
 20
7.045655175753
 10
3.963323749624
 20
7.040486014376
 10
3.964678303846
 20
7.035430749198
 10
3.966553856779
 20
7.030544766763
 10
3.968929859472
 20
7.025881598917
 10
3.971780279942
 20
7.021492336302
 10
3.975073888387
 20
7.017425068599
 10
3.978774599343
 20
7.013724357643
 10
3.982841867046
 20
7.010430749198
 10
3.987231129661
 20
7.007580328727
 10
3.991894297507
 20
7.005204326034
 10
3.996780279942
 20
7.003328773102
 10
4.00183554512
 20
7.00197421888
 10
4.007004706498
 20
7.001155504148
 10
4.012231129661
 20
7.000881598917
 10
4.017457552824
 20
7.001155504148
 10
4.022626714202
 20
7.00197421888
 10
4.02768197938
 20
7.003328773102
 10
4.032567961815
 20
7.005204326034
 10
4.037231129661
 20
7.007580328727
 10
4.041620392276
 20
7.010430749198
 10
4.045687659979
 20
7.013724357643
 10
4.049388370935
 20
7.017425068599
 10
4.05268197938
 20
7.021492336302
 10
4.05553239985
 20
7.025881598917
 10
4.057908402543
 20
7.030544766763
 10
4.059783955476
 20
7.035430749198
 10
4.061138509698
 20
7.040486014376
 10
4.061957224429
 20
7.045655175753
 10
4.062231129661
 20
7.050881598917
 10
4.061957224429
 20
7.05610802208
 10
4.061138509698
 20
7.061277183457
 10
4.059783955476
 20
7.066332448635
 10
4.057908402543
 20
7.07121843107
  0
LWPOLYLINE
  5
61
102
{ACAD_REACTORS
330
64
102
}
100
AcDbEntity
  8
0
370
           0
  6
Continuous
 62
           7
100
AcDbPolyline
 90
       60
 70
           1
 10
4.22553239985
 20
6.78143296163
 10
4.22268197938
 20
6.785822224244
 10
4.219388370935
 20
6.789889491948
 10
4.215687659979
 20
6.793590202904
 10
4.211620392276
 20
6.796883811349
 10
4.207231129661
 20
6.799734231819
 10
4.202567961815
 20
6.802110234512
 10
4.19768197938
 20
6.803985787445
 10
4.192626714202
 20
6.805340341667
 10
4.187457552824
 20
6.806159056398
 10
4.182231129661
 20
6.80643296163
 10
4.177004706498
 20
6.806159056398
 10
4.17183554512
 20
6.805340341667
 10
4.166780279942
 20
6.803985787445
 10
4.161894297507
 20
6.802110234512
 10
4.157231129661
 20
6.799734231819
 10
4.152841867046
 20
6.796883811349
 10
4.148774599343
 20
6.793590202904
 10
4.145073888387
 20
6.789889491948
 10
4.141780279942
 20
6.785822224244
 10
4.138929859472
 20
6.78143296163
 10
4.136553856779
 20
6.776769793784
 10
4.134678303846
 20
6.771883811349
 10
4.133323749624
 20
6.766828546171
 10
4.132505034893
 20
6.761659384793
 10
4.132231129661
 20
6.75643296163
 10
4.132505034893
 20
6.751206538466
 10
4.133323749624
 20
6.746037377089
 10
4.134678303846
 20
6.740982111911
 10
4.136553856779
 20
6.736096129476
 10
4.138929859472
 20
6.73143296163
 10
4.141780279942
 20
6.727043699015
 10
4.145073888387
 20
6.722976431312
 10
4.148774599343
 20
6.719275720356
 10
4.152841867046
 20
6.715982111911
 10
4.157231129661
 20
6.713131691441
 10
4.161894297507
 20
6.710755688748
 10
4.166780279942
 20
6.708880135815
 10
4.17183554512
 20
6.707525581593
 10
4.177004706498
 20
6.706706866861
 10
4.182231129661
 20
6.70643296163
 10
4.187457552824
 20
6.706706866861
 10
4.192626714202
 20
6.707525581593
 10
4.19768197938
 20
6.708880135815
 10
4.202567961815
 20
6.710755688748
 10
4.207231129661
 20
6.713131691441
 10
4.211620392276
 20
6.715982111911
 10
4.215687659979
 20
6.719275720356
 10
4.219388370935
 20
6.722976431312
 10
4.22268197938
 20
6.727043699015
 10
4.22553239985
 20
6.73143296163
 10
4.227908402543
 20
6.736096129476
 10
4.229783955476
 20
6.740982111911
 10
4.231138509698
 20
6.746037377089
 10
4.231957224429
 20
6.751206538466
 10
4.232231129661
 20
6.75643296163
 10
4.231957224429
 20
6.761659384793
 10
4.231138509698
 20
6.766828546171
 10
4.229783955476
 20
6.771883811349
 10
4.227908402543
 20
6.776769793784
  0
LWPOLYLINE
  5
62
102
{ACAD_REACTORS
330
64
102
}
100
AcDbEntity
  8
0
370
           0
  6
Continuous
 62
           7
100
AcDbPolyline
 90
       60
 70
           1
 10
3.931083762564
 20
6.61143296163
 10
3.928233342093
 20
6.615822224244
 10
3.924939733648
 20
6.619889491948
 10
3.921239022692
 20
6.623590202904
 10
3.917171754989
 20
6.626883811349
 10
3.912782492374
 20
6.629734231819
 10
3.908119324528
 20
6.632110234512
 10
3.903233342093
 20
6.633985787445
 10
3.898178076915
 20
6.635340341667
 10
3.893008915538
 20
6.636159056398
 10
3.887782492374
 20
6.63643296163
 10
3.882556069211
 20
6.636159056398
 10
3.877386907833
 20
6.635340341667
 10
3.872331642656
 20
6.633985787445
 10
3.867445660221
 20
6.632110234512
 10
3.862782492374
 20
6.629734231819
 10
3.85839322976
 20
6.626883811349
 10
3.854325962056
 20
6.623590202904
 10
3.8506252511
 20
6.619889491948
 10
3.847331642656
 20
6.615822224244
 10
3.844481222185
 20
6.61143296163
 10
3.842105219492
 20
6.606769793784
 10
3.84022966656
 20
6.601883811349
 10
3.838875112338
 20
6.596828546171
 10
3.838056397606
 20
6.591659384793
 10
3.837782492374
 20
6.58643296163
 10
3.838056397606
 20
6.581206538466
 10
3.838875112338
 20
6.576037377089
 10
3.84022966656
 20
6.570982111911
 10
3.842105219492
 20
6.566096129476
 10
3.844481222185
 20
6.56143296163
 10
3.847331642656
 20
6.557043699015
 10
3.8506252511
 20
6.552976431312
 10
3.854325962056
 20
6.549275720356
 10
3.85839322976
 20
6.545982111911
 10
3.862782492374
 20
6.543131691441
 10
3.867445660221
 20
6.540755688748
 10
3.872331642656
 20
6.538880135815
 10
3.877386907833
 20
6.537525581593
 10
3.882556069211
 20
6.536706866861
 10
3.887782492374
 20
6.53643296163
 10
3.893008915538
 20
6.536706866861
 10
3.898178076915
 20
6.537525581593
 10
3.903233342093
 20
6.538880135815
 10
3.908119324528
 20
6.540755688748
 10
3.912782492374
 20
6.543131691441
 10
3.917171754989
 20
6.545982111911
 10
3.921239022692
 20
6.549275720356
 10
3.924939733648
 20
6.552976431312
 10
3.928233342093
 20
6.557043699015
 10
3.931083762564
 20
6.56143296163
 10
3.933459765256
 20
6.566096129476
 10
3.935335318189
 20
6.570982111911
 10
3.936689872411
 20
6.576037377089
 10
3.937508587143
 20
6.581206538466
 10
3.937782492374
 20
6.58643296163
 10
3.937508587143
 20
6.591659384793
 10
3.936689872411
 20
6.596828546171
 10
3.935335318189
 20
6.601883811349
 10
3.933459765256
 20
6.606769793784
  0
LWPOLYLINE
  5
63
102
{ACAD_REACTORS
330
64
102
}
100
AcDbEntity
  8
0
370
           0
  6
Continuous
 62
           7
100
AcDbPolyline
 90
       60
 70
           1
 10
3.761083762564
 20
6.905881598917
 10
3.758233342093
 20
6.910270861531
 10
3.754939733648
 20
6.914338129234
 10
3.751239022692
 20
6.91803884019
 10
3.747171754989
 20
6.921332448635
 10
3.742782492374
 20
6.924182869106
 10
3.738119324528
 20
6.926558871799
 10
3.733233342093
 20
6.928434424731
 10
3.728178076915
 20
6.929788978953
 10
3.723008915538
 20
6.930607693685
 10
3.717782492374
 20
6.930881598917
 10
3.712556069211
 20
6.930607693685
 10
3.707386907833
 20
6.929788978953
 10
3.702331642656
 20
6.928434424731
 10
3.697445660221
 20
6.926558871799
 10
3.692782492374
 20
6.924182869106
 10
3.68839322976
 20
6.921332448635
 10
3.684325962056
 20
6.91803884019
 10
3.6806252511
 20
6.914338129234
 10
3.677331642656
 20
6.910270861531
 10
3.674481222185
 20
6.905881598917
 10
3.672105219492
 20
6.90121843107
 10
3.67022966656
 20
6.896332448635
 10
3.668875112338
 20
6.891277183457
 10
3.668056397606
 20
6.88610802208
 10
3.667782492374
 20
6.880881598917
 10
3.668056397606
 20
6.875655175753
 10
3.668875112338
 20
6.870486014376
 10
3.67022966656
 20
6.865430749198
 10
3.672105219492
 20
6.860544766763
 10
3.674481222185
 20
6.855881598917
 10
3.677331642656
 20
6.851492336302
 10
3.6806252511
 20
6.847425068599
 10
3.684325962056
 20
6.843724357643
 10
3.68839322976
 20
6.840430749198
 10
3.692782492374
 20
6.837580328727
 10
3.697445660221
 20
6.835204326034
 10
3.702331642656
 20
6.833328773102
 10
3.707386907833
 20
6.83197421888
 10
3.712556069211
 20
6.831155504148
 10
3.717782492374
 20
6.830881598917
 10
3.723008915538
 20
6.831155504148
 10
3.728178076915
 20
6.83197421888
 10
3.733233342093
 20
6.833328773102
 10
3.738119324528
 20
6.835204326034
 10
3.742782492374
 20
6.837580328727
 10
3.747171754989
 20
6.840430749198
 10
3.751239022692
 20
6.843724357643
 10
3.754939733648
 20
6.847425068599
 10
3.758233342093
 20
6.851492336302
 10
3.761083762564
 20
6.855881598917
 10
3.763459765256
 20
6.860544766763
 10
3.765335318189
 20
6.865430749198
 10
3.766689872411
 20
6.870486014376
 10
3.767508587143
 20
6.875655175753
 10
3.767782492374
 20
6.880881598917
 10
3.767508587143
 20
6.88610802208
 10
3.766689872411
 20
6.891277183457
 10
3.765335318189
 20
6.896332448635
 10
3.763459765256
 20
6.90121843107
  0
LWPOLYLINE
  5
65
100
AcDbEntity
  8
0
370
           0
  6
Continuous
 62
           7
100
AcDbPolyline
 90
       60
 70
           1
 10
3.300421212747
 20
4.018756811018
 10
3.292582556453
 20
4.030827283208
 10
3.28352513323
 20
4.042012269392
 10
3.273348178101
 20
4.052189224521
 10
3.262163191917
 20
4.061246647744
 10
3.250092719727
 20
4.069085304038
 10
3.23726900815
 20
4.075619311444
 10
3.223832556453
 20
4.080777082008
 10
3.209930577214
 20
4.084502106119
 10
3.195715383426
 20
4.086753571631
 10
3.181342719727
 20
4.087506811018
 10
3.166970056028
 20
4.086753571631
 10
3.152754862239
 20
4.084502106119
 10
3.138852883
 20
4.080777082008
 10
3.125416431304
 20
4.075619311444
 10
3.112592719727
 20
4.069085304038
 10
3.100522247537
 20
4.061246647744
 10
3.089337261352
 20
4.052189224521
 10
3.079160306224
 20
4.042012269392
 10
3.070102883
 20
4.030827283208
 10
3.062264226706
 20
4.018756811018
 10
3.055730219301
 20
4.005933099441
 10
3.050572448736
 20
3.992496647744
 10
3.046847424626
 20
3.978594668505
 10
3.044595959114
 20
3.964379474717
 10
3.043842719727
 20
3.950006811018
 10
3.044595959114
 20
3.935634147318
 10
3.046847424626
 20
3.92141895353
 10
3.050572448736
 20
3.907516974291
 10
3.055730219301
 20
3.894080522595
 10
3.062264226706
 20
3.881256811018
 10
3.070102883
 20
3.869186338827
 10
3.079160306224
 20
3.858001352643
 10
3.089337261352
 20
3.847824397515
 10
3.100522247537
 20
3.838766974291
 10
3.112592719727
 20
3.830928317997
 10
3.125416431304
 20
3.824394310592
 10
3.138852883
 20
3.819236540027
 10
3.152754862239
 20
3.815511515917
 10
3.166970056028
 20
3.813260050405
 10
3.181342719727
 20
3.812506811018
 10
3.195715383426
 20
3.813260050405
 10
3.209930577214
 20
3.815511515917
 10
3.223832556453
 20
3.819236540027
 10
3.23726900815
 20
3.824394310592
 10
3.250092719727
 20
3.830928317997
 10
3.262163191917
 20
3.838766974291
 10
3.273348178101
 20
3.847824397515
 10
3.28352513323
 20
3.858001352643
 10
3.292582556453
 20
3.869186338827
 10
3.300421212747
 20
3.881256811018
 10
3.306955220153
 20
3.894080522595
 10
3.312112990717
 20
3.907516974291
 10
3.315838014828
 20
3.92141895353
 10
3.31808948034
 20
3.935634147318
 10
3.318842719727
 20
3.950006811018
 10
3.31808948034
 20
3.964379474717
 10
3.315838014828
 20
3.978594668505
 10
3.312112990717
 20
3.992496647744
 10
3.306955220153
 20
4.005933099441
  0
LWPOLYLINE
  5
66
100
AcDbEntity
  8
0
370
           0
  6
Continuous
 62
           7
100
AcDbPolyline
 90
       60
 70
           1
 10
3.286868308559
 20
4.207231129661
 10
3.284017888089
 20
4.211620392276
 10
3.280724279644
 20
4.215687659979
 10
3.277023568688
 20
4.219388370935
 10
3.272956300985
 20
4.22268197938
 10
3.26856703837
 20
4.22553239985
 10
3.263903870524
 20
4.227908402543
 10
3.259017888089
 20
4.229783955476
 10
3.253962622911
 20
4.231138509698
 10
3.248793461534
 20
4.231957224429
 10
3.24356703837
 20
4.232231129661
 10
3.238340615207
 20
4.231957224429
 10
3.233171453829
 20
4.231138509698
 10
3.228116188651
 20
4.229783955476
 10
3.223230206216
 20
4.227908402543
 10
3.21856703837
 20
4.22553239985
 10
3.214177775756
 20
4.22268197938
 10
3.210110508052
 20
4.219388370935
 10
3.206409797096
 20
4.215687659979
 10
3.203116188651
 20
4.211620392276
 10
3.200265768181
 20
4.207231129661
 10
3.197889765488
 20
4.202567961815
 10
3.196014212555
 20
4.19768197938
 10
3.194659658333
 20
4.192626714202
 10
3.193840943602
 20
4.187457552824
 10
3.19356703837
 20
4.182231129661
 10
3.193840943602
 20
4.177004706498
 10
3.194659658333
 20
4.17183554512
 10
3.196014212555
 20
4.166780279942
 10
3.197889765488
 20
4.161894297507
 10
3.200265768181
 20
4.157231129661
 10
3.203116188651
 20
4.152841867046
 10
3.206409797096
 20
4.148774599343
 10
3.210110508052
 20
4.145073888387
 10
3.214177775756
 20
4.141780279942
 10
3.21856703837
 20
4.138929859472
 10
3.223230206216
 20
4.136553856779
 10
3.228116188651
 20
4.134678303846
 10
3.233171453829
 20
4.133323749624
 10
3.238340615207
 20
4.132505034893
 10
3.24356703837
 20
4.132231129661
 10
3.248793461534
 20
4.132505034893
 10
3.253962622911
 20
4.133323749624
 10
3.259017888089
 20
4.134678303846
 10
3.263903870524
 20
4.136553856779
 10
3.26856703837
 20
4.138929859472
 10
3.272956300985
 20
4.141780279942
 10
3.277023568688
 20
4.145073888387
 10
3.280724279644
 20
4.148774599343
 10
3.284017888089
 20
4.152841867046
 10
3.286868308559
 20
4.157231129661
 10
3.289244311252
 20
4.161894297507
 10
3.291119864185
 20
4.166780279942
 10
3.292474418407
 20
4.17183554512
 10
3.293293133139
 20
4.177004706498
 10
3.29356703837
 20
4.182231129661
 10
3.293293133139
 20
4.187457552824
 10
3.292474418407
 20
4.192626714202
 10
3.291119864185
 20
4.19768197938
 10
3.289244311252
 20
4.202567961815
  0
LWPOLYLINE
  5
67
100
AcDbEntity
  8
0
370
           0
  6
Continuous
 62
           7
100
AcDbPolyline
 90
       60
 70
           1
 10
3.456868308559
 20
3.912782492374
 10
3.454017888089
 20
3.917171754989
 10
3.450724279644
 20
3.921239022692
 10
3.447023568688
 20
3.924939733648
 10
3.442956300985
 20
3.928233342093
 10
3.43856703837
 20
3.931083762564
 10
3.433903870524
 20
3.933459765256
 10
3.429017888089
 20
3.935335318189
 10
3.423962622911
 20
3.936689872411
 10
3.418793461534
 20
3.937508587143
 10
3.41356703837
 20
3.937782492374
 10
3.408340615207
 20
3.937508587143
 10
3.403171453829
 20
3.936689872411
 10
3.398116188651
 20
3.935335318189
 10
3.393230206216
 20
3.933459765256
 10
3.38856703837
 20
3.931083762564
 10
3.384177775756
 20
3.928233342093
 10
3.380110508052
 20
3.924939733648
 10
3.376409797096
 20
3.921239022692
 10
3.373116188651
 20
3.917171754989
 10
3.370265768181
 20
3.912782492374
 10
3.367889765488
 20
3.908119324528
 10
3.366014212555
 20
3.903233342093
 10
3.364659658333
 20
3.898178076915
 10
3.363840943602
 20
3.893008915538
 10
3.36356703837
 20
3.887782492374
 10
3.363840943602
 20
3.882556069211
 10
3.364659658333
 20
3.877386907833
 10
3.366014212555
 20
3.872331642656
 10
3.367889765488
 20
3.867445660221
 10
3.370265768181
 20
3.862782492374
 10
3.373116188651
 20
3.85839322976
 10
3.376409797096
 20
3.854325962056
 10
3.380110508052
 20
3.8506252511
 10
3.384177775756
 20
3.847331642656
 10
3.38856703837
 20
3.844481222185
 10
3.393230206216
 20
3.842105219492
 10
3.398116188651
 20
3.84022966656
 10
3.403171453829
 20
3.838875112338
 10
3.408340615207
 20
3.838056397606
 10
3.41356703837
 20
3.837782492374
 10
3.418793461534
 20
3.838056397606
 10
3.423962622911
 20
3.838875112338
 10
3.429017888089
 20
3.84022966656
 10
3.433903870524
 20
3.842105219492
 10
3.43856703837
 20
3.844481222185
 10
3.442956300985
 20
3.847331642656
 10
3.447023568688
 20
3.8506252511
 10
3.450724279644
 20
3.854325962056
 10
3.454017888089
 20
3.85839322976
 10
3.456868308559
 20
3.862782492374
 10
3.459244311252
 20
3.867445660221
 10
3.461119864185
 20
3.872331642656
 10
3.462474418407
 20
3.877386907833
 10
3.463293133139
 20
3.882556069211
 10
3.46356703837
 20
3.887782492374
 10
3.463293133139
 20
3.893008915538
 10
3.462474418407
 20
3.898178076915
 10
3.461119864185
 20
3.903233342093
 10
3.459244311252
 20
3.908119324528
  0
LWPOLYLINE
  5
68
100
AcDbEntity
  8
0
370
           0
  6
Continuous
 62
           7
100
AcDbPolyline
 90
       60
 70
           1
 10
3.162419671273
 20
3.742782492374
 10
3.159569250802
 20
3.747171754989
 10
3.156275642357
 20
3.751239022692
 10
3.152574931401
 20
3.754939733648
 10
3.148507663698
 20
3.758233342093
 10
3.144118401083
 20
3.761083762564
 10
3.139455233237
 20
3.763459765256
 10
3.134569250802
 20
3.765335318189
 10
3.129513985624
 20
3.766689872411
 10
3.124344824247
 20
3.767508587143
 10
3.119118401083
 20
3.767782492374
 10
3.11389197792
 20
3.767508587143
 10
3.108722816543
 20
3.766689872411
 10
3.103667551365
 20
3.765335318189
 10
3.09878156893
 20
3.763459765256
 10
3.094118401083
 20
3.761083762564
 10
3.089729138469
 20
3.758233342093
 10
3.085661870766
 20
3.754939733648
 10
3.08196115981
 20
3.751239022692
 10
3.078667551365
 20
3.747171754989
 10
3.075817130894
 20
3.742782492374
 10
3.073441128201
 20
3.738119324528
 10
3.071565575269
 20
3.733233342093
 10
3.070211021047
 20
3.728178076915
 10
3.069392306315
 20
3.723008915538
 10
3.069118401083
 20
3.717782492374
 10
3.069392306315
 20
3.712556069211
 10
3.070211021047
 20
3.707386907833
 10
3.071565575269
 20
3.702331642656
 10
3.073441128201
 20
3.697445660221
 10
3.075817130894
 20
3.692782492374
 10
3.078667551365
 20
3.68839322976
 10
3.08196115981
 20
3.684325962056
 10
3.085661870766
 20
3.6806252511
 10
3.089729138469
 20
3.677331642656
 10
3.094118401083
 20
3.674481222185
 10
3.09878156893
 20
3.672105219492
 10
3.103667551365
 20
3.67022966656
 10
3.108722816543
 20
3.668875112338
 10
3.11389197792
 20
3.668056397606
 10
3.119118401083
 20
3.667782492374
 10
3.124344824247
 20
3.668056397606
 10
3.129513985624
 20
3.668875112338
 10
3.134569250802
 20
3.67022966656
 10
3.139455233237
 20
3.672105219492
 10
3.144118401083
 20
3.674481222185
 10
3.148507663698
 20
3.677331642656
 10
3.152574931401
 20
3.6806252511
 10
3.156275642357
 20
3.684325962056
 10
3.159569250802
 20
3.68839322976
 10
3.162419671273
 20
3.692782492374
 10
3.164795673966
 20
3.697445660221
 10
3.166671226898
 20
3.702331642656
 10
3.16802578112
 20
3.707386907833
 10
3.168844495852
 20
3.712556069211
 10
3.169118401083
 20
3.717782492374
 10
3.168844495852
 20
3.723008915538
 10
3.16802578112
 20
3.728178076915
 10
3.166671226898
 20
3.733233342093
 10
3.164795673966
 20
3.738119324528
  0
LWPOLYLINE
  5
69
100
AcDbEntity
  8
0
370
           0
  6
Continuous
 62
           7
100
AcDbPolyline
 90
       60
 70
           1
 10
2.992419671273
 20
4.037231129661
 10
2.989569250802
 20
4.041620392276
 10
2.986275642357
 20
4.045687659979
 10
2.982574931401
 20
4.049388370935
 10
2.978507663698
 20
4.05268197938
 10
2.974118401083
 20
4.05553239985
 10
2.969455233237
 20
4.057908402543
 10
2.964569250802
 20
4.059783955476
 10
2.959513985624
 20
4.061138509698
 10
2.954344824247
 20
4.061957224429
 10
2.949118401083
 20
4.062231129661
 10
2.94389197792
 20
4.061957224429
 10
2.938722816543
 20
4.061138509698
 10
2.933667551365
 20
4.059783955476
 10
2.92878156893
 20
4.057908402543
 10
2.924118401083
 20
4.05553239985
 10
2.919729138469
 20
4.05268197938
 10
2.915661870766
 20
4.049388370935
 10
2.91196115981
 20
4.045687659979
 10
2.908667551365
 20
4.041620392276
 10
2.905817130894
 20
4.037231129661
 10
2.903441128201
 20
4.032567961815
 10
2.901565575269
 20
4.02768197938
 10
2.900211021047
 20
4.022626714202
 10
2.899392306315
 20
4.017457552824
 10
2.899118401083
 20
4.012231129661
 10
2.899392306315
 20
4.007004706498
 10
2.900211021047
 20
4.00183554512
 10
2.901565575269
 20
3.996780279942
 10
2.903441128201
 20
3.991894297507
 10
2.905817130894
 20
3.987231129661
 10
2.908667551365
 20
3.982841867046
 10
2.91196115981
 20
3.978774599343
 10
2.915661870766
 20
3.975073888387
 10
2.919729138469
 20
3.971780279942
 10
2.924118401083
 20
3.968929859472
 10
2.92878156893
 20
3.966553856779
 10
2.933667551365
 20
3.964678303846
 10
2.938722816543
 20
3.963323749624
 10
2.94389197792
 20
3.962505034893
 10
2.949118401083
 20
3.962231129661
 10
2.954344824247
 20
3.962505034893
 10
2.959513985624
 20
3.963323749624
 10
2.964569250802
 20
3.964678303846
 10
2.969455233237
 20
3.966553856779
 10
2.974118401083
 20
3.968929859472
 10
2.978507663698
 20
3.971780279942
 10
2.982574931401
 20
3.975073888387
 10
2.986275642357
 20
3.978774599343
 10
2.989569250802
 20
3.982841867046
 10
2.992419671273
 20
3.987231129661
 10
2.994795673966
 20
3.991894297507
 10
2.996671226898
 20
3.996780279942
 10
2.99802578112
 20
4.00183554512
 10
2.998844495852
 20
4.007004706498
 10
2.999118401083
 20
4.012231129661
 10
2.998844495852
 20
4.017457552824
 10
2.99802578112
 20
4.022626714202
 10
2.996671226898
 20
4.02768197938
 10
2.994795673966
 20
4.032567961815
  0
LWPOLYLINE
  5
6A
100
AcDbEntity
  8
0
370
           0
  6
Continuous
 62
           7
100
AcDbPolyline
 90
       60
 70
           1
 10
6.325521040824
 20
3.144115451871
 10
6.322670620353
 20
3.148504714485
 10
6.319377011908
 20
3.152571982189
 10
6.315676300952
 20
3.156272693145
 10
6.311609033249
 20
3.159566301589
 10
6.307219770635
 20
3.16241672206
 10
6.302556602788
 20
3.164792724753
 10
6.297670620353
 20
3.166668277686
 10
6.292615355175
 20
3.168022831907
 10
6.287446193798
 20
3.168841546639
 10
6.282219770635
 20
3.169115451871
 10
6.276993347471
 20
3.168841546639
 10
6.271824186094
 20
3.168022831907
 10
6.266768920916
 20
3.166668277686
 10
6.261882938481
 20
3.164792724753
 10
6.257219770635
 20
3.16241672206
 10
6.25283050802
 20
3.15956630159
 10
6.248763240317
 20
3.156272693145
 10
6.245062529361
 20
3.152571982189
 10
6.241768920916
 20
3.148504714485
 10
6.238918500445
 20
3.144115451871
 10
6.236542497752
 20
3.139452284025
 10
6.23466694482
 20
3.13456630159
 10
6.233312390598
 20
3.129511036412
 10
6.232493675866
 20
3.124341875034
 10
6.232219770635
 20
3.119115451871
 10
6.232493675866
 20
3.113889028707
 10
6.233312390598
 20
3.10871986733
 10
6.23466694482
 20
3.103664602152
 10
6.236542497752
 20
3.098778619717
 10
6.238918500445
 20
3.094115451871
 10
6.241768920916
 20
3.089726189256
 10
6.245062529361
 20
3.085658921553
 10
6.248763240317
 20
3.081958210597
 10
6.25283050802
 20
3.078664602152
 10
6.257219770635
 20
3.075814181682
 10
6.261882938481
 20
3.073438178989
 10
6.266768920916
 20
3.071562626056
 10
6.271824186094
 20
3.070208071834
 10
6.276993347471
 20
3.069389357102
 10
6.282219770635
 20
3.069115451871
 10
6.287446193798
 20
3.069389357102
 10
6.292615355175
 20
3.070208071834
 10
6.297670620353
 20
3.071562626056
 10
6.302556602788
 20
3.073438178989
 10
6.307219770635
 20
3.075814181682
 10
6.311609033249
 20
3.078664602152
 10
6.315676300952
 20
3.081958210597
 10
6.319377011908
 20
3.085658921553
 10
6.322670620353
 20
3.089726189256
 10
6.325521040824
 20
3.094115451871
 10
6.327897043517
 20
3.098778619717
 10
6.329772596449
 20
3.103664602152
 10
6.331127150671
 20
3.10871986733
 10
6.331945865403
 20
3.113889028707
 10
6.332219770635
 20
3.119115451871
 10
6.331945865403
 20
3.124341875034
 10
6.331127150671
 20
3.129511036412
 10
6.329772596449
 20
3.13456630159
 10
6.327897043517
 20
3.139452284025
  0
LWPOLYLINE
  5
6B
100
AcDbEntity
  8
0
370
           0
  6
Continuous
 62
           7
100
AcDbPolyline
 90
       60
 70
           1
 10
6.031072403537
 20
2.974115451871
 10
6.028221983067
 20
2.978504714485
 10
6.024928374622
 20
2.982571982189
 10
6.021227663666
 20
2.986272693145
 10
6.017160395962
 20
2.989566301589
 10
6.012771133348
 20
2.99241672206
 10
6.008107965502
 20
2.994792724753
 10
6.003221983067
 20
2.996668277686
 10
5.998166717889
 20
2.998022831907
 10
5.992997556511
 20
2.998841546639
 10
5.987771133348
 20
2.999115451871
 10
5.982544710184
 20
2.998841546639
 10
5.977375548807
 20
2.998022831907
 10
5.972320283629
 20
2.996668277686
 10
5.967434301194
 20
2.994792724753
 10
5.962771133348
 20
2.99241672206
 10
5.958381870733
 20
2.98956630159
 10
5.95431460303
 20
2.986272693145
 10
5.950613892074
 20
2.982571982189
 10
5.947320283629
 20
2.978504714485
 10
5.944469863159
 20
2.974115451871
 10
5.942093860466
 20
2.969452284025
 10
5.940218307533
 20
2.964566301589
 10
5.938863753311
 20
2.959511036412
 10
5.938045038579
 20
2.954341875034
 10
5.937771133348
 20
2.949115451871
 10
5.938045038579
 20
2.943889028707
 10
5.938863753311
 20
2.93871986733
 10
5.940218307533
 20
2.933664602152
 10
5.942093860466
 20
2.928778619717
 10
5.944469863159
 20
2.924115451871
 10
5.947320283629
 20
2.919726189256
 10
5.950613892074
 20
2.915658921553
 10
5.95431460303
 20
2.911958210597
 10
5.958381870733
 20
2.908664602152
 10
5.962771133348
 20
2.905814181682
 10
5.967434301194
 20
2.903438178989
 10
5.972320283629
 20
2.901562626056
 10
5.977375548807
 20
2.900208071834
 10
5.982544710184
 20
2.899389357102
 10
5.987771133348
 20
2.899115451871
 10
5.992997556511
 20
2.899389357102
 10
5.998166717889
 20
2.900208071834
 10
6.003221983067
 20
2.901562626056
 10
6.008107965502
 20
2.903438178989
 10
6.012771133348
 20
2.905814181682
 10
6.017160395962
 20
2.908664602152
 10
6.021227663666
 20
2.911958210597
 10
6.024928374622
 20
2.915658921553
 10
6.028221983067
 20
2.919726189256
 10
6.031072403537
 20
2.924115451871
 10
6.03344840623
 20
2.928778619717
 10
6.035323959163
 20
2.933664602152
 10
6.036678513385
 20
2.93871986733
 10
6.037497228116
 20
2.943889028707
 10
6.037771133348
 20
2.949115451871
 10
6.037497228116
 20
2.954341875034
 10
6.036678513385
 20
2.959511036412
 10
6.035323959163
 20
2.964566301589
 10
6.03344840623
 20
2.969452284025
  0
LWPOLYLINE
  5
6C
100
AcDbEntity
  8
0
370
           0
  6
Continuous
 62
           7
100
AcDbPolyline
 90
       60
 70
           1
 10
5.861072403537
 20
3.268564089157
 10
5.858221983067
 20
3.272953351772
 10
5.854928374622
 20
3.277020619475
 10
5.851227663666
 20
3.280721330431
 10
5.847160395962
 20
3.284014938876
 10
5.842771133348
 20
3.286865359347
 10
5.838107965502
 20
3.28924136204
 10
5.833221983067
 20
3.291116914972
 10
5.828166717889
 20
3.292471469194
 10
5.822997556511
 20
3.293290183926
 10
5.817771133348
 20
3.293564089157
 10
5.812544710184
 20
3.293290183926
 10
5.807375548807
 20
3.292471469194
 10
5.802320283629
 20
3.291116914972
 10
5.797434301194
 20
3.28924136204
 10
5.792771133348
 20
3.286865359347
 10
5.788381870733
 20
3.284014938876
 10
5.78431460303
 20
3.280721330431
 10
5.780613892074
 20
3.277020619475
 10
5.777320283629
 20
3.272953351772
 10
5.774469863159
 20
3.268564089157
 10
5.772093860466
 20
3.263900921311
 10
5.770218307533
 20
3.259014938876
 10
5.768863753311
 20
3.253959673698
 10
5.768045038579
 20
3.248790512321
 10
5.767771133348
 20
3.243564089157
 10
5.768045038579
 20
3.238337665994
 10
5.768863753311
 20
3.233168504617
 10
5.770218307533
 20
3.228113239439
 10
5.772093860466
 20
3.223227257004
 10
5.774469863159
 20
3.218564089157
 10
5.777320283629
 20
3.214174826543
 10
5.780613892074
 20
3.21010755884
 10
5.78431460303
 20
3.206406847884
 10
5.788381870733
 20
3.203113239439
 10
5.792771133348
 20
3.200262818968
 10
5.797434301194
 20
3.197886816275
 10
5.802320283629
 20
3.196011263343
 10
5.807375548807
 20
3.194656709121
 10
5.812544710184
 20
3.193837994389
 10
5.817771133348
 20
3.193564089157
 10
5.822997556511
 20
3.193837994389
 10
5.828166717889
 20
3.194656709121
 10
5.833221983067
 20
3.196011263343
 10
5.838107965502
 20
3.197886816275
 10
5.842771133348
 20
3.200262818968
 10
5.847160395962
 20
3.203113239439
 10
5.851227663666
 20
3.206406847884
 10
5.854928374622
 20
3.21010755884
 10
5.858221983067
 20
3.214174826543
 10
5.861072403537
 20
3.218564089157
 10
5.86344840623
 20
3.223227257004
 10
5.865323959163
 20
3.228113239439
 10
5.866678513385
 20
3.233168504617
 10
5.867497228116
 20
3.238337665994
 10
5.867771133348
 20
3.243564089157
 10
5.867497228116
 20
3.248790512321
 10
5.866678513385
 20
3.253959673698
 10
5.865323959163
 20
3.259014938876
 10
5.86344840623
 20
3.263900921311
  0
CIRCLE
  5
6D
100
AcDbEntity
  8
0
370
           0
  6
Continuous
 62
           7
100
AcDbCircle
 10
6.049995451991
 20
3.181339770514
 30
0.0
 40
0.1375
1001
TCAD
1000
TCW_CUSTOM_DATA
1002
{
1000
#$AUX@_ToolInfo Properties
1070
           8
1000
Insert^JCircle^JCenterAndPoint@Circle CenterAndPoint
1002
}
  0
CIRCLE
  5
6E
100
AcDbEntity
  8
0
370
           0
  6
Continuous
 62
           7
100
AcDbCircle
 10
6.112219770635
 20
3.413564089157
 30
0.0
 40
0.05
1001
TCAD
1000
TCW_CUSTOM_DATA
1002
{
1000
#$AUX@_ToolInfo Properties
1070
           8
1000
Insert^JCircle^JCenterAndPoint@Circle CenterAndPoint
1002
}
  0
CIRCLE
  5
6F
100
AcDbEntity
  8
0
370
           0
  6
HIDDEN
 62
           7
 48
0.009999999776
100
AcDbCircle
 10
5.0
 20
5.0
 30
0.0
 40
2.5302
1001
TCAD
1000
TCW_CUSTOM_DATA
1002
{
1000
#$AUX@_ToolInfo Properties
1070
           8
1000
Insert^JCircle^JCenterAndPoint@Circle CenterAndPoint
1002
}
  0
LWPOLYLINE
  5
70
100
AcDbEntity
  8
0
370
           0
  6
Continuous
 62
           7
100
AcDbPolyline
 90
       60
 70
           1
 10
6.937735773294
 20
6.118743188982
 10
6.929897117
 20
6.130813661173
 10
6.920839693776
 20
6.141998647357
 10
6.910662738648
 20
6.152175602485
 10
6.899477752463
 20
6.161233025709
 10
6.887407280273
 20
6.169071682003
 10
6.874583568696
 20
6.175605689408
 10
6.861147117
 20
6.180763459973
 10
6.847245137761
 20
6.184488484083
 10
6.833029943972
 20
6.186739949595
 10
6.818657280273
 20
6.187493188982
 10
6.804284616574
 20
6.186739949595
 10
6.790069422786
 20
6.184488484083
 10
6.776167443547
 20
6.180763459973
 10
6.76273099185
 20
6.175605689408
 10
6.749907280273
 20
6.169071682003
 10
6.737836808083
 20
6.161233025709
 10
6.726651821899
 20
6.152175602485
 10
6.71647486677
 20
6.141998647357
 10
6.707417443547
 20
6.130813661173
 10
6.699578787253
 20
6.118743188982
 10
6.693044779847
 20
6.105919477405
 10
6.687887009283
 20
6.092483025709
 10
6.684161985172
 20
6.07858104647
 10
6.68191051966
 20
6.064365852682
 10
6.681157280273
 20
6.049993188982
 10
6.68191051966
 20
6.035620525283
 10
6.684161985172
 20
6.021405331495
 10
6.687887009283
 20
6.007503352256
 10
6.693044779847
 20
5.994066900559
 10
6.699578787253
 20
5.981243188982
 10
6.707417443547
 20
5.969172716792
 10
6.71647486677
 20
5.957987730608
 10
6.726651821899
 20
5.947810775479
 10
6.737836808083
 20
5.938753352256
 10
6.749907280273
 20
5.930914695962
 10
6.76273099185
 20
5.924380688556
 10
6.776167443547
 20
5.919222917992
 10
6.790069422786
 20
5.915497893881
 10
6.804284616574
 20
5.913246428369
 10
6.818657280273
 20
5.912493188982
 10
6.833029943972
 20
5.913246428369
 10
6.847245137761
 20
5.915497893881
 10
6.861147117
 20
5.919222917992
 10
6.874583568696
 20
5.924380688556
 10
6.887407280273
 20
5.930914695962
 10
6.899477752463
 20
5.938753352256
 10
6.910662738648
 20
5.947810775479
 10
6.920839693776
 20
5.957987730608
 10
6.929897117
 20
5.969172716792
 10
6.937735773294
 20
5.981243188982
 10
6.944269780699
 20
5.994066900559
 10
6.949427551264
 20
6.007503352256
 10
6.953152575374
 20
6.021405331495
 10
6.955404040886
 20
6.035620525283
 10
6.956157280273
 20
6.049993188982
 10
6.955404040886
 20
6.064365852682
 10
6.953152575374
 20
6.07858104647
 10
6.949427551264
 20
6.092483025709
 10
6.944269780699
 20
6.105919477405
  0
LWPOLYLINE
  5
71
100
AcDbEntity
  8
0
370
           0
  6
Continuous
 62
           7
100
AcDbPolyline
 90
       60
 70
           1
 10
6.924182869106
 20
6.307217507626
 10
6.921332448635
 20
6.31160677024
 10
6.91803884019
 20
6.315674037944
 10
6.914338129234
 20
6.3193747489
 10
6.910270861531
 20
6.322668357344
 10
6.905881598917
 20
6.325518777815
 10
6.90121843107
 20
6.327894780508
 10
6.896332448635
 20
6.32977033344
 10
6.891277183457
 20
6.331124887662
 10
6.88610802208
 20
6.331943602394
 10
6.880881598917
 20
6.332217507626
 10
6.875655175753
 20
6.331943602394
 10
6.870486014376
 20
6.331124887662
 10
6.865430749198
 20
6.32977033344
 10
6.860544766763
 20
6.327894780508
 10
6.855881598917
 20
6.325518777815
 10
6.851492336302
 20
6.322668357344
 10
6.847425068599
 20
6.3193747489
 10
6.843724357643
 20
6.315674037944
 10
6.840430749198
 20
6.31160677024
 10
6.837580328727
 20
6.307217507626
 10
6.835204326034
 20
6.302554339779
 10
6.833328773102
 20
6.297668357344
 10
6.83197421888
 20
6.292613092167
 10
6.831155504148
 20
6.287443930789
 10
6.830881598917
 20
6.282217507626
 10
6.831155504148
 20
6.276991084462
 10
6.83197421888
 20
6.271821923085
 10
6.833328773102
 20
6.266766657907
 10
6.835204326034
 20
6.261880675472
 10
6.837580328727
 20
6.257217507626
 10
6.840430749198
 20
6.252828245011
 10
6.843724357643
 20
6.248760977308
 10
6.847425068599
 20
6.245060266352
 10
6.851492336302
 20
6.241766657907
 10
6.855881598917
 20
6.238916237436
 10
6.860544766763
 20
6.236540234744
 10
6.865430749198
 20
6.234664681811
 10
6.870486014376
 20
6.233310127589
 10
6.875655175753
 20
6.232491412857
 10
6.880881598917
 20
6.232217507626
 10
6.88610802208
 20
6.232491412857
 10
6.891277183457
 20
6.233310127589
 10
6.896332448635
 20
6.234664681811
 10
6.90121843107
 20
6.236540234744
 10
6.905881598917
 20
6.238916237436
 10
6.910270861531
 20
6.241766657907
 10
6.914338129234
 20
6.245060266352
 10
6.91803884019
 20
6.248760977308
 10
6.921332448635
 20
6.252828245011
 10
6.924182869106
 20
6.257217507626
 10
6.926558871799
 20
6.261880675472
 10
6.928434424731
 20
6.266766657907
 10
6.929788978953
 20
6.271821923085
 10
6.930607693685
 20
6.276991084462
 10
6.930881598917
 20
6.282217507626
 10
6.930607693685
 20
6.287443930789
 10
6.929788978953
 20
6.292613092167
 10
6.928434424731
 20
6.297668357344
 10
6.926558871799
 20
6.302554339779
  0
LWPOLYLINE
  5
72
100
AcDbEntity
  8
0
370
           0
  6
Continuous
 62
           7
100
AcDbPolyline
 90
       60
 70
           1
 10
7.094182869106
 20
6.012768870339
 10
7.091332448635
 20
6.017158132954
 10
7.08803884019
 20
6.021225400657
 10
7.084338129234
 20
6.024926111613
 10
7.080270861531
 20
6.028219720058
 10
7.075881598917
 20
6.031070140528
 10
7.07121843107
 20
6.033446143221
 10
7.066332448635
 20
6.035321696154
 10
7.061277183457
 20
6.036676250376
 10
7.05610802208
 20
6.037494965107
 10
7.050881598917
 20
6.037768870339
 10
7.045655175753
 20
6.037494965107
 10
7.040486014376
 20
6.036676250376
 10
7.035430749198
 20
6.035321696154
 10
7.030544766763
 20
6.033446143221
 10
7.025881598917
 20
6.031070140528
 10
7.021492336302
 20
6.028219720058
 10
7.017425068599
 20
6.024926111613
 10
7.013724357643
 20
6.021225400657
 10
7.010430749198
 20
6.017158132954
 10
7.007580328727
 20
6.012768870339
 10
7.005204326034
 20
6.008105702493
 10
7.003328773102
 20
6.003219720058
 10
7.00197421888
 20
5.99816445488
 10
7.001155504148
 20
5.992995293502
 10
7.000881598917
 20
5.987768870339
 10
7.001155504148
 20
5.982542447176
 10
7.00197421888
 20
5.977373285798
 10
7.003328773102
 20
5.97231802062
 10
7.005204326034
 20
5.967432038185
 10
7.007580328727
 20
5.962768870339
 10
7.010430749198
 20
5.958379607724
 10
7.013724357643
 20
5.954312340021
 10
7.017425068599
 20
5.950611629065
 10
7.021492336302
 20
5.94731802062
 10
7.025881598917
 20
5.94446760015
 10
7.030544766763
 20
5.942091597457
 10
7.035430749198
 20
5.940216044524
 10
7.040486014376
 20
5.938861490302
 10
7.045655175753
 20
5.938042775571
 10
7.050881598917
 20
5.937768870339
 10
7.05610802208
 20
5.938042775571
 10
7.061277183457
 20
5.938861490302
 10
7.066332448635
 20
5.940216044524
 10
7.07121843107
 20
5.942091597457
 10
7.075881598917
 20
5.94446760015
 10
7.080270861531
 20
5.94731802062
 10
7.084338129234
 20
5.950611629065
 10
7.08803884019
 20
5.954312340021
 10
7.091332448635
 20
5.958379607724
 10
7.094182869106
 20
5.962768870339
 10
7.096558871799
 20
5.967432038185
 10
7.098434424731
 20
5.97231802062
 10
7.099788978953
 20
5.977373285798
 10
7.100607693685
 20
5.982542447176
 10
7.100881598917
 20
5.987768870339
 10
7.100607693685
 20
5.992995293502
 10
7.099788978953
 20
5.99816445488
 10
7.098434424731
 20
6.003219720058
 10
7.096558871799
 20
6.008105702493
  0
LWPOLYLINE
  5
73
100
AcDbEntity
  8
0
370
           0
  6
Continuous
 62
           7
100
AcDbPolyline
 90
       60
 70
           1
 10
6.799734231819
 20
5.842768870339
 10
6.796883811349
 20
5.847158132954
 10
6.793590202904
 20
5.851225400657
 10
6.789889491948
 20
5.854926111613
 10
6.785822224244
 20
5.858219720058
 10
6.78143296163
 20
5.861070140528
 10
6.776769793784
 20
5.863446143221
 10
6.771883811349
 20
5.865321696154
 10
6.766828546171
 20
5.866676250376
 10
6.761659384793
 20
5.867494965107
 10
6.75643296163
 20
5.867768870339
 10
6.751206538466
 20
5.867494965107
 10
6.746037377089
 20
5.866676250376
 10
6.740982111911
 20
5.865321696154
 10
6.736096129476
 20
5.863446143221
 10
6.73143296163
 20
5.861070140528
 10
6.727043699015
 20
5.858219720058
 10
6.722976431312
 20
5.854926111613
 10
6.719275720356
 20
5.851225400657
 10
6.715982111911
 20
5.847158132954
 10
6.713131691441
 20
5.842768870339
 10
6.710755688748
 20
5.838105702493
 10
6.708880135815
 20
5.833219720058
 10
6.707525581593
 20
5.82816445488
 10
6.706706866861
 20
5.822995293502
 10
6.70643296163
 20
5.817768870339
 10
6.706706866861
 20
5.812542447176
 10
6.707525581593
 20
5.807373285798
 10
6.708880135815
 20
5.80231802062
 10
6.710755688748
 20
5.797432038185
 10
6.713131691441
 20
5.792768870339
 10
6.715982111911
 20
5.788379607724
 10
6.719275720356
 20
5.784312340021
 10
6.722976431312
 20
5.780611629065
 10
6.727043699015
 20
5.77731802062
 10
6.73143296163
 20
5.77446760015
 10
6.736096129476
 20
5.772091597457
 10
6.740982111911
 20
5.770216044524
 10
6.746037377089
 20
5.768861490302
 10
6.751206538466
 20
5.768042775571
 10
6.75643296163
 20
5.767768870339
 10
6.761659384793
 20
5.768042775571
 10
6.766828546171
 20
5.768861490302
 10
6.771883811349
 20
5.770216044524
 10
6.776769793784
 20
5.772091597457
 10
6.78143296163
 20
5.77446760015
 10
6.785822224244
 20
5.77731802062
 10
6.789889491948
 20
5.780611629065
 10
6.793590202904
 20
5.784312340021
 10
6.796883811349
 20
5.788379607724
 10
6.799734231819
 20
5.792768870339
 10
6.802110234512
 20
5.797432038185
 10
6.803985787445
 20
5.80231802062
 10
6.805340341667
 20
5.807373285798
 10
6.806159056398
 20
5.812542447176
 10
6.80643296163
 20
5.817768870339
 10
6.806159056398
 20
5.822995293502
 10
6.805340341667
 20
5.82816445488
 10
6.803985787445
 20
5.833219720058
 10
6.802110234512
 20
5.838105702493
  0
LWPOLYLINE
  5
74
100
AcDbEntity
  8
0
370
           0
  6
Continuous
 62
           7
100
AcDbPolyline
 90
       60
 70
           1
 10
6.629734231819
 20
6.137217507626
 10
6.626883811349
 20
6.14160677024
 10
6.623590202904
 20
6.145674037944
 10
6.619889491948
 20
6.1493747489
 10
6.615822224244
 20
6.152668357344
 10
6.61143296163
 20
6.155518777815
 10
6.606769793784
 20
6.157894780508
 10
6.601883811349
 20
6.15977033344
 10
6.596828546171
 20
6.161124887662
 10
6.591659384793
 20
6.161943602394
 10
6.58643296163
 20
6.162217507626
 10
6.581206538466
 20
6.161943602394
 10
6.576037377089
 20
6.161124887662
 10
6.570982111911
 20
6.15977033344
 10
6.566096129476
 20
6.157894780508
 10
6.56143296163
 20
6.155518777815
 10
6.557043699015
 20
6.152668357344
 10
6.552976431312
 20
6.1493747489
 10
6.549275720356
 20
6.145674037944
 10
6.545982111911
 20
6.14160677024
 10
6.543131691441
 20
6.137217507626
 10
6.540755688748
 20
6.132554339779
 10
6.538880135815
 20
6.127668357344
 10
6.537525581593
 20
6.122613092167
 10
6.536706866861
 20
6.117443930789
 10
6.53643296163
 20
6.112217507626
 10
6.536706866861
 20
6.106991084462
 10
6.537525581593
 20
6.101821923085
 10
6.538880135815
 20
6.096766657907
 10
6.540755688748
 20
6.091880675472
 10
6.543131691441
 20
6.087217507626
 10
6.545982111911
 20
6.082828245011
 10
6.549275720356
 20
6.078760977308
 10
6.552976431312
 20
6.075060266352
 10
6.557043699015
 20
6.071766657907
 10
6.56143296163
 20
6.068916237436
 10
6.566096129476
 20
6.066540234744
 10
6.570982111911
 20
6.064664681811
 10
6.576037377089
 20
6.063310127589
 10
6.581206538466
 20
6.062491412857
 10
6.58643296163
 20
6.062217507626
 10
6.591659384793
 20
6.062491412857
 10
6.596828546171
 20
6.063310127589
 10
6.601883811349
 20
6.064664681811
 10
6.606769793784
 20
6.066540234744
 10
6.61143296163
 20
6.068916237436
 10
6.615822224244
 20
6.071766657907
 10
6.619889491948
 20
6.075060266352
 10
6.623590202904
 20
6.078760977308
 10
6.626883811349
 20
6.082828245011
 10
6.629734231819
 20
6.087217507626
 10
6.632110234512
 20
6.091880675472
 10
6.633985787445
 20
6.096766657907
 10
6.635340341667
 20
6.101821923085
 10
6.636159056398
 20
6.106991084462
 10
6.63643296163
 20
6.112217507626
 10
6.636159056398
 20
6.117443930789
 10
6.635340341667
 20
6.122613092167
 10
6.633985787445
 20
6.127668357344
 10
6.632110234512
 20
6.132554339779
  0
POINT
  5
75
100
AcDbEntity
  8
0
  6
Continuous
 62
           7
100
AcDbPoint
 10
3.181342719727
 20
3.950006811018
 30
0.0
1001
TCAD
1000
TCW_CUSTOM_DATA
1002
{
1000
#$AUX@_ToolInfo Properties
1070
           8
1000
Insert^JPoint^JCross@Point Cross
1002
}
1000
TC25ExternalObject
1002
{
1000
TCW30POINT
1000

1070
           0
1071
        0
1040
1.0
1040
0.0
1000
Continuous
1000
0
1070
          21
1071
        1
1071
      242
1010
3.181342719727
1020
3.950006811018
1030
0.0
1070
           3
1071
-2147483645
1070
           1
1000
#$AUX@_ToolInfo Properties
1070
           8
1000
Insert^JPoint^JCross@Point Cross
1000
$POINTSIZE
1070
           5
1040
0.25
1000
$POINTTYPE
1070
          18
1070
           3
1000
ExplodeScale
1070
           5
1040
1.0
1002
}
  0
POINT
  5
76
100
AcDbEntity
  8
0
  6
Continuous
 62
           7
100
AcDbPoint
 10
6.818657280273
 20
6.049993188982
 30
0.0
1001
TCAD
1000
TCW_CUSTOM_DATA
1002
{
1000
#$AUX@_ToolInfo Properties
1070
           8
1000
Insert^JPoint^JCross@Point Cross
1002
}
1000
TC25ExternalObject
1002
{
1000
TCW30POINT
1000

1070
           0
1071
        0
1040
1.0
1040
0.0
1000
Continuous
1000
0
1070
          21
1071
        1
1071
      242
1010
6.818657280273
1020
6.049993188982
1030
0.0
1070
           3
1071
-2147483645
1070
           1
1000
#$AUX@_ToolInfo Properties
1070
           8
1000
Insert^JPoint^JCross@Point Cross
1000
$POINTSIZE
1070
           5
1040
0.25
1000
$POINTTYPE
1070
          18
1070
           3
1000
ExplodeScale
1070
           5
1040
1.0
1002
}
  0
POINT
  5
77
100
AcDbEntity
  8
0
  6
Continuous
 62
           7
100
AcDbPoint
 10
3.950006811018
 20
6.818657280273
 30
0.0
1001
TCAD
1000
TCW_CUSTOM_DATA
1002
{
1000
#$AUX@_ToolInfo Properties
1070
           8
1000
Insert^JPoint^JCross@Point Cross
1002
}
1000
TC25ExternalObject
1002
{
1000
TCW30POINT
1000

1070
           0
1071
        0
1040
1.0
1040
0.0
1000
Continuous
1000
0
1070
          21
1071
        1
1071
      242
1010
3.950006811018
1020
6.818657280273
1030
0.0
1070
           3
1071
-2147483645
1070
           1
1000
#$AUX@_ToolInfo Properties
1070
           8
1000
Insert^JPoint^JCross@Point Cross
1000
$POINTSIZE
1070
           5
1040
0.25
1000
$POINTTYPE
1070
          18
1070
           3
1000
ExplodeScale
1070
           5
1040
1.0
1002
}
  0
LINE
  5
78
100
AcDbEntity
  8
0
370
           0
  6
Continuous
 62
           7
100
AcDbLine
 10
6.118154148277
 20
3.403260649537
 30
0.0
 11
6.370485898277
 21
2.966209238174
 31
0.0
1001
TCAD
1000
TCW_CUSTOM_DATA
1002
{
1000
#$AUX@_ToolInfo Properties
1070
           8
1000
Insert^JLine^JSingle@Line Single
1002
}
  0
LINE
  5
79
100
AcDbEntity
  8
0
370
           0
  6
Continuous
 62
           7
100
AcDbLine
 10
6.050005521234
 20
3.18134983975
 30
0.0
 11
6.22328422867
 21
2.881222314601
 31
0.0
1001
TCAD
1000
TCW_CUSTOM_DATA
1002
{
1000
#$AUX@_ToolInfo Properties
1070
           8
1000
Insert^JLine^JSingle@Line Single
1002
}
  0
DIMENSION
  5
89
100
AcDbEntity
  8
0
  6
Continuous
 62
           7
100
AcDbDimension
  2
*D1
 10
6.395485898277
 20
2.922907967985
 30
0.0
 11
6.896953769031
 21
2.922907966495
 31
0.0
 70
           1
 71
           5
 72
           1
 41
1.0
 42
0.0
  1
<0.17>
  3
STANDARD
100
AcDbAlignedDimension
 13
6.22328422867
 23
2.881222314601
 33
0.0
 14
6.370485898277
 24
2.966209238174
 34
0.0
 50
30.0
1001
TCAD
1000
TCW_CUSTOM_DATA
1002
{
1000
#$AUX@_ToolInfo Properties
1070
           8
1000
Insert^JDimension^JParallel@Dimension Parallel
1002
}
1001
ACAD
1000
DSTYLE
1002
{
1070
         147
1040
0.0
1070
           3
1000
<>in
1070
          77
1070
           2
1070
         140
1040
0.12
1002
}
  0
LINE
  5
8A
100
AcDbEntity
  8
0
370
           0
  6
Continuous
 62
           7
100
AcDbLine
 10
6.050005521234
 20
3.18134983975
 30
0.0
 11
5.687551240714
 21
2.972086763323
 31
0.0
1001
TCAD
1000
TCW_CUSTOM_DATA
1002
{
1000
#$AUX@_ToolInfo Properties
1070
           8
1000
Insert^JLine^JSingle@Line Single
1002
}
  0
LINE
  5
8B
100
AcDbEntity
  8
0
370
           0
  6
Continuous
 62
           7
100
AcDbLine
 10
6.1315889366
 20
3.032202128119
 30
0.0
 11
5.77252994815
 21
2.824899324482
 31
0.0
1001
TCAD
1000
TCW_CUSTOM_DATA
1002
{
1000
#$AUX@_ToolInfo Properties
1070
           8
1000
Insert^JLine^JSingle@Line Single
1002
}
  0
DIMENSION
  5
9B
100
AcDbEntity
  8
0
  6
Continuous
 62
           7
100
AcDbDimension
  2
*D2
 10
5.859132488528
 20
2.874899324482
 30
0.0
 11
6.209866425196
 21
2.467410329216
 31
0.0
 70
           1
 71
           5
 72
           1
 41
1.0
 42
0.0
  1
<0.17>
  3
STANDARD
100
AcDbAlignedDimension
 13
5.687551240714
 23
2.972086763323
 33
0.0
 14
5.77252994815
 24
2.824899324482
 34
0.0
 50
-60.0
1001
TCAD
1000
TCW_CUSTOM_DATA
1002
{
1000
#$AUX@_ToolInfo Properties
1070
           8
1000
Insert^JDimension^JParallel@Dimension Parallel
1002
}
1001
ACAD
1000
DSTYLE
1002
{
1070
         147
1040
0.0
1070
           3
1000
<>in
1070
          77
1070
           2
1070
          73
1070
           0
1070
          74
1070
           0
1070
         140
1040
0.12
1002
}
  0
LINE
  5
9C
100
AcDbEntity
  8
0
370
           0
  6
Continuous
 62
           7
100
AcDbLine
 10
5.0
 20
5.0
 30
0.0
 11
3.950006811018
 21
6.818657280273
 31
0.0
1001
TCAD
1000
TCW_CUSTOM_DATA
1002
{
1000
#$AUX@_ToolInfo Properties
1070
           8
1000
Insert^JLine^JSingle@Line Single
1002
}
  0
XLINE
  5
9D
100
AcDbEntity
  8
$CONSTRUCTION
100
AcDbXline
 10
-5.0036844769
 20
-0.775629925625
 30
0.0
 11
0.8660254037844694
 21
0.4999999999999468
 31
0.0
1001
TCAD
1000
TCW_CUSTOM_DATA
1002
{
1000
#$AUX@_ToolInfo Properties
1070
           8
1000
Insert^JConstruction^JAngularLine@Construction AngularLine
1002
}
  0
XLINE
  5
9E
100
AcDbEntity
  8
$CONSTRUCTION
100
AcDbXline
 10
10.356423570216
 20
-4.277597770473
 30
0.0
 11
-0.4999999999999997
 21
0.8660254037844389
 31
0.0
1001
TCAD
1000
TCW_CUSTOM_DATA
1002
{
1000
#$AUX@_ToolInfo Properties
1070
           8
1000
Insert^JConstruction^JAngularLine@Construction AngularLine
1002
}
  0
XLINE
  5
9F
100
AcDbEntity
  8
$CONSTRUCTION
100
AcDbXline
 10
-5.0036844769
 20
5.0
 30
0.0
 11
1.0
 21
0.0
 31
0.0
1001
TCAD
1000
TCW_CUSTOM_DATA
1002
{
1000
#$AUX@_ToolInfo Properties
1070
           8
1000
Insert^JConstruction^JHorizontalLine@Construction HorizontalLine
1002
}
  0
XLINE
  5
A0
100
AcDbEntity
  8
$CONSTRUCTION
100
AcDbXline
 10
5.0
 20
-4.277597770473
 30
0.0
 11
0.0
 21
1.0
 31
0.0
1001
TCAD
1000
TCW_CUSTOM_DATA
1002
{
1000
#$AUX@_ToolInfo Properties
1070
           8
1000
Insert^JConstruction^JVerticalLine@Construction VerticalLine
1002
}
  0
DIMENSION
  5
AF
100
AcDbEntity
  8
0
  6
Continuous
 62
           7
100
AcDbDimension
  2
*D3
 10
5.0
 20
7.5302
 30
0.0
 11
4.168228686251
 21
8.10423605443
 31
0.0
 70
           2
 71
           5
 72
           1
 41
1.0
 42
0.0
  1
<30%%d>
  3
STANDARD
100
AcDb2LineAngularDimension
 13
5.0
 23
5.0
 33
0.0
 14
3.950006811018
 24
6.818657280273
 34
0.0
 15
5.0
 25
5.0
 35
0.0
 16
4.25
 26
8.125
 36
0.0
1001
TCAD
1000
TCW_REFPOINT
1002
{
1010
5.0
1020
5.0
1030
0.0
1002
}
1000
TCW_CUSTOM_DATA
1002
{
1000
#$AUX@_ToolInfo Properties
1070
           8
1000
Insert^JDimension^JAngular@Dimension Angular
1002
}
1001
ACAD
1000
DSTYLE
1002
{
1070
          41
1040
0.25
1002
}
1000
TCW_DSTYLE
1002
{
1070
           0
1002
}
  0
TEXT
  5
B0
100
AcDbEntity
  8
0
  6
Continuous
 62
           7
100
AcDbText
 10
7.5
 20
3.175
 30
0.0
 40
0.15
  1
(through holes
 11
7.5
 21
3.325
 31
0.0
100
AcDbText
 73
           3
1001
TCAD
1000
TCW_CUSTOM_DATA
1002
{
1000
#$AUX@_ToolInfo Properties
1070
           8
1000
Insert^JText@Text
1002
}
1000
TCW40_TEXT
1002
{
1000
Times New Roman
1070
           0
1070
         257
1002
}
  0
TEXT
  5
B1
100
AcDbEntity
  8
0
  6
Continuous
 62
           7
100
AcDbText
 10
6.989458330373
 20
4.069220235135
 30
0.0
 40
0.15
  1
(blind hole)
 11
6.989458330373
 21
4.219220235135
 31
0.0
100
AcDbText
 73
           3
1001
TCAD
1000
TCW_CUSTOM_DATA
1002
{
1000
#$AUX@_ToolInfo Properties
1070
           8
1000
Insert^JText@Text
1002
}
1000
TCW40_TEXT
1002
{
1000
Times New Roman
1070
           0
1070
         257
1002
}
  0
DIMENSION
  5
BD
100
AcDbEntity
  8
0
  6
Continuous
 62
           7
100
AcDbDimension
  2
*D4
 10
4.203312544824
 20
4.92727380963
 30
0.0
 11
8.284695473991
 21
5.448152912019
 31
0.0
 70
           3
 71
           5
 72
           1
 41
1.0
 42
0.0
  1
<%%c1.60>
  3
STANDARD
100
AcDbDiametricDimension
 15
5.796687455176
 25
5.07272619037
 35
0.0
 40
2.067224703421
1001
TCAD
1000
TCW_CUSTOM_DATA
1002
{
1000
#$AUX@_ToolInfo Properties
1070
           8
1000
Insert^JDimension^JDiameter@Dimension Diameter
1002
}
1001
ACAD
1000
DSTYLE
1002
{
1070
          41
1040
0.25
1070
           3
1000
<>in
1070
         172
1070
           0
1002
}
  0
MTEXT
  5
BE
100
AcDbEntity
  8
0
  6
Continuous
 62
           7
100
AcDbMText
 10
6.496306721604
 20
2.680358594517
 30
0.0
 40
0.15
 41
3.247905643739
 71
           1
 72
           1
  1
{blind holes arranged symmetrically \Pabout the center of the through hole\Pwith 0.17" offsets}
 73
           1
 44
1.0
1001
TCAD
1000
TCW_CUSTOM_DATA
1002
{
1000
#$AUX@_ToolInfo Properties
1070
           8
1000
Insert^JText@Text
1002
}
1000
TCW40_TEXT
1002
{
1000
Times New Roman
1070
           0
1070
         257
1002
}
  0
CIRCLE
  5
BF
100
AcDbEntity
  8
0
370
           0
  6
Continuous
 62
           7
100
AcDbCircle
 10
2.4698
 20
5.0
 30
0.0
 40
0.055
1001
TCAD
1000
TCW_CUSTOM_DATA
1002
{
1000
#$AUX@_ToolInfo Properties
1070
           8
1000
Insert^JCircle^JCenterAndPoint@Circle CenterAndPoint
1002
}
  0
CIRCLE
  5
C0
100
AcDbEntity
  8
0
370
           0
  6
Continuous
 62
           7
100
AcDbCircle
 10
5.0
 20
7.5302
 30
0.0
 40
0.055
1001
TCAD
1000
TCW_CUSTOM_DATA
1002
{
1000
#$AUX@_ToolInfo Properties
1070
           8
1000
Insert^JCircle^JCenterAndPoint@Circle CenterAndPoint
1002
}
  0
CIRCLE
  5
C1
100
AcDbEntity
  8
0
370
           0
  6
Continuous
 62
           7
100
AcDbCircle
 10
7.5302
 20
5.0
 30
0.0
 40
0.055
1001
TCAD
1000
TCW_CUSTOM_DATA
1002
{
1000
#$AUX@_ToolInfo Properties
1070
           8
1000
Insert^JCircle^JCenterAndPoint@Circle CenterAndPoint
1002
}
  0
CIRCLE
  5
C2
100
AcDbEntity
  8
0
370
           0
  6
Continuous
 62
           7
100
AcDbCircle
 10
5.0
 20
2.4698
 30
0.0
 40
0.055
1001
TCAD
1000
TCW_CUSTOM_DATA
1002
{
1000
#$AUX@_ToolInfo Properties
1070
           8
1000
Insert^JCircle^JCenterAndPoint@Circle CenterAndPoint
1002
}
  0
XLINE
  5
C3
100
AcDbEntity
  8
$CONSTRUCTION
100
AcDbXline
 10
0.159461439819
 20
-3.38405872223
 30
0.0
 11
0.5000000000000002
 21
0.8660254037844386
 31
0.0
1001
TCAD
1000
TCW_CUSTOM_DATA
1002
{
1000
#$AUX@_ToolInfo Properties
1070
           8
1000
Insert^JConstruction^JAngularLine@Construction AngularLine
1002
}
  0
CIRCLE
  5
C4
100
AcDbEntity
  8
0
370
           0
  6
Continuous
 62
           7
100
AcDbCircle
 10
5.4
 20
5.692820323028
 30
0.0
 40
0.1375
1001
TCAD
1000
TCW_CUSTOM_DATA
1002
{
1000
#$AUX@_ToolInfo Properties
1070
           8
1000
Insert^JCircle^JCenterAndPoint@Circle CenterAndPoint
1002
}
  0
CIRCLE
  5
C5
100
AcDbEntity
  8
0
370
           0
  6
Continuous
 62
           7
100
AcDbCircle
 10
4.6
 20
4.307179676972
 30
0.0
 40
0.1375
1001
TCAD
1000
TCW_CUSTOM_DATA
1002
{
1000
#$AUX@_ToolInfo Properties
1070
           8
1000
Insert^JCircle^JCenterAndPoint@Circle CenterAndPoint
1002
}
  0
CIRCLE
  5
C6
100
AcDbEntity
  8
0
370
           0
  6
Continuous
 62
           7
100
AcDbCircle
 10
3.95
 20
3.181346652053
 30
0.0
 40
0.1375
1001
TCAD
1000
TCW_CUSTOM_DATA
1002
{
1000
#$AUX@_ToolInfo Properties
1070
           8
1000
Insert^JCircle^JCenterAndPoint@Circle CenterAndPoint
1002
}
  0
XLINE
  5
C7
100
AcDbEntity
  8
$CONSTRUCTION
100
AcDbXline
 10
-3.9584745939
 20
10.172177718391
 30
0.0
 11
0.8660254037844387
 21
-0.4999999999999999
 31
0.0
1001
TCAD
1000
TCW_CUSTOM_DATA
1002
{
1000
#$AUX@_ToolInfo Properties
1070
           8
1000
Insert^JConstruction^JAngularLine@Construction AngularLine
1002
}
  0
CIRCLE
  5
C8
100
AcDbEntity
  8
0
370
           0
  6
Continuous
 62
           7
100
AcDbCircle
 10
6.05
 20
6.818653347947
 30
0.0
 40
0.1375
1001
TCAD
1000
TCW_CUSTOM_DATA
1002
{
1000
#$AUX@_ToolInfo Properties
1070
           8
1000
Insert^JCircle^JCenterAndPoint@Circle CenterAndPoint
1002
}
  0
CIRCLE
  5
C9
100
AcDbEntity
  8
0
370
           0
  6
Continuous
 62
           7
100
AcDbCircle
 10
6.81865334798
 20
3.950000000056
 30
0.0
 40
0.1375
1001
TCAD
1000
TCW_CUSTOM_DATA
1002
{
1000
#$AUX@_ToolInfo Properties
1070
           8
1000
Insert^JCircle^JCenterAndPoint@Circle CenterAndPoint
1002
}
  0
CIRCLE
  5
CA
100
AcDbEntity
  8
0
370
           0
  6
Continuous
 62
           7
100
AcDbCircle
 10
3.181346652085
 20
6.050000000056
 30
0.0
 40
0.1375
1001
TCAD
1000
TCW_CUSTOM_DATA
1002
{
1000
#$AUX@_ToolInfo Properties
1070
           8
1000
Insert^JCircle^JCenterAndPoint@Circle CenterAndPoint
1002
}
  0
CIRCLE
  5
CB
100
AcDbEntity
  8
0
370
           0
  6
Continuous
 62
           7
100
AcDbCircle
 10
5.69282032306
 20
4.600000000056
 30
0.0
 40
0.1375
1001
TCAD
1000
TCW_CUSTOM_DATA
1002
{
1000
#$AUX@_ToolInfo Properties
1070
           8
1000
Insert^JCircle^JCenterAndPoint@Circle CenterAndPoint
1002
}
  0
CIRCLE
  5
CC
100
AcDbEntity
  8
0
370
           0
  6
Continuous
 62
           7
100
AcDbCircle
 10
4.307179677005
 20
5.400000000056
 30
0.0
 40
0.1375
1001
TCAD
1000
TCW_CUSTOM_DATA
1002
{
1000
#$AUX@_ToolInfo Properties
1070
           8
1000
Insert^JCircle^JCenterAndPoint@Circle CenterAndPoint
1002
}
  0
LEADER
  5
CD
100
AcDbEntity
  8
0
370
           0
  6
Continuous
 62
           7
100
AcDbLeader
  3
STANDARD
 73
           3
 74
           0
 75
           0
 40
0.0
 76
           4
 10
6.919467002831
 20
3.747121211723
 30
0.0
 10
7.174609960864
 20
3.379715352156
 30
0.0
 10
7.343188531914
 20
3.379715352156
 30
0.0
 10
7.443188531914
 20
3.379715352156
 30
0.0
 77
           7
211
0.0001
221
0.0
231
0.0
1001
TCAD
1000
TCW_CUSTOM_DATA
1002
{
1000
#$AUX@_ToolInfo Properties
1070
           8
1000
Insert^JDimension^JLeader@Dimension Leader
1002
}
1001
ACAD
1000
DSTYLE
1002
{
1002
}
  0
DIMENSION
  5
D9
100
AcDbEntity
  8
0
  6
Continuous
 62
           7
100
AcDbDimension
  2
*D5
 10
6.416491140669
 20
6.550339591318
 30
0.0
 11
2.581269848864
 21
3.010129791065
 31
0.0
 70
           3
 71
           5
 72
           1
 41
1.0
 42
0.0
  1
<%%c4.20>
  3
STANDARD
100
AcDbDiametricDimension
 15
3.583508859331
 25
3.449660408682
 35
0.0
 40
0.849339270164
1001
TCAD
1000
TCW_CUSTOM_DATA
1002
{
1000
#$AUX@_ToolInfo Properties
1070
           8
1000
Insert^JDimension^JDiameter@Dimension Diameter
1002
}
1001
ACAD
1000
DSTYLE
1002
{
1070
          41
1040
0.25
1070
           3
1000
<>in
1070
         172
1070
           0
1002
}
  0
DIMENSION
  5
E5
100
AcDbEntity
  8
0
  6
Continuous
 62
           7
100
AcDbDimension
  2
*D6
 10
6.391385884366
 20
7.11328118356
 30
0.0
 11
2.904315370251
 21
2.656607326527
 31
0.0
 70
           3
 71
           5
 72
           1
 41
1.0
 42
0.0
  1
<%%c5.06>
  3
STANDARD
100
AcDbDiametricDimension
 15
3.608614115634
 25
2.88671881644
 35
0.0
 40
0.5
1001
TCAD
1000
TCW_CUSTOM_DATA
1002
{
1000
#$AUX@_ToolInfo Properties
1070
           8
1000
Insert^JDimension^JDiameter@Dimension Diameter
1002
}
1001
ACAD
1000
DSTYLE
1002
{
1070
          41
1040
0.25
1070
           3
1000
<>in
1070
         172
1070
           0
1002
}
  0
DIMENSION
  5
F1
100
AcDbEntity
  8
0
  6
Continuous
 62
           7
100
AcDbDimension
  2
*D7
 10
6.179560450719
 20
7.428711004442
 30
0.0
 11
3.172659395268
 21
2.309027698439
 31
0.0
 70
           3
 71
           5
 72
           1
 41
1.0
 42
0.0
  1
<%%c5.40>
  3
STANDARD
100
AcDbDiametricDimension
 15
3.820439549281
 25
2.571288995558
 35
0.0
 40
0.5
1001
TCAD
1000
TCW_CUSTOM_DATA
1002
{
1000
#$AUX@_ToolInfo Properties
1070
           8
1000
Insert^JDimension^JDiameter@Dimension Diameter
1002
}
1001
ACAD
1000
DSTYLE
1002
{
1070
          41
1040
0.25
1070
           3
1000
<>in
1070
         172
1070
           0
1002
}
  0
DIMENSION
  5
FD
100
AcDbEntity
  8
0
  6
Continuous
 62
           7
100
AcDbDimension
  2
*D8
 10
2.490590329551
 20
4.949080826822
 30
0.0
 11
1.830663641017
 21
5.701320747525
 31
0.0
 70
           3
 71
           5
 72
           1
 41
1.0
 42
0.0
  1
<%%c0.11>
  3
STANDARD
100
AcDbDiametricDimension
 15
2.449009670449
 25
5.050919173178
 35
0.0
 40
0.5
1001
TCAD
1000
TCW_CUSTOM_DATA
1002
{
1000
#$AUX@_ToolInfo Properties
1070
           8
1000
Insert^JDimension^JDiameter@Dimension Diameter
1002
}
1001
ACAD
1000
DSTYLE
1002
{
1070
          41
1040
0.25
1070
           3
1000
<>in
1002
}
  0
DIMENSION
  5
10C
100
AcDbEntity
  8
0
  6
Continuous
 62
           7
100
AcDbDimension
  2
*D9
 10
3.7349
 20
7.191217476655
 30
0.0
 11
2.727546884939
 21
7.272461625606
 31
0.0
 70
           2
 71
           5
 72
           1
 41
1.0
 42
0.0
  1
<30%%d>
  3
STANDARD
100
AcDb2LineAngularDimension
 13
5.0
 23
5.0
 33
0.0
 14
3.181350584404
 24
6.050006811003
 34
0.0
 15
5.0
 25
5.0
 35
0.0
 16
2.787980947162
 26
7.331329386826
 36
0.0
1001
TCAD
1000
TCW_REFPOINT
1002
{
1010
5.0
1020
5.0
1030
0.0
1002
}
1000
TCW_CUSTOM_DATA
1002
{
1000
#$AUX@_ToolInfo Properties
1070
           8
1000
Insert^JDimension^JAngular@Dimension Angular
1002
}
1001
ACAD
1000
DSTYLE
1002
{
1070
          41
1040
0.25
1002
}
1000
TCW_DSTYLE
1002
{
1070
           0
1002
}
  0
CIRCLE
  5
10D
100
AcDbEntity
  8
0
370
           0
  6
Continuous
 62
           7
100
AcDbCircle
 10
5.0
 20
5.0
 30
0.0
 40
0.0985
1001
TCAD
1000
TCW_CUSTOM_DATA
1002
{
1000
#$AUX@_ToolInfo Properties
1070
           8
1000
Insert^JCircle^JCenterAndPoint@Circle CenterAndPoint
1002
}
  0
DIMENSION
  5
119
100
AcDbEntity
  8
0
  6
Continuous
 62
           7
100
AcDbDimension
  2
*D10
 10
4.987769755615
 20
4.902262232876
 30
0.0
 11
5.614140368349
 21
6.213286077897
 31
0.0
 70
           3
 71
           5
 72
           1
 41
1.0
 42
0.0
  1
<%%c0.197>
  3
STANDARD
100
AcDbDiametricDimension
 15
5.012230244385
 25
5.097737767124
 35
0.0
 40
0.935285931953
1001
TCAD
1000
TCW_CUSTOM_DATA
1002
{
1000
#$AUX@_ToolInfo Properties
1070
           8
1000
Insert^JDimension^JDiameter@Dimension Diameter
1002
}
1001
ACAD
1000
DSTYLE
1002
{
1070
          41
1040
0.25
1070
         271
1070
           3
1070
           3
1000
<>in
1070
          45
1040
0.001
1070
         272
1070
           3
1002
}
  0
TEXT
  5
11A
100
AcDbEntity
  8
0
  6
Continuous
 62
           7
100
AcDbText
 10
5.202376438511
 20
6.319046277633
 30
0.0
 40
0.15
  1
(through hole)
 11
5.202376438511
 21
6.469046277633
 31
0.0
100
AcDbText
 73
           3
1001
TCAD
1000
TCW_CUSTOM_DATA
1002
{
1000
#$AUX@_ToolInfo Properties
1070
           8
1000
Insert^JText@Text
1002
}
1000
TCW40_TEXT
1002
{
1000
Times New Roman
1070
           0
1070
         257
1002
}
  0
TEXT
  5
11B
100
AcDbEntity
  8
0
  6
Continuous
 62
           7
100
AcDbText
 10
7.965956841411
 20
5.007430078937
 30
0.0
 40
0.15
  1
(hole circle)
 11
7.965956841411
 21
5.157430078937
 31
0.0
100
AcDbText
 73
           3
1001
TCAD
1000
TCW_CUSTOM_DATA
1002
{
1000
#$AUX@_ToolInfo Properties
1070
           8
1000
Insert^JText@Text
1002
}
1000
TCW40_TEXT
1002
{
1000
Times New Roman
1070
           0
1070
         257
1002
}
  0
MTEXT
  5
11C
100
AcDbEntity
  8
0
  6
Continuous
 62
           7
100
AcDbMText
 10
1.686374084208
 20
2.988722815977
 30
0.0
 40
0.15
 41
0.664241622575
 71
           1
 72
           1
  1
{(bolt \Pcircles)}
 73
           1
 44
1.0
1001
TCAD
1000
TCW_CUSTOM_DATA
1002
{
1000
#$AUX@_ToolInfo Properties
1070
           8
1000
Insert^JText@Text
1002
}
1000
TCW40_TEXT
1002
{
1000
Times New Roman
1070
           0
1070
         257
1002
}
  0
DIMENSION
  5
128
100
AcDbEntity
  8
0
  6
Continuous
 62
           7
100
AcDbDimension
  2
*D11
 10
6.158041599546
 20
3.393555091302
 30
0.0
 11
5.447923503077
 21
3.703661014419
 31
0.0
 70
           3
 71
           5
 72
           1
 41
1.0
 42
0.0
  1
<%%c0.10>
  3
STANDARD
100
AcDbDiametricDimension
 15
6.066397941723
 25
3.433573087013
 35
0.0
 40
0.206376971007
1001
TCAD
1000
TCW_CUSTOM_DATA
1002
{
1000
#$AUX@_ToolInfo Properties
1070
           8
1000
Insert^JDimension^JDiameter@Dimension Diameter
1002
}
1001
ACAD
1000
DSTYLE
1002
{
1070
           3
1000
<>in
1002
}
  0
MTEXT
  5
129
100
AcDbEntity
  8
0
  6
Continuous
 62
           7
100
AcDbMText
 10
3.309150272193
 20
8.772635380128
 30
0.0
 40
0.15
 41
3.172178130511
 71
           1
 72
           1
  1
{Cross-like array of holes is rotated \P30deg w.r.t. the plate center. }
 73
           1
 44
1.0
1001
TCAD
1000
TCW_CUSTOM_DATA
1002
{
1000
#$AUX@_ToolInfo Properties
1070
           8
1000
Insert^JText@Text
1002
}
1000
TCW40_TEXT
1002
{
1000
Times New Roman
1070
           0
1070
         257
1002
}
  0
ENDSEC
  0
SECTION
  2
OBJECTS
  0
DICTIONARY
  5
19
100
AcDbDictionary
280
           0
281
           1
  3
ACAD_GROUP
350
1A
  3
ACAD_MLINESTYLE
350
1B
  3
ACAD_LAYOUT
350
1E
  3
ACAD_PLOTSETTINGS
350
22
  3
ACAD_PLOTSTYLENAME
350
1F
  0
DICTIONARY
  5
1A
102
{ACAD_REACTORS
330
19
102
}
100
AcDbDictionary
280
           0
281
           1
  3
Group_1
350
3B
  3
Group_1
350
41
  3
Group_1
350
48
  3
Group_1
350
4E
  3
Group_1
350
64
  0
DICTIONARY
  5
1B
102
{ACAD_REACTORS
330
19
102
}
100
AcDbDictionary
280
           0
281
           1
  3
Standard
350
1C
  0
MLINESTYLE
  5
1C
100
AcDbMlineStyle
  2
STANDARD
 70
           0
  3

 62
         256
 51
90.0
 52
90.0
 71
           3
 49
0.25
 62
           7
  6
ByLayer
 49
0.0
 62
           7
  6
ByLayer
 49
-0.25
 62
           7
  6
ByLayer
  0
ACDBDICTIONARYWDFLT
  5
1F
102
{ACAD_REACTORS
330
19
102
}
100
AcDbDictionary
281
           1
  3
Normal
350
1D
100
AcDbDictionaryWithDefault
340
1D
  0
ACDBPLACEHOLDER
  5
1D
102
{ACAD_REACTORS
330
1F
102
}
  0
LAYOUT
  5
21
102
{ACAD_REACTORS
330
1E
102
}
100
AcDbPlotSettings
  1

  2

  4

  6

 40
0.0
 41
0.0
 42
0.0
 43
0.0
 44
0.0
 45
0.0
 46
0.0
 47
0.0
 48
0.0
 49
0.0
140
0.0
141
0.0
142
1.0
143
1.0
 70
           0
 72
           0
 73
           0
 74
           0
  7

 75
           0
147
1.0
148
0.0
149
0.0
100
AcDbLayout
  1
Layout1
 70
           0
 71
           0
 10
0.0
 20
0.0
 11
0.0
 21
0.0
 12
0.0
 22
0.0
 32
0.0
 14
0.0
 24
0.0
 34
0.0
 15
0.0
 25
0.0
 35
0.0
146
0.0
 13
0.0
 23
0.0
 33
0.0
 16
0.0
 26
0.0
 36
0.0
 17
0.0
 27
0.0
 37
0.0
 76
           0
330
B
331
0
345
0
346
0
  0
DICTIONARY
  5
1E
102
{ACAD_REACTORS
330
19
102
}
100
AcDbDictionary
280
           0
281
           1
  3
Model
350
12A
  3
Paper 1
350
12B
  0
DICTIONARY
  5
22
102
{ACAD_REACTORS
330
19
102
}
100
AcDbDictionary
280
           0
281
           1
  0
GROUP
  5
3B
102
{ACAD_REACTORS
330
1A
102
}
100
AcDbGroup
300

 70
           0
 71
           1
340
36
340
37
340
38
340
39
340
3A
  0
GROUP
  5
41
102
{ACAD_REACTORS
330
1A
102
}
100
AcDbGroup
300

 70
           0
 71
           1
340
3C
340
3D
340
3E
340
3F
340
40
  0
GROUP
  5
48
102
{ACAD_REACTORS
330
1A
102
}
100
AcDbGroup
300

 70
           0
 71
           1
340
43
340
44
340
45
340
46
340
47
  0
GROUP
  5
4E
102
{ACAD_REACTORS
330
1A
102
}
100
AcDbGroup
300

 70
           0
 71
           1
340
49
340
4A
340
4B
340
4C
340
4D
  0
GROUP
  5
64
102
{ACAD_REACTORS
330
1A
102
}
100
AcDbGroup
300

 70
           0
 71
           1
340
5F
340
60
340
61
340
62
340
63
  0
LAYOUT
  5
12A
100
AcDbPlotSettings
  1

  2

  4

  6

 40
0.0
 41
0.0
 42
0.0
 43
0.0
 44
0.0
 45
0.0
 46
0.0
 47
0.0
 48
0.0
 49
0.0
140
0.0
141
0.0
142
1.0
143
1.0
 70
           0
 72
           0
 73
           0
 74
           0
  7

 75
           0
147
1.0
148
0.0
149
0.0
100
AcDbLayout
  1
Model
 70
           0
 71
           0
 10
0.0
 20
0.0
 11
0.0
 21
0.0
 12
0.0
 22
0.0
 32
0.0
 14
0.0
 24
0.0
 34
0.0
 15
0.0
 25
0.0
 35
0.0
146
0.0
 13
0.0
 23
0.0
 33
0.0
 16
0.0
 26
0.0
 36
0.0
 17
0.0
 27
0.0
 37
0.0
 76
           0
330
A
331
0
345
0
346
0
  0
LAYOUT
  5
12B
100
AcDbPlotSettings
  1

  2

  4

  6

 40
4.572
 41
4.61518
 42
4.61518
 43
4.572
 44
279.4
 45
215.9
 46
-4.572
 47
-4.61518
 48
0.0
 49
0.0
140
0.0
141
0.0
142
1.0
143
1.0
 70
           0
 72
           0
 73
           0
 74
           0
  7

 75
           0
147
1.0
148
0.0
149
0.0
100
AcDbLayout
  1
Paper 1
 70
           1
 71
           1
 10
0.0
 20
0.0
 11
279.4
 21
215.9
 12
0.0
 22
0.0
 32
0.0
 14
0.0
 24
0.0
 34
0.0
 15
0.0
 25
0.0
 35
0.0
146
0.0
 13
0.0
 23
0.0
 33
0.0
 16
0.0
 26
0.0
 36
0.0
 17
0.0
 27
0.0
 37
0.0
 76
           0
330
B
331
0
345
0
346
0
  0
ENDSEC
  0
EOF
