  0
SECTION
  2
HEADER
  9
$ACADVER
  1
AC1015
  9
$ACADMAINTVER
 70
           6
  9
$DWGCODEPAGE
  3
ANSI_1252
  9
$INSBASE
 10
0.0
 20
0.0
 30
0.0
  9
$EXTMIN
 10
-6.010565846104
 20
-3.625
 30
0.0
  9
$EXTMAX
 10
13.717283946917
 20
4.23749999702
 30
0.0
  9
$LIMMIN
 10
0.0
 20
0.0
  9
$LIMMAX
 10
11.0
 20
8.5
  9
$ORTHOMODE
 70
           0
  9
$REGENMODE
 70
           1
  9
$FILLMODE
 70
           1
  9
$QTEXTMODE
 70
           0
  9
$MIRRTEXT
 70
           1
  9
$LTSCALE
 40
1.0
  9
$ATTMODE
 70
           1
  9
$TEXTSIZE
 40
0.174999997
  9
$TRACEWID
 40
1.0
  9
$TEXTSTYLE
  7
STANDARD
  9
$CLAYER
  8
0
  9
$CELTYPE
  6
Continuous
  9
$CECOLOR
 62
           7
  9
$CELTSCALE
 40
1.0
  9
$DISPSILH
 70
           0
  9
$DIMSCALE
 40
1.0
  9
$DIMASZ
 40
0.175
  9
$DIMEXO
 40
0.0625
  9
$DIMDLI
 40
0.375
  9
$DIMRND
 40
0.0001
  9
$DIMDLE
 40
0.0
  9
$DIMEXE
 40
0.125
  9
$DIMTP
 40
0.0
  9
$DIMTM
 40
0.0
  9
$DIMTXT
 40
0.105
  9
$DIMCEN
 40
0.09
  9
$DIMTSZ
 40
0.0
  9
$DIMTOL
 70
           0
  9
$DIMLIM
 70
           0
  9
$DIMTIH
 70
           1
  9
$DIMTOH
 70
           1
  9
$DIMSE1
 70
           0
  9
$DIMSE2
 70
           0
  9
$DIMTAD
 70
           1
  9
$DIMZIN
 70
           8
  9
$DIMBLK
  1

  9
$DIMASO
 70
           0
  9
$DIMSHO
 70
           1
  9
$DIMPOST
  1

  9
$DIMAPOST
  1

  9
$DIMALT
 70
           0
  9
$DIMALTD
 70
           2
  9
$DIMALTF
 40
1.0
  9
$DIMLFAC
 40
1.0
  9
$DIMTOFL
 70
           0
  9
$DIMTVP
 40
0.0
  9
$DIMTIX
 70
           1
  9
$DIMSOXD
 70
           0
  9
$DIMSAH
 70
           0
  9
$DIMBLK1
  1

  9
$DIMBLK2
  1

  9
$DIMSTYLE
  2
STANDARD
  9
$DIMCLRD
 70
           7
  9
$DIMCLRE
 70
           7
  9
$DIMCLRT
 70
           7
  9
$DIMTFAC
 40
1.0
  9
$DIMGAP
 40
0.0625
  9
$DIMJUST
 70
           0
  9
$DIMSD1
 70
           0
  9
$DIMSD2
 70
           0
  9
$DIMTOLJ
 70
           1
  9
$DIMTZIN
 70
           0
  9
$DIMALTZ
 70
           0
  9
$DIMALTTZ
 70
           0
  9
$DIMUPT
 70
           0
  9
$DIMDEC
 70
           4
  9
$DIMTDEC
 70
           4
  9
$DIMALTU
 70
           2
  9
$DIMALTTD
 70
           2
  9
$DIMTXSTY
  7
STANDARD
  9
$DIMAUNIT
 70
           0
  9
$DIMADEC
 70
           4
  9
$DIMALTRND
 40
0.0
  9
$DIMAZIN
 70
           0
  9
$DIMDSEP
 70
           0
  9
$DIMATFIT
 70
           0
  9
$DIMFRAC
 70
           0
  9
$DIMLDRBLK
  1

  9
$DIMLUNIT
 70
           2
  9
$DIMLWD
 70
           0
  9
$DIMLWE
 70
           0
  9
$DIMTMOVE
 70
           0
  9
$LUNITS
 70
           2
  9
$LUPREC
 70
           4
  9
$SKETCHINC
 40
1.0
  9
$FILLETRAD
 40
0.3
  9
$AUNITS
 70
           0
  9
$AUPREC
 70
           4
  9
$MENU
  1
acad
  9
$ELEVATION
 40
0.0
  9
$PELEVATION
 40
0.0
  9
$THICKNESS
 40
0.0
  9
$LIMCHECK
 70
           0
  9
$CHAMFERA
 40
0.0
  9
$CHAMFERB
 40
0.0
  9
$CHAMFERC
 40
0.0
  9
$CHAMFERD
 40
0.0
  9
$SKPOLY
 70
           0
  9
$TDCREATE
 40
0.000000000
  9
$TDUCREATE
 40
0.000000000
  9
$TDUPDATE
 40
2449702.667959363
  9
$TDUUPDATE
 40
0.000000000
  9
$TDINDWG
 40
0.0000000000
  9
$TDUSRTIMER
 40
0.0000000000
  9
$USRTIMER
 70
           1
  9
$ANGBASE
 50
0.0
  9
$ANGDIR
 70
           0
  9
$PDMODE
 70
           0
  9
$PDSIZE
 40
0.0
  9
$PLINEWID
 40
0.0
  9
$SPLFRAME
 70
           0
  9
$SPLINETYPE
 70
           5
  9
$SPLINESEGS
 70
          20
  9
$HANDSEED
  5
324
  9
$SURFTAB1
 70
           6
  9
$SURFTAB2
 70
           6
  9
$SURFTYPE
 70
           6
  9
$SURFU
 70
           6
  9
$SURFV
 70
           6
  9
$UCSBASE
  2

  9
$UCSNAME
  2

  9
$UCSORG
 10
0.0
 20
0.0
 30
0.0
  9
$UCSXDIR
 10
1.0
 20
0.0
 30
0.0
  9
$UCSYDIR
 10
0.0
 20
1.0
 30
0.0
  9
$UCSORTHOREF
  2

  9
$UCSORTHOVIEW
 70
           0
  9
$UCSORGTOP
 10
0.0
 20
0.0
 30
0.0
  9
$UCSORGBOTTOM
 10
0.0
 20
0.0
 30
0.0
  9
$UCSORGLEFT
 10
0.0
 20
0.0
 30
0.0
  9
$UCSORGRIGHT
 10
0.0
 20
0.0
 30
0.0
  9
$UCSORGFRONT
 10
0.0
 20
0.0
 30
0.0
  9
$UCSORGBACK
 10
0.0
 20
0.0
 30
0.0
  9
$PUCSBASE
  2

  9
$PUCSNAME
  2

  9
$PUCSORG
 10
0.0
 20
0.0
 30
0.0
  9
$PUCSXDIR
 10
1.0
 20
0.0
 30
0.0
  9
$PUCSYDIR
 10
0.0
 20
1.0
 30
0.0
  9
$PUCSORTHOREF
  2

  9
$PUCSORTHOVIEW
 70
           0
  9
$PUCSORGTOP
 10
0.0
 20
0.0
 30
0.0
  9
$PUCSORGBOTTOM
 10
0.0
 20
0.0
 30
0.0
  9
$PUCSORGLEFT
 10
0.0
 20
0.0
 30
0.0
  9
$PUCSORGRIGHT
 10
0.0
 20
0.0
 30
0.0
  9
$PUCSORGFRONT
 10
0.0
 20
0.0
 30
0.0
  9
$PUCSORGBACK
 10
0.0
 20
0.0
 30
0.0
  9
$USERI1
 70
           0
  9
$USERI2
 70
           0
  9
$USERI3
 70
           0
  9
$USERI4
 70
           0
  9
$USERI5
 70
           0
  9
$USERR1
 40
0.0
  9
$USERR2
 40
0.0
  9
$USERR3
 40
0.0
  9
$USERR4
 40
0.0
  9
$USERR5
 40
0.0
  9
$WORLDVIEW
 70
           1
  9
$SHADEDGE
 70
           3
  9
$SHADEDIF
 70
          70
  9
$TILEMODE
 70
           1
  9
$MAXACTVP
 70
          16
  9
$PINSBASE
 10
0.0
 20
0.0
 30
0.0
  9
$PLIMCHECK
 70
           0
  9
$PEXTMIN
 10
0.0
 20
0.0
 30
0.0
  9
$PEXTMAX
 10
11.0
 20
8.5
 30
0.0
  9
$PLIMMIN
 10
0.0
 20
0.0
  9
$PLIMMAX
 10
11.0
 20
8.5
  9
$UNITMODE
 70
           0
  9
$VISRETAIN
 70
           0
  9
$PLINEGEN
 70
           1
  9
$PSLTSCALE
 70
           1
  9
$TREEDEPTH
 70
        3020
  9
$CMLSTYLE
  2
STANDARD
  9
$CMLJUST
 70
           0
  9
$CMLSCALE
 40
1.0
  9
$PROXYGRAPHICS
 70
           0
  9
$MEASUREMENT
 70
           0
  9
$CELWEIGHT
370
           0
  9
$ENDCAPS
280
           0
  9
$JOINSTYLE
280
           0
  9
$LWDISPLAY
290
           0
  9
$INSUNITS
 70
           0
  9
$HYPERLINKBASE
  1

  9
$STYLESHEET
  1

  9
$XEDIT
290
           1
  9
$CEPSNTYPE
380
           0
  9
$PSTYLEMODE
290
           1
  9
$FINGERPRINTGUID
  2

  9
$VERSIONGUID
  2

  9
$EXTNAMES
290
           1
  9
$PSVPSCALE
 40
0.0
  0
ENDSEC
  0
SECTION
  2
CLASSES
  0
CLASS
  1
LWPOLYLINE
  2
AcDbPolyline
  3
AutoCAD 2000
 90
        0
280
           0
281
           1
  0
CLASS
  1
IMAGE
  2
AcDbRasterImage
  3
ISM
 90
    32895
280
           0
281
           1
  0
CLASS
  1
OLE2FRAME
  2
AcDbOle2Frame
  3
AutoCAD 2000
 90
    32768
280
           0
281
           1
  0
CLASS
  1
HATCH
  2
AcDbHatch
  3
AutoCAD 2000
 90
        0
280
           0
281
           1
  0
CLASS
  1
DICTIONARYVAR
  2
AcDbDictionaryVar
  3
AutoCAD 2000
 90
    32768
280
           0
281
           0
  0
CLASS
  1
RASTERVARIABLES
  2
AcDbRasterVariables
  3
ISM
 90
    32768
280
           0
281
           0
  0
CLASS
  1
IMAGEDEF
  2
AcDbRasterImageDef
  3
ISM
 90
    32768
280
           0
281
           0
  0
CLASS
  1
IMAGEDEF_REACTOR
  2
AcDbRasterImageDefReactor
  3
ISM
 90
    32769
280
           0
281
           0
  0
CLASS
  1
IDBUFFER
  2
AcDbIdBuffer
  3
AutoCAD 2000
 90
    32768
280
           0
281
           0
  0
CLASS
  1
SPATIAL_FILTER
  2
AcDbSpatialFilter
  3
AutoCAD 2000
 90
    32768
280
           0
281
           0
  0
CLASS
  1
XRECORD
  2
AcDbXrecord
  3
AutoCAD 2000
 90
    32768
280
           0
281
           0
  0
CLASS
  1
SORTENTSTABLE
  2
AcDbSortentsTable
  3
AutoCAD 2000
 90
    32768
280
           0
281
           0
  0
CLASS
  1
LAYER_INDEX
  2
AcDbLayerIndex
  3
AutoCAD 2000
 90
    32768
280
           0
281
           0
  0
CLASS
  1
SPATIAL_INDEX
  2
AcDbSpatialIndex
  3
AutoCAD 2000
 90
    32768
280
           0
281
           0
  0
CLASS
  1
OBJECT_PTR
  2
CAseDLPNTableRecord
  3
"ASE-LPNTableRecord"
 90
    32769
280
           0
281
           0
  0
CLASS
  1
LAYOUT
  2
AcDbLayout
  3
AutoCAD 2000
 90
        0
280
           0
281
           0
  0
CLASS
  1
PLOTSETTINGS
  2
AcDbPlotSettings
  3
AutoCAD 2000
 90
    32768
280
           0
281
           0
  0
CLASS
  1
ACDBDICTIONARYWDFLT
  2
AcDbDictionaryWithDefault
  3
AutoCAD 2000
 90
        0
280
           0
281
           0
  0
CLASS
  1
ACDBPLACEHOLDER
  2
AcDbPlaceHolder
  3
AutoCAD 2000
 90
        0
280
           0
281
           0
  0
ENDSEC
  0
SECTION
  2
TABLES
  0
TABLE
  2
VPORT
  5
7
100
AcDbSymbolTable
 70
           1
  0
VPORT
  5
15
100
AcDbSymbolTableRecord
100
AcDbViewportTableRecord
  2
*ACTIVE
 70
           0
 10
0.0
 20
0.0
 11
1.0
 21
1.0
 12
0.0
 22
0.0
 13
0.0
 23
0.0
 14
0.5
 24
0.5
 15
0.5
 25
0.5
 16
0.0
 26
0.0
 36
1.0
 17
0.845719106372
 27
1.896926900334
 37
-1.0
 40
13.4684000128
 41
1.491228070175
 42
50.0
 43
0.0
 44
0.0
 50
0.0
 51
0.0
 71
           0
 72
         100
 73
           1
 74
           1
 75
           0
 76
           1
 77
           0
 78
           0
281
           0
 65
           0
110
0.0
120
0.0
130
0.0
111
1.0
121
0.0
131
0.0
112
0.0
122
1.0
132
0.0
345
0
346
0
 79
           0
146
0.0
  0
ENDTAB
  0
TABLE
  2
LTYPE
  5
4
100
AcDbSymbolTable
 70
          15
  0
LTYPE
  5
11
100
AcDbSymbolTableRecord
100
AcDbLinetypeTableRecord
  2
ByBlock
 70
          64
  3

 72
          65
 73
           0
 40
0.0
  0
LTYPE
  5
12
100
AcDbSymbolTableRecord
100
AcDbLinetypeTableRecord
  2
ByLayer
 70
          64
  3

 72
          65
 73
           0
 40
0.0
  0
LTYPE
  5
13
100
AcDbSymbolTableRecord
100
AcDbLinetypeTableRecord
  2
Continuous
 70
          64
  3
Solid line
 72
          65
 73
           0
 40
0.0
  0
LTYPE
  5
24
100
AcDbSymbolTableRecord
100
AcDbLinetypeTableRecord
  2
BORDER
 70
           0
  3
BORDER
 72
          65
 73
           6
 40
1.75
 49
0.5
 74
           0
 49
-0.25
 74
           0
 49
0.5
 74
           0
 49
-0.25
 74
           0
 49
0.0
 74
           0
 49
-0.25
 74
           0
  0
LTYPE
  5
25
100
AcDbSymbolTableRecord
100
AcDbLinetypeTableRecord
  2
CENTER
 70
           0
  3
CENTER
 72
          65
 73
           4
 40
2.0
 49
1.25
 74
           0
 49
-0.25
 74
           0
 49
0.25
 74
           0
 49
-0.25
 74
           0
  0
LTYPE
  5
26
100
AcDbSymbolTableRecord
100
AcDbLinetypeTableRecord
  2
DASHDOT
 70
           0
  3
DASHDOT
 72
          65
 73
           4
 40
1.0
 49
0.5
 74
           0
 49
-0.25
 74
           0
 49
0.0
 74
           0
 49
-0.25
 74
           0
  0
LTYPE
  5
27
100
AcDbSymbolTableRecord
100
AcDbLinetypeTableRecord
  2
DASHED
 70
           0
  3
DASHED
 72
          65
 73
           2
 40
0.75
 49
0.5
 74
           0
 49
-0.25
 74
           0
  0
LTYPE
  5
28
100
AcDbSymbolTableRecord
100
AcDbLinetypeTableRecord
  2
DIVIDE
 70
           0
  3
DIVIDE
 72
          65
 73
           6
 40
1.25
 49
0.5
 74
           0
 49
-0.25
 74
           0
 49
0.0
 74
           0
 49
-0.25
 74
           0
 49
0.0
 74
           0
 49
-0.25
 74
           0
  0
LTYPE
  5
29
100
AcDbSymbolTableRecord
100
AcDbLinetypeTableRecord
  2
DOT
 70
           0
  3
DOT
 72
          65
 73
           2
 40
0.25
 49
0.0
 74
           0
 49
-0.25
 74
           0
  0
LTYPE
  5
2A
100
AcDbSymbolTableRecord
100
AcDbLinetypeTableRecord
  2
HIDDEN
 70
           0
  3
HIDDEN
 72
          65
 73
           2
 40
0.375
 49
0.25
 74
           0
 49
-0.125
 74
           0
  0
LTYPE
  5
2B
100
AcDbSymbolTableRecord
100
AcDbLinetypeTableRecord
  2
PHANTOM
 70
           0
  3
PHANTOM
 72
          65
 73
           6
 40
2.5
 49
1.25
 74
           0
 49
-0.25
 74
           0
 49
0.25
 74
           0
 49
-0.25
 74
           0
 49
0.25
 74
           0
 49
-0.25
 74
           0
  0
LTYPE
  5
2C
100
AcDbSymbolTableRecord
100
AcDbLinetypeTableRecord
  2
$INVISIBLE
 70
           0
  3
$INVISIBLE
 72
          65
 73
           2
 40
200.0
 49
-100.0
 74
           0
 49
-100.0
 74
           0
  0
LTYPE
  5
2D
100
AcDbSymbolTableRecord
100
AcDbLinetypeTableRecord
  2
$SNAPEXT
 70
           0
  3
$SNAPEXT
 72
          65
 73
           2
 40
0.04
 49
0.02
 74
           0
 49
-0.02
 74
           0
  0
LTYPE
  5
2E
100
AcDbSymbolTableRecord
100
AcDbLinetypeTableRecord
  2
$AUXILIARY
 70
           0
  3
$AUXILIARY
 72
          65
 73
           2
 40
0.1
 49
0.05
 74
           0
 49
-0.05
 74
           0
  0
LTYPE
  5
2F
100
AcDbSymbolTableRecord
100
AcDbLinetypeTableRecord
  2
$CONSTRUCTION
 70
           0
  3
$CONSTRUCTION
 72
          65
 73
           4
 40
0.3
 49
0.2
 74
           0
 49
-0.05
 74
           0
 49
0.0
 74
           0
 49
-0.05
 74
           0
  0
ENDTAB
  0
TABLE
  2
LAYER
  5
2
100
AcDbSymbolTable
 70
           3
  0
LAYER
  5
14
100
AcDbSymbolTableRecord
100
AcDbLayerTableRecord
  2
0
 70
           0
 62
           7
  6
Continuous
290
           1
370
           0
390
0
1001
TCAD
1000
TCW_LAYER_ORDER
1002
{
1071
        0
1002
}
  0
LAYER
  5
30
100
AcDbSymbolTableRecord
100
AcDbLayerTableRecord
  2
$CONSTRUCTION
 70
           0
 62
           1
  6
$CONSTRUCTION
290
           1
370
           0
390
0
1001
TCAD
1000
TCW_LAYER_ORDER
1002
{
1071
        0
1002
}
  0
LAYER
  5
33
100
AcDbSymbolTableRecord
100
AcDbLayerTableRecord
  2
ASHADE
 70
           0
 62
           7
  6
Continuous
290
           1
370
          -3
390
0
  0
ENDTAB
  0
TABLE
  2
STYLE
  5
3
100
AcDbSymbolTable
 70
           2
  0
STYLE
  5
17
100
AcDbSymbolTableRecord
100
AcDbTextStyleTableRecord
  2
STANDARD
 70
           0
 40
0.0
 41
1.0
 50
0.0
 71
           0
 42
0.104999996722
  3
TIMES.TTF
  4

1001
ACAD
1000
Times New Roman
1071
      290
  0
STYLE
  5
32
100
AcDbSymbolTableRecord
100
AcDbTextStyleTableRecord
  2
ASHADE
 70
           0
 40
0.2
 41
1.0
 50
0.0
 71
           0
 42
2.5
  3
simplex.shx
  4

  0
ENDTAB
  0
TABLE
  2
VIEW
  5
5
100
AcDbSymbolTable
 70
           1
  0
VIEW
  5
31
100
AcDbSymbolTableRecord
100
AcDbViewTableRecord
  2
View_0
 70
           0
 40
8.5
 10
-1.402499675751
 20
0.0
 41
11.0
 11
0.0
 21
0.0
 31
1.0
 12
6.902499709278
 22
4.250000104308
 32
-1.0
 42
97.532499545905
 43
0.0
 44
0.0
 50
0.0
 71
           0
281
           0
 72
           0
110
0.0
120
0.0
130
0.0
111
1.0
121
0.0
131
0.0
112
0.0
122
1.0
132
0.0
  0
ENDTAB
  0
TABLE
  2
UCS
  5
6
100
AcDbSymbolTable
 70
           0
  0
ENDTAB
  0
TABLE
  2
APPID
  5
8
100
AcDbSymbolTable
 70
           3
  0
APPID
  5
16
100
AcDbSymbolTableRecord
100
AcDbRegAppTableRecord
  2
ACAD
 70
           0
  0
APPID
  5
23
100
AcDbSymbolTableRecord
100
AcDbRegAppTableRecord
  2
TCAD
 70
           0
  0
APPID
  5
51
100
AcDbSymbolTableRecord
100
AcDbRegAppTableRecord
  2
AVE_RENDER
 70
           0
  0
ENDTAB
  0
TABLE
  2
DIMSTYLE
  5
9
100
AcDbSymbolTable
 70
           1
100
AcDbDimStyleTable
 71
           0
  0
DIMSTYLE
105
18
100
AcDbSymbolTableRecord
100
AcDbDimStyleTableRecord
  2
STANDARD
 70
           0
  3

  4

 40
1.0
 41
0.175
 42
0.0625
 43
0.375
 44
0.125
 45
0.0001
 46
0.0
 47
0.0
 48
0.0
 71
           0
 72
           0
 73
           1
 74
           1
 75
           0
 76
           0
 77
           1
 78
           8
 79
           0
140
0.105
141
0.09
142
0.0
143
1.0
144
1.0
145
0.0
146
1.0
147
0.0625
148
0.01
170
           0
171
           2
172
           0
173
           0
174
           1
175
           0
176
           7
177
           7
178
           7
179
           4
271
           4
272
           4
273
           2
274
           2
275
           0
276
           0
277
           2
278
          46
279
           0
280
           0
281
           0
282
           0
283
           1
284
           0
285
           0
286
           0
288
           0
340
17
341
0
342
0
343
0
344
0
371
          -2
372
          -2
  0
ENDTAB
  0
TABLE
  2
BLOCK_RECORD
  5
1
100
AcDbSymbolTable
 70
          13
  0
BLOCK_RECORD
  5
A
100
AcDbSymbolTableRecord
100
AcDbBlockTableRecord
  2
*MODEL_SPACE
340
320
  0
BLOCK_RECORD
  5
B
100
AcDbSymbolTableRecord
100
AcDbBlockTableRecord
  2
*PAPER_SPACE
340
323
  0
BLOCK_RECORD
  5
34
100
AcDbSymbolTableRecord
100
AcDbBlockTableRecord
  2
OVERHEAD
340
0
102
{BLKREFS
331
52
331
5E
331
6A
331
76
331
A2
331
AE
102
}
  0
BLOCK_RECORD
  5
82
100
AcDbSymbolTableRecord
100
AcDbBlockTableRecord
  2
DIRECT
340
0
102
{BLKREFS
331
96
102
}
  0
BLOCK_RECORD
  5
BA
100
AcDbSymbolTableRecord
100
AcDbBlockTableRecord
  2
SH_SPOT
340
0
102
{BLKREFS
331
E2
102
}
  0
BLOCK_RECORD
  5
162
100
AcDbSymbolTableRecord
100
AcDbBlockTableRecord
  2
*D3
340
0
  0
BLOCK_RECORD
  5
16E
100
AcDbSymbolTableRecord
100
AcDbBlockTableRecord
  2
*D4
340
0
  0
BLOCK_RECORD
  5
17A
100
AcDbSymbolTableRecord
100
AcDbBlockTableRecord
  2
*D5
340
0
  0
BLOCK_RECORD
  5
186
100
AcDbSymbolTableRecord
100
AcDbBlockTableRecord
  2
*D6
340
0
  0
BLOCK_RECORD
  5
1DB
100
AcDbSymbolTableRecord
100
AcDbBlockTableRecord
  2
*D7
340
0
  0
BLOCK_RECORD
  5
2C6
100
AcDbSymbolTableRecord
100
AcDbBlockTableRecord
  2
*D8
340
0
  0
BLOCK_RECORD
  5
2D0
100
AcDbSymbolTableRecord
100
AcDbBlockTableRecord
  2
*D9
340
0
  0
BLOCK_RECORD
  5
2DF
100
AcDbSymbolTableRecord
100
AcDbBlockTableRecord
  2
*D10
340
0
  0
BLOCK_RECORD
  5
2E9
100
AcDbSymbolTableRecord
100
AcDbBlockTableRecord
  2
*D11
340
0
  0
BLOCK_RECORD
  5
2F9
100
AcDbSymbolTableRecord
100
AcDbBlockTableRecord
  2
*D12
340
0
  0
ENDTAB
  0
ENDSEC
  0
SECTION
  2
BLOCKS
  0
BLOCK
  5
D
100
AcDbEntity
  8
0
100
AcDbBlockBegin
  2
*MODEL_SPACE
 70
           0
 10
0.0
 20
0.0
 30
0.0
  3
*MODEL_SPACE
  1

  0
ENDBLK
  5
E
100
AcDbEntity
  8
0
100
AcDbBlockEnd
  0
BLOCK
  5
F
100
AcDbEntity
 67
           1
  8
0
100
AcDbBlockBegin
  2
*PAPER_SPACE
 70
           0
 10
0.0
 20
0.0
 30
0.0
  3
*PAPER_SPACE
  1

  0
ENDBLK
  5
10
100
AcDbEntity
 67
           1
  8
0
100
AcDbBlockEnd
  0
BLOCK
  5
35
100
AcDbEntity
  8
0
100
AcDbBlockBegin
  2
OVERHEAD
 70
           2
 10
0.0
 20
0.0
 30
0.0
  3
OVERHEAD
  1

  0
ATTDEF
  5
36
100
AcDbEntity
  8
ASHADE
  6
Continuous
 62
           1
100
AcDbText
 10
0.0
 20
-0.1
 30
0.0
 40
0.2
  1

  7
ASHADE
 72
           1
 11
0.0
 21
-0.1
 31
0.0
100
AcDbAttributeDefinition
  3
Light Name
  2
SNAME
 70
           0
  0
ATTDEF
  5
37
100
AcDbEntity
  8
ASHADE
  6
Continuous
 62
           7
100
AcDbText
 10
0.0
 20
0.28
 30
0.0
 40
0.01
  1

100
AcDbAttributeDefinition
  3

  2
GNAME
 70
           1
  0
ATTDEF
  5
38
100
AcDbEntity
  8
ASHADE
  6
Continuous
 62
           7
100
AcDbText
 10
0.0
 20
0.265
 30
0.0
 40
0.01
  1

100
AcDbAttributeDefinition
  3
Look-at X
  2
LAX
 70
           1
  0
ATTDEF
  5
39
100
AcDbEntity
  8
ASHADE
  6
Continuous
 62
           7
100
AcDbText
 10
0.0
 20
0.25
 30
0.0
 40
0.01
  1

100
AcDbAttributeDefinition
  3
Look-at Y
  2
LAY
 70
           1
  0
ATTDEF
  5
3A
100
AcDbEntity
  8
ASHADE
  6
Continuous
 62
           7
100
AcDbText
 10
0.0
 20
0.235
 30
0.0
 40
0.01
  1

100
AcDbAttributeDefinition
  3
Look-at Z
  2
LAZ
 70
           1
  0
ATTDEF
  5
3B
100
AcDbEntity
  8
ASHADE
  6
Continuous
 62
           7
100
AcDbText
 10
0.0
 20
0.22
 30
0.0
 40
0.01
  1
1
100
AcDbAttributeDefinition
  3
Light Intensity
  2
INTENSITY
 70
           1
  0
ATTDEF
  5
3C
100
AcDbEntity
  8
ASHADE
  6
Continuous
 62
           7
100
AcDbText
 10
0.0
 20
0.205
 30
0.0
 40
0.01
  1
1,1,1
100
AcDbAttributeDefinition
  3
Light Color (RGB)
  2
COLOR
 70
           1
  0
ATTDEF
  5
3D
100
AcDbEntity
  8
ASHADE
  6
Continuous
 62
           7
100
AcDbText
 10
0.0
 20
0.19
 30
0.0
 40
0.01
  1
0
100
AcDbAttributeDefinition
  3
Depth Map Size
  2
CONEA
 70
           1
  0
ATTDEF
  5
3E
100
AcDbEntity
  8
ASHADE
  6
Continuous
 62
           7
100
AcDbText
 10
0.0
 20
0.175
 30
0.0
 40
0.01
  1
-1
100
AcDbAttributeDefinition
  3
*not used*
  2
CONED
 70
           1
  0
ATTDEF
  5
3F
100
AcDbEntity
  8
ASHADE
  6
Continuous
 62
           7
100
AcDbText
 10
0.0
 20
0.16
 30
0.0
 40
0.01
  1
-1
100
AcDbAttributeDefinition
  3
*not used*
  2
BEAMD
 70
           1
  0
ARC
  5
40
100
AcDbEntity
  8
ASHADE
  6
Continuous
 62
           7
100
AcDbCircle
 10
0.0
 20
0.0
 30
0.0
 40
0.3
100
AcDbArc
 50
205.679289
 51
334.320711
  0
ARC
  5
41
100
AcDbEntity
  8
ASHADE
  6
Continuous
 62
           7
100
AcDbCircle
 10
0.0
 20
0.0
 30
0.0
 40
0.3
100
AcDbArc
 50
25.679289
 51
154.320711
  0
LINE
  5
42
100
AcDbEntity
  8
ASHADE
  6
Continuous
 62
           7
100
AcDbLine
 10
-0.27037
 20
-0.13
 30
0.0
 11
-0.315432
 21
-0.151667
 31
0.0
  0
LINE
  5
43
100
AcDbEntity
  8
ASHADE
  6
Continuous
 62
           7
100
AcDbLine
 10
-0.204141
 20
-0.219832
 30
0.0
 11
-0.272188
 21
-0.29311
 31
0.0
  0
LINE
  5
44
100
AcDbEntity
  8
ASHADE
  6
Continuous
 62
           7
100
AcDbLine
 10
-0.109659
 20
-0.27924
 30
0.0
 11
-0.127936
 21
-0.32578
 31
0.0
  0
LINE
  5
45
100
AcDbEntity
  8
ASHADE
  6
Continuous
 62
           7
100
AcDbLine
 10
0.0
 20
-0.3
 30
0.0
 11
0.0
 21
-0.4
 31
0.0
  0
LINE
  5
46
100
AcDbEntity
  8
ASHADE
  6
Continuous
 62
           7
100
AcDbLine
 10
0.109659
 20
-0.27924
 30
0.0
 11
0.127936
 21
-0.32578
 31
0.0
  0
LINE
  5
47
100
AcDbEntity
  8
ASHADE
  6
Continuous
 62
           7
100
AcDbLine
 10
0.204141
 20
-0.219832
 30
0.0
 11
0.272188
 21
-0.29311
 31
0.0
  0
LINE
  5
48
100
AcDbEntity
  8
ASHADE
  6
Continuous
 62
           7
100
AcDbLine
 10
0.27037
 20
-0.13
 30
0.0
 11
0.315432
 21
-0.151667
 31
0.0
  0
LINE
  5
49
100
AcDbEntity
  8
ASHADE
  6
Continuous
 62
           7
100
AcDbLine
 10
-0.109659
 20
0.27924
 30
0.0
 11
-0.127936
 21
0.32578
 31
0.0
  0
LINE
  5
4A
100
AcDbEntity
  8
ASHADE
  6
Continuous
 62
           7
100
AcDbLine
 10
-0.204141
 20
0.219832
 30
0.0
 11
-0.272188
 21
0.29311
 31
0.0
  0
LINE
  5
4B
100
AcDbEntity
  8
ASHADE
  6
Continuous
 62
           7
100
AcDbLine
 10
-0.27037
 20
0.13
 30
0.0
 11
-0.315432
 21
0.151667
 31
0.0
  0
LINE
  5
4C
100
AcDbEntity
  8
ASHADE
  6
Continuous
 62
           7
100
AcDbLine
 10
0.27037
 20
0.13
 30
0.0
 11
0.315432
 21
0.151667
 31
0.0
  0
LINE
  5
4D
100
AcDbEntity
  8
ASHADE
  6
Continuous
 62
           7
100
AcDbLine
 10
0.204141
 20
0.219832
 30
0.0
 11
0.272188
 21
0.29311
 31
0.0
  0
LINE
  5
4E
100
AcDbEntity
  8
ASHADE
  6
Continuous
 62
           7
100
AcDbLine
 10
0.109659
 20
0.27924
 30
0.0
 11
0.127936
 21
0.32578
 31
0.0
  0
LINE
  5
4F
100
AcDbEntity
  8
ASHADE
  6
Continuous
 62
           7
100
AcDbLine
 10
0.0
 20
0.3
 30
0.0
 11
0.0
 21
0.4
 31
0.0
  0
ENDBLK
  5
50
100
AcDbEntity
  8
0
100
AcDbBlockEnd
  0
BLOCK
  5
83
100
AcDbEntity
  8
0
100
AcDbBlockBegin
  2
DIRECT
 70
           2
 10
0.0
 20
0.0
 30
0.0
  3
DIRECT
  1

  0
ATTDEF
  5
84
100
AcDbEntity
  8
ASHADE
  6
Continuous
 62
           1
100
AcDbText
 10
0.0
 20
-0.1
 30
0.0
 40
0.2
  1

  7
ASHADE
 72
           1
 11
0.0
 21
-0.1
 31
0.0
100
AcDbAttributeDefinition
  3
Light Name
  2
SNAME
 70
           0
  0
ATTDEF
  5
85
100
AcDbEntity
  8
ASHADE
  6
Continuous
 62
           7
100
AcDbText
 10
0.0
 20
0.28
 30
0.0
 40
0.01
  1

100
AcDbAttributeDefinition
  3

  2
GNAME
 70
           1
  0
ATTDEF
  5
86
100
AcDbEntity
  8
ASHADE
  6
Continuous
 62
           7
100
AcDbText
 10
0.0
 20
0.265
 30
0.0
 40
0.01
  1

100
AcDbAttributeDefinition
  3
Look-at X
  2
LAX
 70
           1
  0
ATTDEF
  5
87
100
AcDbEntity
  8
ASHADE
  6
Continuous
 62
           7
100
AcDbText
 10
0.0
 20
0.25
 30
0.0
 40
0.01
  1

100
AcDbAttributeDefinition
  3
Look-at Y
  2
LAY
 70
           1
  0
ATTDEF
  5
88
100
AcDbEntity
  8
ASHADE
  6
Continuous
 62
           7
100
AcDbText
 10
0.0
 20
0.235
 30
0.0
 40
0.01
  1

100
AcDbAttributeDefinition
  3
Look-at Z
  2
LAZ
 70
           1
  0
ATTDEF
  5
89
100
AcDbEntity
  8
ASHADE
  6
Continuous
 62
           7
100
AcDbText
 10
0.0
 20
0.22
 30
0.0
 40
0.01
  1
1
100
AcDbAttributeDefinition
  3
Light Intensity
  2
INTENSITY
 70
           1
  0
ATTDEF
  5
8A
100
AcDbEntity
  8
ASHADE
  6
Continuous
 62
           7
100
AcDbText
 10
0.0
 20
0.205
 30
0.0
 40
0.01
  1
1,1,1
100
AcDbAttributeDefinition
  3
Light Color (RGB)
  2
COLOR
 70
           1
  0
ATTDEF
  5
8B
100
AcDbEntity
  8
ASHADE
  6
Continuous
 62
           7
100
AcDbText
 10
0.0
 20
0.19
 30
0.0
 40
0.01
  1
0
100
AcDbAttributeDefinition
  3
Depth Map Size
  2
CONEA
 70
           1
  0
ATTDEF
  5
8C
100
AcDbEntity
  8
ASHADE
  6
Continuous
 62
           7
100
AcDbText
 10
0.0
 20
0.175
 30
0.0
 40
0.01
  1
-1
100
AcDbAttributeDefinition
  3
*not used*
  2
CONED
 70
           1
  0
ATTDEF
  5
8D
100
AcDbEntity
  8
ASHADE
  6
Continuous
 62
           7
100
AcDbText
 10
0.0
 20
0.16
 30
0.0
 40
0.01
  1
-1
100
AcDbAttributeDefinition
  3
*not used*
  2
BEAMD
 70
           1
  0
ARC
  5
8E
100
AcDbEntity
  8
ASHADE
  6
Continuous
 62
           7
100
AcDbCircle
 10
0.0
 20
0.0
 30
0.0
 40
0.3
100
AcDbArc
 50
205.679289
 51
334.320711
  0
ARC
  5
8F
100
AcDbEntity
  8
ASHADE
  6
Continuous
 62
           7
100
AcDbCircle
 10
0.0
 20
0.0
 30
0.0
 40
0.3
100
AcDbArc
 50
25.679289
 51
154.320711
  0
LINE
  5
90
100
AcDbEntity
  8
ASHADE
  6
Continuous
 62
           7
100
AcDbLine
 10
0.21
 20
0.214243
 30
0.0
 11
0.21
 21
0.5
 31
0.0
  0
LINE
  5
91
100
AcDbEntity
  8
ASHADE
  6
Continuous
 62
           7
100
AcDbLine
 10
0.11
 20
0.279106
 30
0.0
 11
0.11
 21
0.5
 31
0.0
  0
LINE
  5
92
100
AcDbEntity
  8
ASHADE
  6
Continuous
 62
           7
100
AcDbLine
 10
0.0
 20
0.3
 30
0.0
 11
0.0
 21
0.5
 31
0.0
  0
LINE
  5
93
100
AcDbEntity
  8
ASHADE
  6
Continuous
 62
           7
100
AcDbLine
 10
-0.11
 20
0.279106
 30
0.0
 11
-0.11
 21
0.5
 31
0.0
  0
LINE
  5
94
100
AcDbEntity
  8
ASHADE
  6
Continuous
 62
           7
100
AcDbLine
 10
-0.21
 20
0.214243
 30
0.0
 11
-0.21
 21
0.5
 31
0.0
  0
ENDBLK
  5
95
100
AcDbEntity
  8
0
100
AcDbBlockEnd
  0
BLOCK
  5
BB
100
AcDbEntity
  8
0
100
AcDbBlockBegin
  2
SH_SPOT
 70
           2
 10
0.0
 20
0.0
 30
0.0
  3
SH_SPOT
  1

  0
ATTDEF
  5
BC
100
AcDbEntity
  8
ASHADE
  6
Continuous
 62
           1
100
AcDbText
 10
0.0
 20
-0.1
 30
0.0
 40
0.2
  1

  7
ASHADE
 72
           1
 11
0.0
 21
-0.1
 31
0.0
100
AcDbAttributeDefinition
  3
Light Name
  2
SNAME
 70
           0
  0
ATTDEF
  5
BD
100
AcDbEntity
  8
ASHADE
  6
Continuous
 62
           7
100
AcDbText
 10
0.0
 20
-0.15
 30
0.0
 40
0.01
  1

100
AcDbAttributeDefinition
  3

  2
GNAME
 70
           1
  0
ATTDEF
  5
BE
100
AcDbEntity
  8
ASHADE
  6
Continuous
 62
           7
100
AcDbText
 10
0.0
 20
-0.165
 30
0.0
 40
0.01
  1

100
AcDbAttributeDefinition
  3
Look-at X
  2
LAX
 70
           1
  0
ATTDEF
  5
BF
100
AcDbEntity
  8
ASHADE
  6
Continuous
 62
           7
100
AcDbText
 10
0.0
 20
-0.18
 30
0.0
 40
0.01
  1

100
AcDbAttributeDefinition
  3
Look-at Y
  2
LAY
 70
           1
  0
ATTDEF
  5
C0
100
AcDbEntity
  8
ASHADE
  6
Continuous
 62
           7
100
AcDbText
 10
0.0
 20
-0.195
 30
0.0
 40
0.01
  1

100
AcDbAttributeDefinition
  3
Look-at Z
  2
LAZ
 70
           1
  0
ATTDEF
  5
C1
100
AcDbEntity
  8
ASHADE
  6
Continuous
 62
           7
100
AcDbText
 10
0.0
 20
-0.21
 30
0.0
 40
0.01
  1
1
100
AcDbAttributeDefinition
  3
Light Intensity
  2
INTENSITY
 70
           1
  0
ATTDEF
  5
C2
100
AcDbEntity
  8
ASHADE
  6
Continuous
 62
           7
100
AcDbText
 10
0.0
 20
-0.225
 30
0.0
 40
0.01
  1
1,1,1
100
AcDbAttributeDefinition
  3
Light Color (RGB)
  2
COLOR
 70
           1
  0
ATTDEF
  5
C3
100
AcDbEntity
  8
ASHADE
  6
Continuous
 62
           7
100
AcDbText
 10
0.0
 20
-0.24
 30
0.0
 40
0.01
  1
0
100
AcDbAttributeDefinition
  3
Depth Map Size
  2
ZSIZE
 70
           1
  0
ATTDEF
  5
C4
100
AcDbEntity
  8
ASHADE
  6
Continuous
 62
           7
100
AcDbText
 10
0.0
 20
-0.255
 30
0.0
 40
0.01
  1
-1
100
AcDbAttributeDefinition
  3
*not used*
  2
BIASMIN
 70
           1
  0
ATTDEF
  5
C5
100
AcDbEntity
  8
ASHADE
  6
Continuous
 62
           7
100
AcDbText
 10
0.0
 20
-0.27
 30
0.0
 40
0.01
  1
-1
100
AcDbAttributeDefinition
  3
*not used*
  2
BIASMAX
 70
           1
  0
ATTDEF
  5
C6
100
AcDbEntity
  8
ASHADE
  6
Continuous
 62
           7
100
AcDbText
 10
0.0
 20
-0.285
 30
0.0
 40
0.01
  1
10.0
100
AcDbAttributeDefinition
  3
Cone Angle
  2
CONEAN
 70
           1
  0
ATTDEF
  5
C7
100
AcDbEntity
  8
ASHADE
  6
Continuous
 62
           7
100
AcDbText
 10
0.0
 20
-0.3
 30
0.0
 40
0.01
  1
0.0
100
AcDbAttributeDefinition
  3
Cone Delta
  2
CONEDE
 70
           1
  0
ATTDEF
  5
C8
100
AcDbEntity
  8
ASHADE
  6
Continuous
 62
           7
100
AcDbText
 10
0.0
 20
-0.315
 30
0.0
 40
0.01
  1
0.0
100
AcDbAttributeDefinition
  3
Beam Distribution
  2
BIAMDI
 70
           1
  0
LINE
  5
C9
100
AcDbEntity
  8
ASHADE
  6
Continuous
 62
           7
100
AcDbLine
 10
-0.25
 20
-0.13
 30
0.0
 11
-0.25
 21
-0.34
 31
0.0
  0
LINE
  5
CA
100
AcDbEntity
  8
ASHADE
  6
Continuous
 62
           7
100
AcDbLine
 10
-0.25
 20
-0.34
 30
0.0
 11
0.25
 21
-0.34
 31
0.0
  0
LINE
  5
CB
100
AcDbEntity
  8
ASHADE
  6
Continuous
 62
           7
100
AcDbLine
 10
0.25
 20
-0.34
 30
0.0
 11
0.25
 21
-0.13
 31
0.0
  0
LINE
  5
CC
100
AcDbEntity
  8
ASHADE
  6
Continuous
 62
           7
100
AcDbLine
 10
0.25
 20
0.13
 30
0.0
 11
0.25
 21
0.26
 31
0.0
  0
LINE
  5
CD
100
AcDbEntity
  8
ASHADE
  6
Continuous
 62
           7
100
AcDbLine
 10
0.25
 20
0.26
 30
0.0
 11
-0.25
 21
0.26
 31
0.0
  0
LINE
  5
CE
100
AcDbEntity
  8
ASHADE
  6
Continuous
 62
           7
100
AcDbLine
 10
-0.25
 20
0.26
 30
0.0
 11
-0.25
 21
0.13
 31
0.0
  0
LINE
  5
CF
100
AcDbEntity
  8
ASHADE
  6
Continuous
 62
           7
100
AcDbLine
 10
-0.21
 20
0.26
 30
0.0
 11
-0.301304
 21
0.46
 31
0.0
  0
LINE
  5
D0
100
AcDbEntity
  8
ASHADE
  6
Continuous
 62
           7
100
AcDbLine
 10
-0.104545
 20
0.26
 30
0.0
 11
-0.15
 21
0.46
 31
0.0
  0
LINE
  5
D1
100
AcDbEntity
  8
ASHADE
  6
Continuous
 62
           7
100
AcDbLine
 10
0.0
 20
0.26
 30
0.0
 11
0.0
 21
0.46
 31
0.0
  0
LINE
  5
D2
100
AcDbEntity
  8
ASHADE
  6
Continuous
 62
           7
100
AcDbLine
 10
0.104545
 20
0.26
 30
0.0
 11
0.15
 21
0.46
 31
0.0
  0
LINE
  5
D3
100
AcDbEntity
  8
ASHADE
  6
Continuous
 62
           7
100
AcDbLine
 10
0.21
 20
0.26
 30
0.0
 11
0.301304
 21
0.46
 31
0.0
  0
LINE
  5
D4
100
AcDbEntity
  8
ASHADE
  6
Continuous
 62
           7
100
AcDbLine
 10
-0.29
 20
-0.18
 30
0.0
 11
-0.29
 21
-0.22
 31
0.0
  0
LINE
  5
D5
100
AcDbEntity
  8
ASHADE
  6
Continuous
 62
           7
100
AcDbLine
 10
0.29
 20
-0.18
 30
0.0
 11
0.29
 21
-0.22
 31
0.0
  0
LINE
  5
D6
100
AcDbEntity
  8
ASHADE
  6
Continuous
 62
           7
100
AcDbLine
 10
0.29
 20
0.22
 30
0.0
 11
0.29
 21
0.18
 31
0.0
  0
LINE
  5
D7
100
AcDbEntity
  8
ASHADE
  6
Continuous
 62
           7
100
AcDbLine
 10
-0.29
 20
0.22
 30
0.0
 11
-0.29
 21
0.18
 31
0.0
  0
LINE
  5
D8
100
AcDbEntity
  8
ASHADE
  6
Continuous
 62
           7
100
AcDbLine
 10
-0.29
 20
-0.22
 30
0.0
 11
-0.25
 21
-0.22
 31
0.0
  0
LINE
  5
D9
100
AcDbEntity
  8
ASHADE
  6
Continuous
 62
           7
100
AcDbLine
 10
-0.25
 20
-0.18
 30
0.0
 11
-0.29
 21
-0.18
 31
0.0
  0
LINE
  5
DA
100
AcDbEntity
  8
ASHADE
  6
Continuous
 62
           7
100
AcDbLine
 10
0.29
 20
-0.22
 30
0.0
 11
0.25
 21
-0.22
 31
0.0
  0
LINE
  5
DB
100
AcDbEntity
  8
ASHADE
  6
Continuous
 62
           7
100
AcDbLine
 10
0.25
 20
-0.18
 30
0.0
 11
0.29
 21
-0.18
 31
0.0
  0
LINE
  5
DC
100
AcDbEntity
  8
ASHADE
  6
Continuous
 62
           7
100
AcDbLine
 10
0.29
 20
0.18
 30
0.0
 11
0.25
 21
0.18
 31
0.0
  0
LINE
  5
DD
100
AcDbEntity
  8
ASHADE
  6
Continuous
 62
           7
100
AcDbLine
 10
0.25
 20
0.22
 30
0.0
 11
0.29
 21
0.22
 31
0.0
  0
LINE
  5
DE
100
AcDbEntity
  8
ASHADE
  6
Continuous
 62
           7
100
AcDbLine
 10
-0.29
 20
0.18
 30
0.0
 11
-0.25
 21
0.18
 31
0.0
  0
LINE
  5
DF
100
AcDbEntity
  8
ASHADE
  6
Continuous
 62
           7
100
AcDbLine
 10
-0.25
 20
0.22
 30
0.0
 11
-0.29
 21
0.22
 31
0.0
  0
ATTDEF
  5
E0
100
AcDbEntity
  8
ASHADE
  6
Continuous
 62
           7
100
AcDbText
 10
0.0
 20
-0.33
 30
0.0
 40
0.01
  1
0,0,0
100
AcDbAttributeDefinition
  3
Look-from XYZ
  2
LFXYZ
 70
           1
  0
ENDBLK
  5
E1
100
AcDbEntity
  8
0
100
AcDbBlockEnd
  0
BLOCK
  5
163
100
AcDbEntity
  8
0
100
AcDbBlockBegin
  2
*D3
 70
           1
 10
0.0
 20
0.0
 30
0.0
  3
*D3
  1

  0
MTEXT
  5
164
100
AcDbEntity
  8
0
  6
Continuous
 62
           7
100
AcDbMText
 10
-3.387577632235
 20
0.191641516796
 30
0.0
 40
0.120000001788
 41
0.0
 71
           5
 72
           1
  1
\A1;dia 5.28{}
 73
           1
 44
1.0
1001
TCAD
1000
TCW_REFPOINT
1002
{
1010
-3.387577632235
1020
0.191641516796
1030
0.0
1002
}
1000
TCW_ATTRIBUTE
1002
{
1000
dia 5.28
1002
}
  0
LWPOLYLINE
  5
165
100
AcDbEntity
  8
0
370
           0
  6
Continuous
 62
           7
100
AcDbPolyline
 90
        3
 70
           0
 10
-2.814870172853
 20
0.027035346903
 40
0.0
 41
0.0
 10
-3.034160520316
 20
0.029141515306
 40
0.0
 41
0.0
 10
-3.678494744154
 20
0.029141515306
 40
0.0
 41
0.0
1001
TCAD
1000
TCW_ATTRIBUTE
1002
{
1000
dia 5.28
1002
}
  0
LINE
  5
166
100
AcDbEntity
  8
0
370
           0
  6
Continuous
 62
           7
100
AcDbLine
 10
2.639878243812
 20
-0.0253546415
 30
0.0
 11
2.639878243812
 21
-0.0253546415
 31
0.0
1001
TCAD
1000
TCW_ATTRIBUTE
1002
{
1000
dia 5.28
1002
}
  0
LWPOLYLINE
  5
169
100
AcDbEntity
  8
0
370
           0
  6
Continuous
 62
           7
100
AcDbPolyline
 90
        4
 70
           0
 10
-2.639878243812
 20
0.0253546415
 40
0.0
 41
0.0
 10
-2.814651681151
 20
0.049784297678
 40
0.0
 41
0.0
 10
-2.815088664555
 20
0.004286396128
 40
0.0
 41
0.0
 10
-2.639878243812
 20
0.0253546415
 40
0.0
 41
0.0
1001
TCAD
1000
TCW_ATTRIBUTE
1002
{
1000
dia 5.28
1002
}
  0
HATCH
  5
167
100
AcDbEntity
  8
0
  6
Continuous
 62
           7
100
AcDbHatch
 10
0.0
 20
0.0
 30
0.0
210
0.0
220
0.0
230
1.0
  2
SOLID
 70
           1
 71
           1
 91
        1
 92
        3
 72
           0
 73
           1
 93
        3
 10
-2.6398782438124733
 20
0.0253546415004171
 10
-2.8146516811507487
 20
0.0497842976781847
 10
-2.8150886645553959
 20
0.004286396127629
 97
        1
330
168
 75
           0
 76
           0
 98
        0
1001
TCAD
1000
TCW_ATTRIBUTE
1002
{
1000
dia 5.28
1002
}
  0
LWPOLYLINE
  5
16A
100
AcDbEntity
  8
0
370
           0
  6
Continuous
 62
           7
100
AcDbPolyline
 90
        2
 70
           0
 10
-0.0875
 20
0.0
 10
0.0875
 20
0.0
1001
TCAD
1000
TCW_ATTRIBUTE
1002
{
1000
dia 5.28
1002
}
  0
LWPOLYLINE
  5
16B
100
AcDbEntity
  8
0
370
           0
  6
Continuous
 62
           7
100
AcDbPolyline
 90
        2
 70
           0
 10
0.0
 20
-0.0875
 40
0.0
 41
0.0
 10
0.0
 20
0.0875
 40
0.0
 41
0.0
1001
TCAD
1000
TCW_ATTRIBUTE
1002
{
1000
dia 5.28
1002
}
  0
ENDBLK
  5
16C
100
AcDbEntity
  8
0
100
AcDbBlockEnd
  0
BLOCK
  5
16F
100
AcDbEntity
  8
0
100
AcDbBlockBegin
  2
*D4
 70
           1
 10
0.0
 20
0.0
 30
0.0
  3
*D4
  1

  0
MTEXT
  5
170
100
AcDbEntity
  8
0
  6
Continuous
 62
           7
100
AcDbMText
 10
-3.507454996826
 20
-0.311843414485
 30
0.0
 40
0.120000001788
 41
0.0
 71
           5
 72
           1
  1
\A1;dia 5.12{}
 73
           1
 44
1.0
1001
TCAD
1000
TCW_REFPOINT
1002
{
1010
-3.507454996826
1020
-0.311843414485
1030
0.0
1002
}
1000
TCW_ATTRIBUTE
1002
{
1000
dia 5.12
1002
}
  0
LWPOLYLINE
  5
171
100
AcDbEntity
  8
0
370
           0
  6
Continuous
 62
           7
100
AcDbPolyline
 90
        3
 70
           0
 10
-2.704585025876
 20
-0.406749109168
 40
0.0
 41
0.0
 10
-3.154037884907
 20
-0.474343415975
 40
0.0
 41
0.0
 10
-3.798372108744
 20
-0.474343415975
 40
0.0
 41
0.0
1001
TCAD
1000
TCW_ATTRIBUTE
1002
{
1000
dia 5.12
1002
}
  0
LINE
  5
172
100
AcDbEntity
  8
0
370
           0
  6
Continuous
 62
           7
100
AcDbLine
 10
2.531531139394
 20
0.38072311498
 30
0.0
 11
2.531531139394
 21
0.38072311498
 31
0.0
1001
TCAD
1000
TCW_ATTRIBUTE
1002
{
1000
dia 5.12
1002
}
  0
LWPOLYLINE
  5
175
100
AcDbEntity
  8
0
370
           0
  6
Continuous
 62
           7
100
AcDbPolyline
 90
        4
 70
           0
 10
-2.531531139394
 20
-0.38072311498
 40
0.0
 41
0.0
 10
-2.70796840512
 20
-0.384252103926
 40
0.0
 41
0.0
 10
-2.701201646631
 20
-0.429246114411
 40
0.0
 41
0.0
 10
-2.531531139394
 20
-0.38072311498
 40
0.0
 41
0.0
1001
TCAD
1000
TCW_ATTRIBUTE
1002
{
1000
dia 5.12
1002
}
  0
HATCH
  5
173
100
AcDbEntity
  8
0
  6
Continuous
 62
           7
100
AcDbHatch
 10
0.0
 20
0.0
 30
0.0
210
0.0
220
0.0
230
1.0
  2
SOLID
 70
           1
 71
           1
 91
        1
 92
        3
 72
           0
 73
           1
 93
        3
 10
-2.531531139393663
 20
-0.3807231149801947
 10
-2.7079684051201047
 20
-0.3842521039256355
 10
-2.7012016466311985
 20
-0.4292461144109525
 97
        1
330
174
 75
           0
 76
           0
 98
        0
1001
TCAD
1000
TCW_ATTRIBUTE
1002
{
1000
dia 5.12
1002
}
  0
LWPOLYLINE
  5
176
100
AcDbEntity
  8
0
370
           0
  6
Continuous
 62
           7
100
AcDbPolyline
 90
        2
 70
           0
 10
-0.0875
 20
0.0
 10
0.0875
 20
0.0
1001
TCAD
1000
TCW_ATTRIBUTE
1002
{
1000
dia 5.12
1002
}
  0
LWPOLYLINE
  5
177
100
AcDbEntity
  8
0
370
           0
  6
Continuous
 62
           7
100
AcDbPolyline
 90
        2
 70
           0
 10
0.0
 20
-0.0875
 40
0.0
 41
0.0
 10
0.0
 20
0.0875
 40
0.0
 41
0.0
1001
TCAD
1000
TCW_ATTRIBUTE
1002
{
1000
dia 5.12
1002
}
  0
ENDBLK
  5
178
100
AcDbEntity
  8
0
100
AcDbBlockEnd
  0
BLOCK
  5
17B
100
AcDbEntity
  8
0
100
AcDbBlockBegin
  2
*D5
 70
           1
 10
0.0
 20
0.0
 30
0.0
  3
*D5
  1

  0
MTEXT
  5
17C
100
AcDbEntity
  8
0
  6
Continuous
 62
           7
100
AcDbMText
 10
-3.378390929123
 20
-0.947193446816
 30
0.0
 40
0.120000001788
 41
0.0
 71
           5
 72
           1
  1
\A1;dia 2.2{}
 73
           1
 44
1.0
1001
TCAD
1000
TCW_REFPOINT
1002
{
1010
-3.378390929123
1020
-0.947193446816
1030
0.0
1002
}
1000
TCW_ATTRIBUTE
1002
{
1000
dia 2.2
1002
}
  0
LWPOLYLINE
  5
17D
100
AcDbEntity
  8
0
370
           0
  6
Continuous
 62
           7
100
AcDbPolyline
 90
        3
 70
           0
 10
-1.199076703285
 20
-0.433405191062
 40
0.0
 41
0.0
 10
-3.070123729693
 20
-1.109693448306
 40
0.0
 41
0.0
 10
-3.624158128552
 20
-1.109693448306
 40
0.0
 41
0.0
1001
TCAD
1000
TCW_ATTRIBUTE
1002
{
1000
dia 2.2
1002
}
  0
LINE
  5
17E
100
AcDbEntity
  8
0
370
           0
  6
Continuous
 62
           7
100
AcDbLine
 10
1.034497547932
 20
0.373918204053
 30
0.0
 11
1.034497547932
 21
0.373918204053
 31
0.0
1001
TCAD
1000
TCW_ATTRIBUTE
1002
{
1000
dia 2.2
1002
}
  0
LWPOLYLINE
  5
181
100
AcDbEntity
  8
0
370
           0
  6
Continuous
 62
           7
100
AcDbPolyline
 90
        4
 70
           0
 10
-1.034497547932
 20
-0.373918204053
 40
0.0
 41
0.0
 10
-1.206810011596
 20
-0.412009900866
 40
0.0
 41
0.0
 10
-1.191343394974
 20
-0.454800481258
 40
0.0
 41
0.0
 10
-1.034497547932
 20
-0.373918204053
 40
0.0
 41
0.0
1001
TCAD
1000
TCW_ATTRIBUTE
1002
{
1000
dia 2.2
1002
}
  0
HATCH
  5
17F
100
AcDbEntity
  8
0
  6
Continuous
 62
           7
100
AcDbHatch
 10
0.0
 20
0.0
 30
0.0
210
0.0
220
0.0
230
1.0
  2
SOLID
 70
           1
 71
           1
 91
        1
 92
        3
 72
           0
 73
           1
 93
        3
 10
-1.0344975479320984
 20
-0.3739182040533413
 10
-1.2068100115960354
 20
-0.412009900865959
 10
-1.1913433949738288
 20
-0.4548004812576958
 97
        1
330
180
 75
           0
 76
           0
 98
        0
1001
TCAD
1000
TCW_ATTRIBUTE
1002
{
1000
dia 2.2
1002
}
  0
LWPOLYLINE
  5
182
100
AcDbEntity
  8
0
370
           0
  6
Continuous
 62
           7
100
AcDbPolyline
 90
        2
 70
           0
 10
-0.0875
 20
0.0
 10
0.0875
 20
0.0
1001
TCAD
1000
TCW_ATTRIBUTE
1002
{
1000
dia 2.2
1002
}
  0
LWPOLYLINE
  5
183
100
AcDbEntity
  8
0
370
           0
  6
Continuous
 62
           7
100
AcDbPolyline
 90
        2
 70
           0
 10
0.0
 20
-0.0875
 40
0.0
 41
0.0
 10
0.0
 20
0.0875
 40
0.0
 41
0.0
1001
TCAD
1000
TCW_ATTRIBUTE
1002
{
1000
dia 2.2
1002
}
  0
ENDBLK
  5
184
100
AcDbEntity
  8
0
100
AcDbBlockEnd
  0
BLOCK
  5
187
100
AcDbEntity
  8
0
100
AcDbBlockBegin
  2
*D6
 70
           1
 10
0.0
 20
0.0
 30
0.0
  3
*D6
  1

  0
MTEXT
  5
188
100
AcDbEntity
  8
0
  6
Continuous
 62
           7
100
AcDbMText
 10
-3.351614422858
 20
-1.318813277047
 30
0.0
 40
0.120000001788
 41
0.0
 71
           5
 72
           1
  1
\A1;dia 2.13{}
 73
           1
 44
1.0
1001
TCAD
1000
TCW_REFPOINT
1002
{
1010
-3.351614422858
1020
-1.318813277047
1030
0.0
1002
}
1000
TCW_ATTRIBUTE
1002
{
1000
dia 2.13
1002
}
  0
LWPOLYLINE
  5
189
100
AcDbEntity
  8
0
370
           0
  6
Continuous
 62
           7
100
AcDbPolyline
 90
        3
 70
           0
 10
-1.110693500517
 20
-0.548758090302
 40
0.0
 41
0.0
 10
-2.998197310939
 20
-1.481313278537
 40
0.0
 41
0.0
 10
-3.642531534777
 20
-1.481313278537
 40
0.0
 41
0.0
1001
TCAD
1000
TCW_ATTRIBUTE
1002
{
1000
dia 2.13
1002
}
  0
LINE
  5
18A
100
AcDbEntity
  8
0
370
           0
  6
Continuous
 62
           7
100
AcDbLine
 10
0.953798230423
 20
0.471241161686
 30
0.0
 11
0.953798230423
 21
0.471241161686
 31
0.0
1001
TCAD
1000
TCW_ATTRIBUTE
1002
{
1000
dia 2.13
1002
}
  0
LWPOLYLINE
  5
18D
100
AcDbEntity
  8
0
370
           0
  6
Continuous
 62
           7
100
AcDbPolyline
 90
        4
 70
           0
 10
-0.953798230423
 20
-0.471241161686
 40
0.0
 41
0.0
 10
-1.120770701237
 20
-0.52836170519
 40
0.0
 41
0.0
 10
-1.100616299797
 20
-0.569154475415
 40
0.0
 41
0.0
 10
-0.953798230423
 20
-0.471241161686
 40
0.0
 41
0.0
1001
TCAD
1000
TCW_ATTRIBUTE
1002
{
1000
dia 2.13
1002
}
  0
HATCH
  5
18B
100
AcDbEntity
  8
0
  6
Continuous
 62
           7
100
AcDbHatch
 10
0.0
 20
0.0
 30
0.0
210
0.0
220
0.0
230
1.0
  2
SOLID
 70
           1
 71
           1
 91
        1
 92
        3
 72
           0
 73
           1
 93
        3
 10
-0.95379823042332
 20
-0.4712411616860527
 10
-1.1207707012374903
 20
-0.5283617051902162
 10
-1.1006162997972291
 20
-0.5691544754146666
 97
        1
330
18C
 75
           0
 76
           0
 98
        0
1001
TCAD
1000
TCW_ATTRIBUTE
1002
{
1000
dia 2.13
1002
}
  0
LWPOLYLINE
  5
18E
100
AcDbEntity
  8
0
370
           0
  6
Continuous
 62
           7
100
AcDbPolyline
 90
        2
 70
           0
 10
-0.0875
 20
0.0
 10
0.0875
 20
0.0
1001
TCAD
1000
TCW_ATTRIBUTE
1002
{
1000
dia 2.13
1002
}
  0
LWPOLYLINE
  5
18F
100
AcDbEntity
  8
0
370
           0
  6
Continuous
 62
           7
100
AcDbPolyline
 90
        2
 70
           0
 10
0.0
 20
-0.0875
 40
0.0
 41
0.0
 10
0.0
 20
0.0875
 40
0.0
 41
0.0
1001
TCAD
1000
TCW_ATTRIBUTE
1002
{
1000
dia 2.13
1002
}
  0
ENDBLK
  5
190
100
AcDbEntity
  8
0
100
AcDbBlockEnd
  0
BLOCK
  5
1DC
100
AcDbEntity
  8
0
100
AcDbBlockBegin
  2
*D7
 70
           1
 10
0.0
 20
0.0
 30
0.0
  3
*D7
  1

  0
LINE
  5
1DD
100
AcDbEntity
  8
0
370
           0
  6
Continuous
 62
           7
100
AcDbLine
 10
6.0
 20
2.7025
 30
0.0
 11
6.0
 21
2.98082137772
 31
0.0
  0
LINE
  5
1DE
100
AcDbEntity
  8
0
370
           0
  6
Continuous
 62
           7
100
AcDbLine
 10
7.1
 20
2.7025
 30
0.0
 11
7.1
 21
2.98082137772
 31
0.0
  0
LWPOLYLINE
  5
1DF
100
AcDbEntity
  8
0
370
           0
  6
Continuous
 62
           7
100
AcDbPolyline
 90
        4
 70
           0
 10
6.175
 20
2.85582137772
 10
6.175
 20
2.85582137772
 10
6.175
 20
2.85582137772
 10
6.388734569583
 20
2.85582137772
  0
LWPOLYLINE
  5
1E0
100
AcDbEntity
  8
0
370
           0
  6
Continuous
 62
           7
100
AcDbPolyline
 90
        4
 70
           0
 10
6.925
 20
2.85582137772
 10
6.925
 20
2.85582137772
 10
6.925
 20
2.85582137772
 10
6.711265430417
 20
2.85582137772
  0
LWPOLYLINE
  5
1E3
100
AcDbEntity
  8
0
370
           0
  6
Continuous
 62
           7
100
AcDbPolyline
 90
        4
 70
           0
 10
6.0
 20
2.85582137772
 40
0.0
 41
0.0
 10
6.175
 20
2.83307137772
 40
0.0
 41
0.0
 10
6.175
 20
2.87857137772
 40
0.0
 41
0.0
 10
6.0
 20
2.85582137772
 40
0.0
 41
0.0
  0
HATCH
  5
1E1
100
AcDbEntity
  8
0
  6
Continuous
 62
           7
100
AcDbHatch
 10
0.0
 20
0.0
 30
0.0
210
0.0
220
0.0
230
1.0
  2
SOLID
 70
           1
 71
           1
 91
        1
 92
        3
 72
           0
 73
           1
 93
        3
 10
6.0
 20
2.8558213777199004
 10
6.1749999999999998
 20
2.8330713777199006
 10
6.1749999999999998
 20
2.8785713777199002
 97
        1
330
1E2
 75
           0
 76
           0
 98
        0
  0
LWPOLYLINE
  5
1E6
100
AcDbEntity
  8
0
370
           0
  6
Continuous
 62
           7
100
AcDbPolyline
 90
        4
 70
           0
 10
7.1
 20
2.85582137772
 40
0.0
 41
0.0
 10
6.925
 20
2.87857137772
 40
0.0
 41
0.0
 10
6.925
 20
2.83307137772
 40
0.0
 41
0.0
 10
7.1
 20
2.85582137772
 40
0.0
 41
0.0
  0
HATCH
  5
1E4
100
AcDbEntity
  8
0
  6
Continuous
 62
           7
100
AcDbHatch
 10
0.0
 20
0.0
 30
0.0
210
0.0
220
0.0
230
1.0
  2
SOLID
 70
           1
 71
           1
 91
        1
 92
        3
 72
           0
 73
           1
 93
        3
 10
7.1000000000000005
 20
2.8558213777199009
 10
6.9250000000000007
 20
2.8785713777199007
 10
6.9250000000000007
 20
2.833071377719901
 97
        1
330
1E5
 75
           0
 76
           0
 98
        0
  0
MTEXT
  5
1E7
100
AcDbEntity
  8
0
  6
Continuous
 62
           7
100
AcDbMText
 10
6.55
 20
2.85582137772
 30
0.0
 40
0.104999998212
 41
0.0
 71
           5
 72
           1
  1
\A1;1.1{}
 73
           1
 44
1.0
1001
TCAD
1000
TCW_REFPOINT
1002
{
1010
6.55
1020
2.85582137772
1030
0.0
1002
}
  0
ENDBLK
  5
1E8
100
AcDbEntity
  8
0
100
AcDbBlockEnd
  0
BLOCK
  5
2C7
100
AcDbEntity
  8
0
100
AcDbBlockBegin
  2
*D8
 70
           1
 10
0.0
 20
0.0
 30
0.0
  3
*D8
  1

  0
LWPOLYLINE
  5
2C8
100
AcDbEntity
  8
0
370
           0
  6
Continuous
 62
           7
100
AcDbPolyline
 90
        2
 70
           0
 10
11.09018
 20
2.87622
 10
10.717283946917
 20
2.87622
  0
LWPOLYLINE
  5
2C9
100
AcDbEntity
  8
0
370
           0
  6
Continuous
 62
           7
100
AcDbPolyline
 90
        2
 70
           0
 10
11.09018
 20
2.81310989
 10
10.717283946917
 20
2.81310989
  0
LWPOLYLINE
  5
2CA
100
AcDbEntity
  8
0
370
           0
  6
Continuous
 62
           7
100
AcDbPolyline
 90
        2
 70
           0
 10
10.5
 20
3.22622
 10
10.5
 20
3.05122
  0
LWPOLYLINE
  5
2CB
100
AcDbEntity
  8
0
370
           0
  6
Continuous
 62
           7
100
AcDbPolyline
 90
        2
 70
           0
 10
10.5
 20
3.05122
 40
0.0
 41
0.0
 10
10.5
 20
3.05122
 40
0.0
 41
0.0
  0
LWPOLYLINE
  5
2CC
100
AcDbEntity
  8
0
370
           0
  6
Continuous
 62
           7
100
AcDbPolyline
 90
        4
 70
           0
 10
10.5
 20
2.46310989
 10
10.5
 20
2.46310989
 10
10.5
 20
2.63810989
 10
10.5
 20
2.63810989
  0
MTEXT
  5
2CD
100
AcDbEntity
  8
0
  6
Continuous
 62
           7
100
AcDbMText
 10
10.5
 20
2.844664945
 30
0.0
 40
0.104999998212
 41
0.0
 71
           5
 72
           1
  1
\A1;0.0631{}
 73
           1
 44
1.0
1001
TCAD
1000
TCW_REFPOINT
1002
{
1010
10.5
1020
2.844664945
1030
0.0
1002
}
  0
ENDBLK
  5
2CE
100
AcDbEntity
  8
0
100
AcDbBlockEnd
  0
BLOCK
  5
2D1
100
AcDbEntity
  8
0
100
AcDbBlockBegin
  2
*D9
 70
           1
 10
0.0
 20
0.0
 30
0.0
  3
*D9
  1

  0
LINE
  5
2D2
100
AcDbEntity
  8
0
370
           0
  6
Continuous
 62
           7
100
AcDbLine
 10
11.15268
 20
2.93872
 30
0.0
 11
11.15268
 21
4.125
 31
0.0
  0
LINE
  5
2D3
100
AcDbEntity
  8
0
370
           0
  6
Continuous
 62
           7
100
AcDbLine
 10
12.57
 20
2.93872
 30
0.0
 11
12.57
 21
4.125
 31
0.0
  0
LWPOLYLINE
  5
2D4
100
AcDbEntity
  8
0
370
           0
  6
Continuous
 62
           7
100
AcDbPolyline
 90
        4
 70
           0
 10
11.32768
 20
4.0
 10
11.32768
 20
4.0
 10
11.32768
 20
4.0
 10
11.86134
 20
4.0
  0
LWPOLYLINE
  5
2D5
100
AcDbEntity
  8
0
370
           0
  6
Continuous
 62
           7
100
AcDbPolyline
 90
        4
 70
           0
 10
12.395
 20
4.0
 10
12.395
 20
4.0
 10
12.395
 20
4.0
 10
11.86134
 20
4.0
  0
LWPOLYLINE
  5
2D8
100
AcDbEntity
  8
0
370
           0
  6
Continuous
 62
           7
100
AcDbPolyline
 90
        4
 70
           0
 10
11.15268
 20
4.0
 40
0.0
 41
0.0
 10
11.32768
 20
3.97725
 40
0.0
 41
0.0
 10
11.32768
 20
4.02275
 40
0.0
 41
0.0
 10
11.15268
 20
4.0
 40
0.0
 41
0.0
  0
HATCH
  5
2D6
100
AcDbEntity
  8
0
  6
Continuous
 62
           7
100
AcDbHatch
 10
0.0
 20
0.0
 30
0.0
210
0.0
220
0.0
230
1.0
  2
SOLID
 70
           1
 71
           1
 91
        1
 92
        3
 72
           0
 73
           1
 93
        3
 10
11.152679999999998
 20
4.0
 10
11.327679999999999
 20
3.9772500000000002
 10
11.327679999999999
 20
4.0227500000000003
 97
        1
330
2D7
 75
           0
 76
           0
 98
        0
  0
LWPOLYLINE
  5
2DB
100
AcDbEntity
  8
0
370
           0
  6
Continuous
 62
           7
100
AcDbPolyline
 90
        4
 70
           0
 10
12.57
 20
4.0
 40
0.0
 41
0.0
 10
12.395
 20
4.02275
 40
0.0
 41
0.0
 10
12.395
 20
3.97725
 40
0.0
 41
0.0
 10
12.57
 20
4.0
 40
0.0
 41
0.0
  0
HATCH
  5
2D9
100
AcDbEntity
  8
0
  6
Continuous
 62
           7
100
AcDbHatch
 10
0.0
 20
0.0
 30
0.0
210
0.0
220
0.0
230
1.0
  2
SOLID
 70
           1
 71
           1
 91
        1
 92
        3
 72
           0
 73
           1
 93
        3
 10
12.569999999999999
 20
4.0
 10
12.394999999999998
 20
4.0227500000000003
 10
12.394999999999998
 20
3.9772500000000002
 97
        1
330
2DA
 75
           0
 76
           0
 98
        0
  0
MTEXT
  5
2DC
100
AcDbEntity
  8
0
  6
Continuous
 62
           7
100
AcDbMText
 10
11.86134
 20
4.14999999851
 30
0.0
 40
0.104999998212
 41
0.0
 71
           5
 72
           1
  1
\A1;1.4173{}
 73
           1
 44
1.0
1001
TCAD
1000
TCW_REFPOINT
1002
{
1010
11.86134
1020
4.14999999851
1030
0.0
1002
}
  0
ENDBLK
  5
2DD
100
AcDbEntity
  8
0
100
AcDbBlockEnd
  0
BLOCK
  5
2E0
100
AcDbEntity
  8
0
100
AcDbBlockBegin
  2
*D10
 70
           1
 10
0.0
 20
0.0
 30
0.0
  3
*D10
  1

  0
LWPOLYLINE
  5
2E1
100
AcDbEntity
  8
0
370
           0
  6
Continuous
 62
           7
100
AcDbPolyline
 90
        2
 70
           0
 10
11.3675
 20
-2.75811
 10
10.717283946917
 20
-2.75811
  0
LWPOLYLINE
  5
2E2
100
AcDbEntity
  8
0
370
           0
  6
Continuous
 62
           7
100
AcDbPolyline
 90
        2
 70
           0
 10
11.3675
 20
-2.87622
 10
10.717283946917
 20
-2.87622
  0
LWPOLYLINE
  5
2E3
100
AcDbEntity
  8
0
370
           0
  6
Continuous
 62
           7
100
AcDbPolyline
 90
        2
 70
           0
 10
10.5
 20
-2.40811
 10
10.5
 20
-2.58311
  0
LWPOLYLINE
  5
2E4
100
AcDbEntity
  8
0
370
           0
  6
Continuous
 62
           7
100
AcDbPolyline
 90
        2
 70
           0
 10
10.5
 20
-2.58311
 40
0.0
 41
0.0
 10
10.5
 20
-2.58311
 40
0.0
 41
0.0
  0
LWPOLYLINE
  5
2E5
100
AcDbEntity
  8
0
370
           0
  6
Continuous
 62
           7
100
AcDbPolyline
 90
        4
 70
           0
 10
10.5
 20
-3.22622
 10
10.5
 20
-3.22622
 10
10.5
 20
-3.05122
 10
10.5
 20
-3.05122
  0
MTEXT
  5
2E6
100
AcDbEntity
  8
0
  6
Continuous
 62
           7
100
AcDbMText
 10
10.5
 20
-2.817165
 30
0.0
 40
0.104999998212
 41
0.0
 71
           5
 72
           1
  1
\A1;0.1181{}
 73
           1
 44
1.0
1001
TCAD
1000
TCW_REFPOINT
1002
{
1010
10.5
1020
-2.817165
1030
0.0
1002
}
  0
ENDBLK
  5
2E7
100
AcDbEntity
  8
0
100
AcDbBlockEnd
  0
BLOCK
  5
2EA
100
AcDbEntity
  8
0
100
AcDbBlockBegin
  2
*D11
 70
           1
 10
0.0
 20
0.0
 30
0.0
  3
*D11
  1

  0
LINE
  5
2EB
100
AcDbEntity
  8
0
370
           0
  6
Continuous
 62
           7
100
AcDbLine
 10
12.6325
 20
2.87622
 30
0.0
 11
13.625
 21
2.87622
 31
0.0
  0
LINE
  5
2EC
100
AcDbEntity
  8
0
370
           0
  6
Continuous
 62
           7
100
AcDbLine
 10
12.6325
 20
2.64
 30
0.0
 11
13.625
 21
2.64
 31
0.0
  0
LWPOLYLINE
  5
2ED
100
AcDbEntity
  8
0
370
           0
  6
Continuous
 62
           7
100
AcDbPolyline
 90
        2
 70
           0
 10
13.5
 20
3.22622
 10
13.5
 20
3.05122
  0
LWPOLYLINE
  5
2EE
100
AcDbEntity
  8
0
370
           0
  6
Continuous
 62
           7
100
AcDbPolyline
 90
        2
 70
           0
 10
13.5
 20
3.05122
 40
0.0
 41
0.0
 10
13.5
 20
3.05122
 40
0.0
 41
0.0
  0
LWPOLYLINE
  5
2EF
100
AcDbEntity
  8
0
370
           0
  6
Continuous
 62
           7
100
AcDbPolyline
 90
        4
 70
           0
 10
13.5
 20
2.29
 10
13.5
 20
2.29
 10
13.5
 20
2.465
 10
13.5
 20
2.465
  0
LWPOLYLINE
  5
2F2
100
AcDbEntity
  8
0
370
           0
  6
Continuous
 62
           7
100
AcDbPolyline
 90
        4
 70
           0
 10
13.5
 20
2.64
 40
0.0
 41
0.0
 10
13.47725
 20
2.465
 40
0.0
 41
0.0
 10
13.52275
 20
2.465
 40
0.0
 41
0.0
 10
13.5
 20
2.64
 40
0.0
 41
0.0
  0
HATCH
  5
2F0
100
AcDbEntity
  8
0
  6
Continuous
 62
           7
100
AcDbHatch
 10
0.0
 20
0.0
 30
0.0
210
0.0
220
0.0
230
1.0
  2
SOLID
 70
           1
 71
           1
 91
        1
 92
        3
 72
           0
 73
           1
 93
        3
 10
13.5
 20
2.6400000000000001
 10
13.47725
 20
2.4650000000000003
 10
13.52275
 20
2.4650000000000003
 97
        1
330
2F1
 75
           0
 76
           0
 98
        0
  0
LWPOLYLINE
  5
2F5
100
AcDbEntity
  8
0
370
           0
  6
Continuous
 62
           7
100
AcDbPolyline
 90
        4
 70
           0
 10
13.5
 20
2.87622
 40
0.0
 41
0.0
 10
13.52275
 20
3.05122
 40
0.0
 41
0.0
 10
13.47725
 20
3.05122
 40
0.0
 41
0.0
 10
13.5
 20
2.87622
 40
0.0
 41
0.0
  0
HATCH
  5
2F3
100
AcDbEntity
  8
0
  6
Continuous
 62
           7
100
AcDbHatch
 10
0.0
 20
0.0
 30
0.0
210
0.0
220
0.0
230
1.0
  2
SOLID
 70
           1
 71
           1
 91
        1
 92
        3
 72
           0
 73
           1
 93
        3
 10
13.5
 20
2.8762200000000004
 10
13.52275
 20
3.0512200000000003
 10
13.47725
 20
3.0512200000000003
 97
        1
330
2F4
 75
           0
 76
           0
 98
        0
  0
MTEXT
  5
2F6
100
AcDbEntity
  8
0
  6
Continuous
 62
           7
100
AcDbMText
 10
13.5
 20
2.75811
 30
0.0
 40
0.104999998212
 41
0.0
 71
           5
 72
           1
  1
\A1;0.2362{}
 73
           1
 44
1.0
1001
TCAD
1000
TCW_REFPOINT
1002
{
1010
13.5
1020
2.75811
1030
0.0
1002
}
  0
ENDBLK
  5
2F7
100
AcDbEntity
  8
0
100
AcDbBlockEnd
  0
BLOCK
  5
2FA
100
AcDbEntity
  8
0
100
AcDbBlockBegin
  2
*D12
 70
           1
 10
0.0
 20
0.0
 30
0.0
  3
*D12
  1

  0
LWPOLYLINE
  5
2FB
100
AcDbEntity
  8
0
370
           0
  6
Continuous
 62
           7
100
AcDbPolyline
 90
        2
 70
           0
 10
11.15268
 20
-2.93872
 10
11.15268
 20
-3.26250000298
  0
LWPOLYLINE
  5
2FC
100
AcDbEntity
  8
0
370
           0
  6
Continuous
 62
           7
100
AcDbPolyline
 90
        2
 70
           0
 10
11.15268
 20
-3.4375
 40
0.0
 41
0.0
 10
11.15268
 20
-3.625
 40
0.0
 41
0.0
  0
LWPOLYLINE
  5
2FD
100
AcDbEntity
  8
0
370
           0
  6
Continuous
 62
           7
100
AcDbPolyline
 90
        2
 70
           0
 10
11.43
 20
-2.93872
 10
11.43
 20
-3.26250000298
  0
LWPOLYLINE
  5
2FE
100
AcDbEntity
  8
0
370
           0
  6
Continuous
 62
           7
100
AcDbPolyline
 90
        2
 70
           0
 10
11.43
 20
-3.4375
 40
0.0
 41
0.0
 10
11.43
 20
-3.625
 40
0.0
 41
0.0
  0
LWPOLYLINE
  5
2FF
100
AcDbEntity
  8
0
370
           0
  6
Continuous
 62
           7
100
AcDbPolyline
 90
        2
 70
           0
 10
10.80268
 20
-3.5
 10
10.97768
 20
-3.5
  0
LWPOLYLINE
  5
300
100
AcDbEntity
  8
0
370
           0
  6
Continuous
 62
           7
100
AcDbPolyline
 90
        2
 70
           0
 10
10.97768
 20
-3.5
 40
0.0
 41
0.0
 10
10.97768
 20
-3.5
 40
0.0
 41
0.0
  0
LWPOLYLINE
  5
301
100
AcDbEntity
  8
0
370
           0
  6
Continuous
 62
           7
100
AcDbPolyline
 90
        4
 70
           0
 10
12.277067893834
 20
-3.5
 10
11.78
 20
-3.5
 10
11.605
 20
-3.5
 10
11.605
 20
-3.5
  0
LWPOLYLINE
  5
304
100
AcDbEntity
  8
0
370
           0
  6
Continuous
 62
           7
100
AcDbPolyline
 90
        4
 70
           0
 10
11.43
 20
-3.5
 40
0.0
 41
0.0
 10
11.605
 20
-3.52275
 40
0.0
 41
0.0
 10
11.605
 20
-3.47725
 40
0.0
 41
0.0
 10
11.43
 20
-3.5
 40
0.0
 41
0.0
  0
HATCH
  5
302
100
AcDbEntity
  8
0
  6
Continuous
 62
           7
100
AcDbHatch
 10
0.0
 20
0.0
 30
0.0
210
0.0
220
0.0
230
1.0
  2
SOLID
 70
           1
 71
           1
 91
        1
 92
        3
 72
           0
 73
           1
 93
        3
 10
11.430000000000001
 20
-3.5
 10
11.605000000000002
 20
-3.5227499999999994
 10
11.605000000000002
 20
-3.4772499999999997
 97
        1
330
303
 75
           0
 76
           0
 98
        0
  0
LWPOLYLINE
  5
307
100
AcDbEntity
  8
0
370
           0
  6
Continuous
 62
           7
100
AcDbPolyline
 90
        4
 70
           0
 10
11.15268
 20
-3.5
 40
0.0
 41
0.0
 10
10.97768
 20
-3.47725
 40
0.0
 41
0.0
 10
10.97768
 20
-3.52275
 40
0.0
 41
0.0
 10
11.15268
 20
-3.5
 40
0.0
 41
0.0
  0
HATCH
  5
305
100
AcDbEntity
  8
0
  6
Continuous
 62
           7
100
AcDbHatch
 10
0.0
 20
0.0
 30
0.0
210
0.0
220
0.0
230
1.0
  2
SOLID
 70
           1
 71
           1
 91
        1
 92
        3
 72
           0
 73
           1
 93
        3
 10
11.15268
 20
-3.5000000000000004
 10
10.977679999999999
 20
-3.4772500000000011
 10
10.977679999999999
 20
-3.5227500000000007
 97
        1
330
306
 75
           0
 76
           0
 98
        0
  0
MTEXT
  5
308
100
AcDbEntity
  8
0
  6
Continuous
 62
           7
100
AcDbMText
 10
11.29134
 20
-3.35000000149
 30
0.0
 40
0.104999998212
 41
0.0
 71
           5
 72
           1
  1
\A1;0.2773{}
 73
           1
 44
1.0
1001
TCAD
1000
TCW_REFPOINT
1002
{
1010
11.29134
1020
-3.35000000149
1030
0.0
1002
}
  0
ENDBLK
  5
309
100
AcDbEntity
  8
0
100
AcDbBlockEnd
  0
ENDSEC
  0
SECTION
  2
ENTITIES
  0
VIEWPORT
  5
321
100
AcDbEntity
 67
           1
  8
0
100
AcDbViewport
 10
5.49999982865
 20
4.2500002235
 30
0.0
 40
13.3913164207
 41
9.4723353684
 68
           1
 69
           1
 12
5.49999982865
 22
4.2500002235
 13
0.0
 23
0.0
 14
0.5
 24
0.5
 15
0.5
 25
0.5
 16
0.0
 26
0.0
 36
1.0
 17
0.0
 27
0.0
 37
0.0
 42
50.0
 43
0.0
 44
0.0
 45
9.4723353684
 50
0.0
 51
0.0
 72
         100
 90
    32800
340
0
  1

281
           0
 71
           0
 74
           1
110
0.0
120
0.0
130
0.0
111
1.0
121
0.0
131
0.0
112
0.0
122
1.0
132
0.0
345
0
346
0
 79
           0
146
0.0
  0
VIEWPORT
  5
322
100
AcDbEntity
 67
           1
  8
0
  6
Continuous
 62
           7
100
AcDbViewport
 10
5.5
 20
4.25
 30
0.0
 40
11.0
 41
8.5
 68
           2
 69
           2
 12
0.0
 22
0.0
 13
0.0
 23
0.0
 14
0.5
 24
0.5
 15
0.5
 25
0.5
 16
0.0
 26
0.0
 36
1.0
 17
5.500000033528
 27
4.250000104308
 37
-1.0
 42
97.532499545905
 43
0.0
 44
0.0
 45
8.5
 50
0.0
 51
0.0
 72
         100
341
30
 90
    32800
340
0
  1

281
           0
 71
           0
 74
           1
110
0.0
120
0.0
130
0.0
111
1.0
121
0.0
131
0.0
112
0.0
122
1.0
132
0.0
345
0
346
0
 79
           0
146
0.0
  0
INSERT
  5
52
100
AcDbEntity
  8
0
 60
           1
100
AcDbBlockReference
 66
           1
  2
OVERHEAD
 10
-11.0
 20
-8.5
 30
0.0
1001
AVE_RENDER
1002
{
1070
           0
1000
LIGHT_0
1011
-10.0
1021
-8.5
1031
0.0
1041
100.0
1010
0.109803921569
1020
0.109803921569
1030
0.109803921569
1002
{
1070
           0
1070
           0
1040
0.0
1040
0.0
1040
3.0
1002
}
1002
{
1070
           9
1070
          21
1070
          15
1070
           0
1040
37.62
1040
122.37
1002
}
1002
}
1001
TCAD
1000
TCW_LIGTH
1002
{
1070
           0
1002
}
  0
ATTRIB
  5
53
100
AcDbEntity
  8
ASHADE
  6
Continuous
 62
           1
100
AcDbText
 10
-11.0
 20
-8.5
 30
0.0
 40
0.2
  1
LIGHT_0
  7
ASHADE
 72
           1
 11
-11.0
 21
-8.6
 31
0.0
100
AcDbAttribute
  2
SNAME
 70
           0
  0
ATTRIB
  5
54
100
AcDbEntity
  8
ASHADE
  6
Continuous
 62
           7
100
AcDbText
 10
-11.0
 20
-8.5
 30
0.0
 40
0.01
  1

100
AcDbAttribute
  2
GNAME
 70
           1
  0
ATTRIB
  5
55
100
AcDbEntity
  8
ASHADE
  6
Continuous
 62
           7
100
AcDbText
 10
-11.0
 20
-8.5
 30
0.0
 40
0.01
  1

100
AcDbAttribute
  2
LAX
 70
           1
  0
ATTRIB
  5
56
100
AcDbEntity
  8
ASHADE
  6
Continuous
 62
           7
100
AcDbText
 10
-11.0
 20
-8.5
 30
0.0
 40
0.01
  1

100
AcDbAttribute
  2
LAY
 70
           1
  0
ATTRIB
  5
57
100
AcDbEntity
  8
ASHADE
  6
Continuous
 62
           7
100
AcDbText
 10
-11.0
 20
-8.5
 30
0.0
 40
0.01
  1

100
AcDbAttribute
  2
LAZ
 70
           1
  0
ATTRIB
  5
58
100
AcDbEntity
  8
ASHADE
  6
Continuous
 62
           7
100
AcDbText
 10
-11.0
 20
-8.5
 30
0.0
 40
0.01
  1
1
100
AcDbAttribute
  2
INTENSITY
 70
           1
  0
ATTRIB
  5
59
100
AcDbEntity
  8
ASHADE
  6
Continuous
 62
           7
100
AcDbText
 10
-11.0
 20
-8.5
 30
0.0
 40
0.01
  1
1,1,1
100
AcDbAttribute
  2
COLOR
 70
           1
  0
ATTRIB
  5
5A
100
AcDbEntity
  8
ASHADE
  6
Continuous
 62
           7
100
AcDbText
 10
-11.0
 20
-8.5
 30
0.0
 40
0.01
  1
0
100
AcDbAttribute
  2
CONEA
 70
           1
  0
ATTRIB
  5
5B
100
AcDbEntity
  8
ASHADE
  6
Continuous
 62
           7
100
AcDbText
 10
-11.0
 20
-8.5
 30
0.0
 40
0.01
  1
-1
100
AcDbAttribute
  2
CONED
 70
           1
  0
ATTRIB
  5
5C
100
AcDbEntity
  8
ASHADE
  6
Continuous
 62
           7
100
AcDbText
 10
-11.0
 20
-8.5
 30
0.0
 40
0.01
  1
-1
100
AcDbAttribute
  2
BEAMD
 70
           1
  0
SEQEND
  5
5D
100
AcDbEntity
  8
0
  0
INSERT
  5
5E
100
AcDbEntity
  8
0
 60
           1
100
AcDbBlockReference
 66
           1
  2
OVERHEAD
 10
22.0
 20
19.5
 30
0.0
1001
AVE_RENDER
1002
{
1070
           0
1000
LIGHT_1
1011
23.0
1021
19.5
1031
0.0
1041
100.0
1010
0.109803921569
1020
0.109803921569
1030
0.109803921569
1002
{
1070
           0
1070
           0
1040
0.0
1040
0.0
1040
3.0
1002
}
1002
{
1070
           9
1070
          21
1070
          15
1070
           0
1040
37.62
1040
122.37
1002
}
1002
}
1001
TCAD
1000
TCW_LIGTH
1002
{
1070
           0
1002
}
  0
ATTRIB
  5
5F
100
AcDbEntity
  8
ASHADE
  6
Continuous
 62
           1
100
AcDbText
 10
22.0
 20
19.5
 30
0.0
 40
0.2
  1
LIGHT_1
  7
ASHADE
 72
           1
 11
22.0
 21
19.4
 31
0.0
100
AcDbAttribute
  2
SNAME
 70
           0
  0
ATTRIB
  5
60
100
AcDbEntity
  8
ASHADE
  6
Continuous
 62
           7
100
AcDbText
 10
22.0
 20
19.5
 30
0.0
 40
0.01
  1

100
AcDbAttribute
  2
GNAME
 70
           1
  0
ATTRIB
  5
61
100
AcDbEntity
  8
ASHADE
  6
Continuous
 62
           7
100
AcDbText
 10
22.0
 20
19.5
 30
0.0
 40
0.01
  1

100
AcDbAttribute
  2
LAX
 70
           1
  0
ATTRIB
  5
62
100
AcDbEntity
  8
ASHADE
  6
Continuous
 62
           7
100
AcDbText
 10
22.0
 20
19.5
 30
0.0
 40
0.01
  1

100
AcDbAttribute
  2
LAY
 70
           1
  0
ATTRIB
  5
63
100
AcDbEntity
  8
ASHADE
  6
Continuous
 62
           7
100
AcDbText
 10
22.0
 20
19.5
 30
0.0
 40
0.01
  1

100
AcDbAttribute
  2
LAZ
 70
           1
  0
ATTRIB
  5
64
100
AcDbEntity
  8
ASHADE
  6
Continuous
 62
           7
100
AcDbText
 10
22.0
 20
19.5
 30
0.0
 40
0.01
  1
1
100
AcDbAttribute
  2
INTENSITY
 70
           1
  0
ATTRIB
  5
65
100
AcDbEntity
  8
ASHADE
  6
Continuous
 62
           7
100
AcDbText
 10
22.0
 20
19.5
 30
0.0
 40
0.01
  1
1,1,1
100
AcDbAttribute
  2
COLOR
 70
           1
  0
ATTRIB
  5
66
100
AcDbEntity
  8
ASHADE
  6
Continuous
 62
           7
100
AcDbText
 10
22.0
 20
19.5
 30
0.0
 40
0.01
  1
0
100
AcDbAttribute
  2
CONEA
 70
           1
  0
ATTRIB
  5
67
100
AcDbEntity
  8
ASHADE
  6
Continuous
 62
           7
100
AcDbText
 10
22.0
 20
19.5
 30
0.0
 40
0.01
  1
-1
100
AcDbAttribute
  2
CONED
 70
           1
  0
ATTRIB
  5
68
100
AcDbEntity
  8
ASHADE
  6
Continuous
 62
           7
100
AcDbText
 10
22.0
 20
19.5
 30
0.0
 40
0.01
  1
-1
100
AcDbAttribute
  2
BEAMD
 70
           1
  0
SEQEND
  5
69
100
AcDbEntity
  8
0
  0
INSERT
  5
6A
100
AcDbEntity
  8
0
 60
           1
100
AcDbBlockReference
 66
           1
  2
OVERHEAD
 10
22.0
 20
-8.5
 30
0.0
1001
AVE_RENDER
1002
{
1070
           0
1000
LIGHT_2
1011
23.0
1021
-8.5
1031
0.0
1041
100.0
1010
0.109803921569
1020
0.109803921569
1030
0.109803921569
1002
{
1070
           0
1070
           0
1040
0.0
1040
0.0
1040
3.0
1002
}
1002
{
1070
           9
1070
          21
1070
          15
1070
           0
1040
37.62
1040
122.37
1002
}
1002
}
1001
TCAD
1000
TCW_LIGTH
1002
{
1070
           0
1002
}
  0
ATTRIB
  5
6B
100
AcDbEntity
  8
ASHADE
  6
Continuous
 62
           1
100
AcDbText
 10
22.0
 20
-8.5
 30
0.0
 40
0.2
  1
LIGHT_2
  7
ASHADE
 72
           1
 11
22.0
 21
-8.6
 31
0.0
100
AcDbAttribute
  2
SNAME
 70
           0
  0
ATTRIB
  5
6C
100
AcDbEntity
  8
ASHADE
  6
Continuous
 62
           7
100
AcDbText
 10
22.0
 20
-8.5
 30
0.0
 40
0.01
  1

100
AcDbAttribute
  2
GNAME
 70
           1
  0
ATTRIB
  5
6D
100
AcDbEntity
  8
ASHADE
  6
Continuous
 62
           7
100
AcDbText
 10
22.0
 20
-8.5
 30
0.0
 40
0.01
  1

100
AcDbAttribute
  2
LAX
 70
           1
  0
ATTRIB
  5
6E
100
AcDbEntity
  8
ASHADE
  6
Continuous
 62
           7
100
AcDbText
 10
22.0
 20
-8.5
 30
0.0
 40
0.01
  1

100
AcDbAttribute
  2
LAY
 70
           1
  0
ATTRIB
  5
6F
100
AcDbEntity
  8
ASHADE
  6
Continuous
 62
           7
100
AcDbText
 10
22.0
 20
-8.5
 30
0.0
 40
0.01
  1

100
AcDbAttribute
  2
LAZ
 70
           1
  0
ATTRIB
  5
70
100
AcDbEntity
  8
ASHADE
  6
Continuous
 62
           7
100
AcDbText
 10
22.0
 20
-8.5
 30
0.0
 40
0.01
  1
1
100
AcDbAttribute
  2
INTENSITY
 70
           1
  0
ATTRIB
  5
71
100
AcDbEntity
  8
ASHADE
  6
Continuous
 62
           7
100
AcDbText
 10
22.0
 20
-8.5
 30
0.0
 40
0.01
  1
1,1,1
100
AcDbAttribute
  2
COLOR
 70
           1
  0
ATTRIB
  5
72
100
AcDbEntity
  8
ASHADE
  6
Continuous
 62
           7
100
AcDbText
 10
22.0
 20
-8.5
 30
0.0
 40
0.01
  1
0
100
AcDbAttribute
  2
CONEA
 70
           1
  0
ATTRIB
  5
73
100
AcDbEntity
  8
ASHADE
  6
Continuous
 62
           7
100
AcDbText
 10
22.0
 20
-8.5
 30
0.0
 40
0.01
  1
-1
100
AcDbAttribute
  2
CONED
 70
           1
  0
ATTRIB
  5
74
100
AcDbEntity
  8
ASHADE
  6
Continuous
 62
           7
100
AcDbText
 10
22.0
 20
-8.5
 30
0.0
 40
0.01
  1
-1
100
AcDbAttribute
  2
BEAMD
 70
           1
  0
SEQEND
  5
75
100
AcDbEntity
  8
0
  0
INSERT
  5
76
100
AcDbEntity
  8
0
 60
           1
100
AcDbBlockReference
 66
           1
  2
OVERHEAD
 10
-11.0
 20
17.0
 30
0.0
1001
AVE_RENDER
1002
{
1070
           0
1000
LIGHT_3
1011
-10.0
1021
17.0
1031
0.0
1041
100.0
1010
0.109803921569
1020
0.109803921569
1030
0.109803921569
1002
{
1070
           0
1070
           0
1040
0.0
1040
0.0
1040
3.0
1002
}
1002
{
1070
           9
1070
          21
1070
          15
1070
           0
1040
37.62
1040
122.37
1002
}
1002
}
1001
TCAD
1000
TCW_LIGTH
1002
{
1070
           0
1002
}
  0
ATTRIB
  5
77
100
AcDbEntity
  8
ASHADE
  6
Continuous
 62
           1
100
AcDbText
 10
-11.0
 20
17.0
 30
0.0
 40
0.2
  1
LIGHT_3
  7
ASHADE
 72
           1
 11
-11.0
 21
16.9
 31
0.0
100
AcDbAttribute
  2
SNAME
 70
           0
  0
ATTRIB
  5
78
100
AcDbEntity
  8
ASHADE
  6
Continuous
 62
           7
100
AcDbText
 10
-11.0
 20
17.0
 30
0.0
 40
0.01
  1

100
AcDbAttribute
  2
GNAME
 70
           1
  0
ATTRIB
  5
79
100
AcDbEntity
  8
ASHADE
  6
Continuous
 62
           7
100
AcDbText
 10
-11.0
 20
17.0
 30
0.0
 40
0.01
  1

100
AcDbAttribute
  2
LAX
 70
           1
  0
ATTRIB
  5
7A
100
AcDbEntity
  8
ASHADE
  6
Continuous
 62
           7
100
AcDbText
 10
-11.0
 20
17.0
 30
0.0
 40
0.01
  1

100
AcDbAttribute
  2
LAY
 70
           1
  0
ATTRIB
  5
7B
100
AcDbEntity
  8
ASHADE
  6
Continuous
 62
           7
100
AcDbText
 10
-11.0
 20
17.0
 30
0.0
 40
0.01
  1

100
AcDbAttribute
  2
LAZ
 70
           1
  0
ATTRIB
  5
7C
100
AcDbEntity
  8
ASHADE
  6
Continuous
 62
           7
100
AcDbText
 10
-11.0
 20
17.0
 30
0.0
 40
0.01
  1
1
100
AcDbAttribute
  2
INTENSITY
 70
           1
  0
ATTRIB
  5
7D
100
AcDbEntity
  8
ASHADE
  6
Continuous
 62
           7
100
AcDbText
 10
-11.0
 20
17.0
 30
0.0
 40
0.01
  1
1,1,1
100
AcDbAttribute
  2
COLOR
 70
           1
  0
ATTRIB
  5
7E
100
AcDbEntity
  8
ASHADE
  6
Continuous
 62
           7
100
AcDbText
 10
-11.0
 20
17.0
 30
0.0
 40
0.01
  1
0
100
AcDbAttribute
  2
CONEA
 70
           1
  0
ATTRIB
  5
7F
100
AcDbEntity
  8
ASHADE
  6
Continuous
 62
           7
100
AcDbText
 10
-11.0
 20
17.0
 30
0.0
 40
0.01
  1
-1
100
AcDbAttribute
  2
CONED
 70
           1
  0
ATTRIB
  5
80
100
AcDbEntity
  8
ASHADE
  6
Continuous
 62
           7
100
AcDbText
 10
-11.0
 20
17.0
 30
0.0
 40
0.01
  1
-1
100
AcDbAttribute
  2
BEAMD
 70
           1
  0
SEQEND
  5
81
100
AcDbEntity
  8
0
  0
INSERT
  5
96
100
AcDbEntity
  8
0
 60
           1
100
AcDbBlockReference
 66
           1
  2
DIRECT
 10
93.5
 20
38.25
 30
0.0
 50
-52.305759533311
1001
AVE_RENDER
1002
{
1070
           0
1000
LIGHT_4
1011
99.0
1021
42.5
1031
0.0
1041
100.0
1010
0.501960784314
1020
0.501960784314
1030
0.501960784314
1002
{
1070
           0
1070
           0
1040
0.0
1040
0.0
1040
3.0
1002
}
1002
{
1070
           9
1070
          21
1070
          15
1070
           0
1040
37.62
1040
122.37
1002
}
1002
}
1001
TCAD
1000
TCW_LIGTH
1002
{
1070
           0
1002
}
  0
ATTRIB
  5
97
100
AcDbEntity
  8
ASHADE
  6
Continuous
 62
           1
100
AcDbText
 10
93.5
 20
38.25
 30
0.0
 40
0.2
  1
LIGHT_4
 50
-52.305759533311
  7
ASHADE
 72
           1
 11
93.420871499861
 21
38.188855249892
 31
0.0
100
AcDbAttribute
  2
SNAME
 70
           0
  0
ATTRIB
  5
98
100
AcDbEntity
  8
ASHADE
  6
Continuous
 62
           7
100
AcDbText
 10
93.5
 20
38.25
 30
0.0
 40
0.01
  1

 50
-52.305759533311
100
AcDbAttribute
  2
GNAME
 70
           1
  0
ATTRIB
  5
99
100
AcDbEntity
  8
ASHADE
  6
Continuous
 62
           7
100
AcDbText
 10
93.5
 20
38.25
 30
0.0
 40
0.01
  1

 50
-52.305759533311
100
AcDbAttribute
  2
LAX
 70
           1
  0
ATTRIB
  5
9A
100
AcDbEntity
  8
ASHADE
  6
Continuous
 62
           7
100
AcDbText
 10
93.5
 20
38.25
 30
0.0
 40
0.01
  1

 50
-52.305759533311
100
AcDbAttribute
  2
LAY
 70
           1
  0
ATTRIB
  5
9B
100
AcDbEntity
  8
ASHADE
  6
Continuous
 62
           7
100
AcDbText
 10
93.5
 20
38.25
 30
0.0
 40
0.01
  1

 50
-52.305759533311
100
AcDbAttribute
  2
LAZ
 70
           1
  0
ATTRIB
  5
9C
100
AcDbEntity
  8
ASHADE
  6
Continuous
 62
           7
100
AcDbText
 10
93.5
 20
38.25
 30
0.0
 40
0.01
  1
1
 50
-52.305759533311
100
AcDbAttribute
  2
INTENSITY
 70
           1
  0
ATTRIB
  5
9D
100
AcDbEntity
  8
ASHADE
  6
Continuous
 62
           7
100
AcDbText
 10
93.5
 20
38.25
 30
0.0
 40
0.01
  1
1,1,1
 50
-52.305759533311
100
AcDbAttribute
  2
COLOR
 70
           1
  0
ATTRIB
  5
9E
100
AcDbEntity
  8
ASHADE
  6
Continuous
 62
           7
100
AcDbText
 10
93.5
 20
38.25
 30
0.0
 40
0.01
  1
0
 50
-52.305759533311
100
AcDbAttribute
  2
CONEA
 70
           1
  0
ATTRIB
  5
9F
100
AcDbEntity
  8
ASHADE
  6
Continuous
 62
           7
100
AcDbText
 10
93.5
 20
38.25
 30
0.0
 40
0.01
  1
-1
 50
-52.305759533311
100
AcDbAttribute
  2
CONED
 70
           1
  0
ATTRIB
  5
A0
100
AcDbEntity
  8
ASHADE
  6
Continuous
 62
           7
100
AcDbText
 10
93.5
 20
38.25
 30
0.0
 40
0.01
  1
-1
 50
-52.305759533311
100
AcDbAttribute
  2
BEAMD
 70
           1
  0
SEQEND
  5
A1
100
AcDbEntity
  8
0
  0
INSERT
  5
A2
100
AcDbEntity
  8
0
 60
           1
100
AcDbBlockReference
 66
           1
  2
OVERHEAD
 10
0.0
 20
0.0
 30
0.0
1001
AVE_RENDER
1002
{
1070
           0
1000
LIGHT_5
1011
1.0
1021
0.0
1031
0.0
1041
100.0
1010
0.501960784314
1020
0.501960784314
1030
0.501960784314
1002
{
1070
           0
1070
           0
1040
0.0
1040
0.0
1040
3.0
1002
}
1002
{
1070
           9
1070
          21
1070
          15
1070
           0
1040
37.62
1040
122.37
1002
}
1002
}
1001
TCAD
1000
TCW_LIGTH
1002
{
1070
           0
1002
}
  0
ATTRIB
  5
A3
100
AcDbEntity
  8
ASHADE
  6
Continuous
 62
           1
100
AcDbText
 10
0.0
 20
0.0
 30
0.0
 40
0.2
  1
LIGHT_5
  7
ASHADE
 72
           1
 11
0.0
 21
-0.1
 31
0.0
100
AcDbAttribute
  2
SNAME
 70
           0
  0
ATTRIB
  5
A4
100
AcDbEntity
  8
ASHADE
  6
Continuous
 62
           7
100
AcDbText
 10
0.0
 20
0.0
 30
0.0
 40
0.01
  1

100
AcDbAttribute
  2
GNAME
 70
           1
  0
ATTRIB
  5
A5
100
AcDbEntity
  8
ASHADE
  6
Continuous
 62
           7
100
AcDbText
 10
0.0
 20
0.0
 30
0.0
 40
0.01
  1

100
AcDbAttribute
  2
LAX
 70
           1
  0
ATTRIB
  5
A6
100
AcDbEntity
  8
ASHADE
  6
Continuous
 62
           7
100
AcDbText
 10
0.0
 20
0.0
 30
0.0
 40
0.01
  1

100
AcDbAttribute
  2
LAY
 70
           1
  0
ATTRIB
  5
A7
100
AcDbEntity
  8
ASHADE
  6
Continuous
 62
           7
100
AcDbText
 10
0.0
 20
0.0
 30
0.0
 40
0.01
  1

100
AcDbAttribute
  2
LAZ
 70
           1
  0
ATTRIB
  5
A8
100
AcDbEntity
  8
ASHADE
  6
Continuous
 62
           7
100
AcDbText
 10
0.0
 20
0.0
 30
0.0
 40
0.01
  1
1
100
AcDbAttribute
  2
INTENSITY
 70
           1
  0
ATTRIB
  5
A9
100
AcDbEntity
  8
ASHADE
  6
Continuous
 62
           7
100
AcDbText
 10
0.0
 20
0.0
 30
0.0
 40
0.01
  1
1,1,1
100
AcDbAttribute
  2
COLOR
 70
           1
  0
ATTRIB
  5
AA
100
AcDbEntity
  8
ASHADE
  6
Continuous
 62
           7
100
AcDbText
 10
0.0
 20
0.0
 30
0.0
 40
0.01
  1
0
100
AcDbAttribute
  2
CONEA
 70
           1
  0
ATTRIB
  5
AB
100
AcDbEntity
  8
ASHADE
  6
Continuous
 62
           7
100
AcDbText
 10
0.0
 20
0.0
 30
0.0
 40
0.01
  1
-1
100
AcDbAttribute
  2
CONED
 70
           1
  0
ATTRIB
  5
AC
100
AcDbEntity
  8
ASHADE
  6
Continuous
 62
           7
100
AcDbText
 10
0.0
 20
0.0
 30
0.0
 40
0.01
  1
-1
100
AcDbAttribute
  2
BEAMD
 70
           1
  0
SEQEND
  5
AD
100
AcDbEntity
  8
0
  0
INSERT
  5
AE
100
AcDbEntity
  8
0
 60
           1
100
AcDbBlockReference
 66
           1
  2
OVERHEAD
 10
0.0
 20
0.0
 30
0.0
1001
AVE_RENDER
1002
{
1070
           0
1000
LIGHT_6
1011
1.0
1021
0.0
1031
0.0
1041
100.0
1010
0.501960784314
1020
0.501960784314
1030
0.501960784314
1002
{
1070
           0
1070
           0
1040
0.0
1040
0.0
1040
3.0
1002
}
1002
{
1070
           9
1070
          21
1070
          15
1070
           0
1040
37.62
1040
122.37
1002
}
1002
}
1001
TCAD
1000
TCW_LIGTH
1002
{
1070
           1
1002
}
  0
ATTRIB
  5
AF
100
AcDbEntity
  8
ASHADE
  6
Continuous
 62
           1
100
AcDbText
 10
0.0
 20
0.0
 30
0.0
 40
0.2
  1
LIGHT_6
  7
ASHADE
 72
           1
 11
0.0
 21
-0.1
 31
0.0
100
AcDbAttribute
  2
SNAME
 70
           0
  0
ATTRIB
  5
B0
100
AcDbEntity
  8
ASHADE
  6
Continuous
 62
           7
100
AcDbText
 10
0.0
 20
0.0
 30
0.0
 40
0.01
  1

100
AcDbAttribute
  2
GNAME
 70
           1
  0
ATTRIB
  5
B1
100
AcDbEntity
  8
ASHADE
  6
Continuous
 62
           7
100
AcDbText
 10
0.0
 20
0.0
 30
0.0
 40
0.01
  1

100
AcDbAttribute
  2
LAX
 70
           1
  0
ATTRIB
  5
B2
100
AcDbEntity
  8
ASHADE
  6
Continuous
 62
           7
100
AcDbText
 10
0.0
 20
0.0
 30
0.0
 40
0.01
  1

100
AcDbAttribute
  2
LAY
 70
           1
  0
ATTRIB
  5
B3
100
AcDbEntity
  8
ASHADE
  6
Continuous
 62
           7
100
AcDbText
 10
0.0
 20
0.0
 30
0.0
 40
0.01
  1

100
AcDbAttribute
  2
LAZ
 70
           1
  0
ATTRIB
  5
B4
100
AcDbEntity
  8
ASHADE
  6
Continuous
 62
           7
100
AcDbText
 10
0.0
 20
0.0
 30
0.0
 40
0.01
  1
1
100
AcDbAttribute
  2
INTENSITY
 70
           1
  0
ATTRIB
  5
B5
100
AcDbEntity
  8
ASHADE
  6
Continuous
 62
           7
100
AcDbText
 10
0.0
 20
0.0
 30
0.0
 40
0.01
  1
1,1,1
100
AcDbAttribute
  2
COLOR
 70
           1
  0
ATTRIB
  5
B6
100
AcDbEntity
  8
ASHADE
  6
Continuous
 62
           7
100
AcDbText
 10
0.0
 20
0.0
 30
0.0
 40
0.01
  1
0
100
AcDbAttribute
  2
CONEA
 70
           1
  0
ATTRIB
  5
B7
100
AcDbEntity
  8
ASHADE
  6
Continuous
 62
           7
100
AcDbText
 10
0.0
 20
0.0
 30
0.0
 40
0.01
  1
-1
100
AcDbAttribute
  2
CONED
 70
           1
  0
ATTRIB
  5
B8
100
AcDbEntity
  8
ASHADE
  6
Continuous
 62
           7
100
AcDbText
 10
0.0
 20
0.0
 30
0.0
 40
0.01
  1
-1
100
AcDbAttribute
  2
BEAMD
 70
           1
  0
SEQEND
  5
B9
100
AcDbEntity
  8
0
  0
INSERT
  5
E2
100
AcDbEntity
  8
0
 60
           1
100
AcDbBlockReference
 66
           1
  2
SH_SPOT
 10
-5.5
 20
0.0
 30
4.25
210
0.0
220
1.0
230
0.0
1001
AVE_RENDER
1002
{
1070
           0
1000
LIGHT_7
1011
5.5
1021
4.25
1031
1.0
1041
100.0
1010
0.501960784314
1020
0.501960784314
1030
0.501960784314
1002
{
1070
           1
1070
           0
1040
0.0
1040
0.0
1040
3.0
1002
}
1002
{
1070
           9
1070
          21
1070
          15
1070
           0
1040
37.62
1040
122.37
1002
}
1002
}
1001
TCAD
1000
TCW_LIGTH
1002
{
1070
           0
1002
}
  0
ATTRIB
  5
E3
100
AcDbEntity
  8
ASHADE
  6
Continuous
 62
           1
100
AcDbText
 10
-5.5
 20
0.0
 30
4.25
 40
0.2
  1
LIGHT_7
  7
ASHADE
 72
           1
 11
-5.5
 21
-0.1
 31
4.25
210
0.0
220
1.0
230
0.0
100
AcDbAttribute
  2
SNAME
 70
           0
  0
ATTRIB
  5
E4
100
AcDbEntity
  8
ASHADE
  6
Continuous
 62
           7
100
AcDbText
 10
-5.5
 20
0.0
 30
4.25
 40
0.01
  1

210
0.0
220
1.0
230
0.0
100
AcDbAttribute
  2
GNAME
 70
           1
  0
ATTRIB
  5
E5
100
AcDbEntity
  8
ASHADE
  6
Continuous
 62
           7
100
AcDbText
 10
-5.5
 20
0.0
 30
4.25
 40
0.01
  1

210
0.0
220
1.0
230
0.0
100
AcDbAttribute
  2
LAX
 70
           1
  0
ATTRIB
  5
E6
100
AcDbEntity
  8
ASHADE
  6
Continuous
 62
           7
100
AcDbText
 10
-5.5
 20
0.0
 30
4.25
 40
0.01
  1

210
0.0
220
1.0
230
0.0
100
AcDbAttribute
  2
LAY
 70
           1
  0
ATTRIB
  5
E7
100
AcDbEntity
  8
ASHADE
  6
Continuous
 62
           7
100
AcDbText
 10
-5.5
 20
0.0
 30
4.25
 40
0.01
  1

210
0.0
220
1.0
230
0.0
100
AcDbAttribute
  2
LAZ
 70
           1
  0
ATTRIB
  5
E8
100
AcDbEntity
  8
ASHADE
  6
Continuous
 62
           7
100
AcDbText
 10
-5.5
 20
0.0
 30
4.25
 40
0.01
  1
1
210
0.0
220
1.0
230
0.0
100
AcDbAttribute
  2
INTENSITY
 70
           1
  0
ATTRIB
  5
E9
100
AcDbEntity
  8
ASHADE
  6
Continuous
 62
           7
100
AcDbText
 10
-5.5
 20
0.0
 30
4.25
 40
0.01
  1
1,1,1
210
0.0
220
1.0
230
0.0
100
AcDbAttribute
  2
COLOR
 70
           1
  0
ATTRIB
  5
EA
100
AcDbEntity
  8
ASHADE
  6
Continuous
 62
           7
100
AcDbText
 10
-5.5
 20
0.0
 30
4.25
 40
0.01
  1
0
210
0.0
220
1.0
230
0.0
100
AcDbAttribute
  2
ZSIZE
 70
           1
  0
ATTRIB
  5
EB
100
AcDbEntity
  8
ASHADE
  6
Continuous
 62
           7
100
AcDbText
 10
-5.5
 20
0.0
 30
4.25
 40
0.01
  1
-1
210
0.0
220
1.0
230
0.0
100
AcDbAttribute
  2
BIASMIN
 70
           1
  0
ATTRIB
  5
EC
100
AcDbEntity
  8
ASHADE
  6
Continuous
 62
           7
100
AcDbText
 10
-5.5
 20
0.0
 30
4.25
 40
0.01
  1
-1
210
0.0
220
1.0
230
0.0
100
AcDbAttribute
  2
BIASMAX
 70
           1
  0
ATTRIB
  5
ED
100
AcDbEntity
  8
ASHADE
  6
Continuous
 62
           7
100
AcDbText
 10
-5.5
 20
0.0
 30
4.25
 40
0.01
  1
10.0
210
0.0
220
1.0
230
0.0
100
AcDbAttribute
  2
CONEAN
 70
           1
  0
ATTRIB
  5
EE
100
AcDbEntity
  8
ASHADE
  6
Continuous
 62
           7
100
AcDbText
 10
-5.5
 20
0.0
 30
4.25
 40
0.01
  1
0.0
210
0.0
220
1.0
230
0.0
100
AcDbAttribute
  2
CONEDE
 70
           1
  0
ATTRIB
  5
EF
100
AcDbEntity
  8
ASHADE
  6
Continuous
 62
           7
100
AcDbText
 10
-5.5
 20
0.0
 30
4.25
 40
0.01
  1
0.0
210
0.0
220
1.0
230
0.0
100
AcDbAttribute
  2
BEAMDI
 70
           1
  0
ATTRIB
  5
F0
100
AcDbEntity
  8
ASHADE
  6
Continuous
 62
           7
100
AcDbText
 10
-5.5
 20
0.0
 30
4.25
 40
0.01
  1
0,0,0
210
0.0
220
1.0
230
0.0
100
AcDbAttribute
  2
LFXYZ
 70
           1
  0
SEQEND
  5
F1
100
AcDbEntity
  8
0
  0
CIRCLE
  5
F2
100
AcDbEntity
  8
0
370
           0
  6
Continuous
 62
           7
100
AcDbCircle
 10
0.0
 20
0.0
 30
0.0
 40
2.64
  0
LINE
  5
F3
100
AcDbEntity
  8
0
370
           0
  6
Continuous
 62
           7
100
AcDbLine
 10
-0.02
 20
1.322724461103
 30
0.0
 11
-0.02
 21
2.294166515317
 31
0.0
  0
LWPOLYLINE
  5
F4
100
AcDbEntity
  8
0
370
           0
  6
Continuous
 62
           7
100
AcDbPolyline
 90
       15
 70
           0
 10
-0.22
 20
1.077775486825
 10
-0.1963170236
 20
1.083829465364
 10
-0.173338496571
 20
1.092167410127
 10
-0.15128410614
 20
1.10270960582
 10
-0.130364704288
 20
1.115355263315
 10
-0.110780291885
 20
1.129983483239
 10
-0.092718106577
 20
1.146454411847
 10
-0.07635083269
 20
1.164610578094
 10
-0.061834950271
 20
1.184278399146
 10
-0.049309239061
 20
1.205269839925
 10
-0.038893451677
 20
1.22738421083
 10
-0.030687168718
 20
1.250410086433
 10
-0.024768846717
 20
1.274127326829
 10
-0.021195068055
 20
1.298309182287
 10
-0.02
 20
1.322724461103
  0
LINE
  5
F5
100
AcDbEntity
  8
0
370
           0
  6
Continuous
 62
           7
100
AcDbLine
 10
-0.22
 20
1.077775486825
 30
0.0
 11
-0.22
 21
1.077775486825
 31
0.0
  0
LWPOLYLINE
  5
F6
100
AcDbEntity
  8
0
370
           0
  6
Continuous
 62
           7
100
AcDbPolyline
 90
       13
 70
           0
 10
-0.22
 20
1.077775486825
 10
-0.323703678498
 20
1.051292503791
 10
-0.424342658626
 20
1.014856299222
 10
-0.520964130331
 20
0.968811836689
 10
-0.612653319744
 20
0.913595046947
 10
-0.698542149891
 20
0.849728700719
 10
-0.777817459305
 20
0.777817459305
 10
-0.849728700719
 20
0.698542149891
 10
-0.913595046947
 20
0.612653319744
 10
-0.968811836689
 20
0.520964130331
 10
-1.014856299222
 20
0.424342658626
 10
-1.051292503791
 20
0.323703678498
 10
-1.077775486825
 20
0.22
  0
LWPOLYLINE
  5
F7
100
AcDbEntity
  8
0
370
           0
  6
Continuous
 62
           7
100
AcDbPolyline
 90
       15
 70
           0
 10
-1.322724461103
 20
0.02
 10
-1.298309182287
 20
0.021195068055
 10
-1.274127326829
 20
0.024768846717
 10
-1.250410086433
 20
0.030687168718
 10
-1.22738421083
 20
0.038893451677
 10
-1.205269839925
 20
0.049309239061
 10
-1.184278399146
 20
0.061834950271
 10
-1.164610578094
 20
0.07635083269
 10
-1.146454411847
 20
0.092718106577
 10
-1.129983483239
 20
0.110780291885
 10
-1.115355263315
 20
0.130364704288
 10
-1.10270960582
 20
0.15128410614
 10
-1.092167410127
 20
0.173338496571
 10
-1.083829465364
 20
0.1963170236
 10
-1.077775486825
 20
0.22
  0
LINE
  5
F8
100
AcDbEntity
  8
0
370
           0
  6
Continuous
 62
           7
100
AcDbLine
 10
-2.294166515317
 20
0.02
 30
0.0
 11
-1.322724461103
 21
0.02
 31
0.0
  0
LWPOLYLINE
  5
F9
100
AcDbEntity
  8
0
370
           0
  6
Continuous
 62
           7
100
AcDbPolyline
 90
       18
 70
           0
 10
-2.542452934723
 20
0.299220779221
 10
-2.544126644421
 20
0.274464734945
 10
-2.543338094742
 20
0.249664710313
 10
-2.54009505338
 20
0.225065000658
 10
-2.534429466267
 20
0.200907928091
 10
-2.526397142882
 20
0.177431454476
 10
-2.5160772065
 20
0.154866837364
 10
-2.503571314773
 20
0.133436351965
 10
-2.489002658345
 20
0.1133511016
 10
-2.472514747346
 20
0.094808938208
 10
-2.454269997734
 20
0.077992513381
 10
-2.434448131395
 20
0.063067479138
 10
-2.413244405773
 20
0.050180856147
 10
-2.39086769047
 20
0.039459585487
 10
-2.367538409746
 20
0.031009278197
 10
-2.343486371215
 20
0.024913174948
 10
-2.318948502091
 20
0.021231326065
 10
-2.294166515317
 20
0.02
  0
LWPOLYLINE
  5
FA
100
AcDbEntity
  8
0
370
           0
  6
Continuous
 62
           7
100
AcDbPolyline
 90
       14
 70
           0
 10
-0.299220779221
 20
2.542452934723
 10
-0.558563339844
 20
2.498320835157
 10
-0.812007455409
 20
2.427806395156
 10
-1.056876748707
 20
2.331654249249
 10
-1.290585392904
 20
2.210879766885
 10
-1.510665417944
 20
2.066758330098
 10
-1.714792772381
 20
1.900811865438
 10
-1.900811865438
 20
1.714792772381
 10
-2.066758330098
 20
1.510665417944
 10
-2.210879766885
 20
1.290585392904
 10
-2.331654249249
 20
1.056876748707
 10
-2.427806395156
 20
0.812007455409
 10
-2.498320835157
 20
0.558563339844
 10
-2.542452934723
 20
0.299220779221
  0
LWPOLYLINE
  5
FB
100
AcDbEntity
  8
0
370
           0
  6
Continuous
 62
           7
100
AcDbPolyline
 90
       18
 70
           0
 10
-0.02
 20
2.294166515317
 10
-0.021231326065
 20
2.318948502091
 10
-0.024913174948
 20
2.343486371215
 10
-0.031009278197
 20
2.367538409746
 10
-0.039459585487
 20
2.39086769047
 10
-0.050180856147
 20
2.413244405773
 10
-0.063067479138
 20
2.434448131395
 10
-0.077992513381
 20
2.454269997734
 10
-0.094808938208
 20
2.472514747346
 10
-0.1133511016
 20
2.489002658345
 10
-0.133436351965
 20
2.503571314773
 10
-0.154866837364
 20
2.5160772065
 10
-0.177431454476
 20
2.526397142882
 10
-0.200907928091
 20
2.534429466267
 10
-0.225065000658
 20
2.54009505338
 10
-0.249664710313
 20
2.543338094742
 10
-0.274464734945
 20
2.544126644421
 10
-0.299220779221
 20
2.542452934723
  0
LWPOLYLINE
  5
FC
100
AcDbEntity
  8
0
370
           0
  6
Continuous
 62
           7
100
AcDbPolyline
 90
        4
 70
           0
 10
2.294166515317
 20
0.02
 10
1.322724461103
 20
0.02
 42
-0.356393958693
 10
1.077775486825
 20
0.22
 42
0.300614130092
 10
0.22
 20
1.077775486825
  0
ARC
  5
FD
100
AcDbEntity
  8
0
370
           0
  6
Continuous
 62
           7
100
AcDbCircle
 10
0.27
 20
1.322724461103
 30
0.0
 40
0.25
100
AcDbArc
 50
180.0
 51
258.463040967185
  0
LINE
  5
FE
100
AcDbEntity
  8
0
370
           0
  6
Continuous
 62
           7
100
AcDbLine
 10
0.02
 20
2.294166515317
 30
0.0
 11
0.02
 21
1.322724461103
 31
0.0
  0
ARC
  5
FF
100
AcDbEntity
  8
0
370
           0
  6
Continuous
 62
           7
100
AcDbCircle
 10
0.27
 20
2.294166515317
 30
0.0
 40
0.25
100
AcDbArc
 50
83.287747706594
 51
180.0
  0
ARC
  5
100
100
AcDbEntity
  8
0
370
           0
  6
Continuous
 62
           7
100
AcDbCircle
 10
0.0
 20
0.0
 30
0.0
 40
2.56
100
AcDbArc
 50
6.712252293406
 51
83.287747706594
  0
ARC
  5
101
100
AcDbEntity
  8
0
370
           0
  6
Continuous
 62
           7
100
AcDbCircle
 10
2.294166515317
 20
0.27
 30
0.0
 40
0.25
100
AcDbArc
 50
-90.0
 51
6.712252293406
  0
LWPOLYLINE
  5
102
100
AcDbEntity
  8
0
370
           0
  6
Continuous
 62
           7
100
AcDbPolyline
 90
       18
 70
           0
 10
2.542452934723
 20
-0.299220779221
 10
2.544126644421
 20
-0.274464734945
 10
2.543338094742
 20
-0.249664710313
 10
2.54009505338
 20
-0.225065000658
 10
2.534429466267
 20
-0.200907928091
 10
2.526397142882
 20
-0.177431454476
 10
2.5160772065
 20
-0.154866837364
 10
2.503571314773
 20
-0.133436351965
 10
2.489002658345
 20
-0.1133511016
 10
2.472514747346
 20
-0.094808938208
 10
2.454269997734
 20
-0.077992513381
 10
2.434448131395
 20
-0.063067479138
 10
2.413244405773
 20
-0.050180856147
 10
2.39086769047
 20
-0.039459585487
 10
2.367538409746
 20
-0.031009278197
 10
2.343486371215
 20
-0.024913174948
 10
2.318948502091
 20
-0.021231326065
 10
2.294166515317
 20
-0.02
  0
LINE
  5
103
100
AcDbEntity
  8
0
370
           0
  6
Continuous
 62
           7
100
AcDbLine
 10
2.542452934723
 20
-0.299220779221
 30
0.0
 11
2.542452934723
 21
-0.299220779221
 31
0.0
  0
LWPOLYLINE
  5
104
100
AcDbEntity
  8
0
370
           0
  6
Continuous
 62
           7
100
AcDbPolyline
 90
       14
 70
           0
 10
0.299220779221
 20
-2.542452934723
 10
0.558563339844
 20
-2.498320835157
 10
0.812007455409
 20
-2.427806395156
 10
1.056876748707
 20
-2.331654249249
 10
1.290585392904
 20
-2.210879766885
 10
1.510665417944
 20
-2.066758330098
 10
1.714792772381
 20
-1.900811865438
 10
1.900811865438
 20
-1.714792772381
 10
2.066758330098
 20
-1.510665417944
 10
2.210879766885
 20
-1.290585392904
 10
2.331654249249
 20
-1.056876748707
 10
2.427806395156
 20
-0.812007455409
 10
2.498320835157
 20
-0.558563339844
 10
2.542452934723
 20
-0.299220779221
  0
LWPOLYLINE
  5
105
100
AcDbEntity
  8
0
370
           0
  6
Continuous
 62
           7
100
AcDbPolyline
 90
       18
 70
           0
 10
0.02
 20
-2.294166515317
 10
0.021231326065
 20
-2.318948502091
 10
0.024913174948
 20
-2.343486371215
 10
0.031009278197
 20
-2.367538409746
 10
0.039459585487
 20
-2.39086769047
 10
0.050180856147
 20
-2.413244405773
 10
0.063067479138
 20
-2.434448131395
 10
0.077992513381
 20
-2.454269997734
 10
0.094808938208
 20
-2.472514747346
 10
0.1133511016
 20
-2.489002658345
 10
0.133436351965
 20
-2.503571314773
 10
0.154866837364
 20
-2.5160772065
 10
0.177431454476
 20
-2.526397142882
 10
0.200907928091
 20
-2.534429466267
 10
0.225065000658
 20
-2.54009505338
 10
0.249664710313
 20
-2.543338094742
 10
0.274464734945
 20
-2.544126644421
 10
0.299220779221
 20
-2.542452934723
  0
LINE
  5
106
100
AcDbEntity
  8
0
370
           0
  6
Continuous
 62
           7
100
AcDbLine
 10
0.02
 20
-1.322724461103
 30
0.0
 11
0.02
 21
-2.294166515317
 31
0.0
  0
LINE
  5
107
100
AcDbEntity
  8
0
370
           0
  6
Continuous
 62
           7
100
AcDbLine
 10
0.173338496571
 20
-1.092167410127
 30
0.0
 11
0.15128410614
 21
-1.10270960582
 31
0.0
  0
LINE
  5
108
100
AcDbEntity
  8
0
370
           0
  6
Continuous
 62
           7
100
AcDbLine
 10
0.15128410614
 20
-1.10270960582
 30
0.0
 11
0.130364704288
 21
-1.115355263315
 31
0.0
  0
LINE
  5
109
100
AcDbEntity
  8
0
370
           0
  6
Continuous
 62
           7
100
AcDbLine
 10
0.130364704288
 20
-1.115355263315
 30
0.0
 11
0.110780291885
 21
-1.129983483239
 31
0.0
  0
LINE
  5
10A
100
AcDbEntity
  8
0
370
           0
  6
Continuous
 62
           7
100
AcDbLine
 10
0.110780291885
 20
-1.129983483239
 30
0.0
 11
0.092718106577
 21
-1.146454411847
 31
0.0
  0
LINE
  5
10B
100
AcDbEntity
  8
0
370
           0
  6
Continuous
 62
           7
100
AcDbLine
 10
0.092718106577
 20
-1.146454411847
 30
0.0
 11
0.07635083269
 21
-1.164610578094
 31
0.0
  0
LINE
  5
10C
100
AcDbEntity
  8
0
370
           0
  6
Continuous
 62
           7
100
AcDbLine
 10
0.07635083269
 20
-1.164610578094
 30
0.0
 11
0.061834950271
 21
-1.184278399146
 31
0.0
  0
LINE
  5
10D
100
AcDbEntity
  8
0
370
           0
  6
Continuous
 62
           7
100
AcDbLine
 10
0.061834950271
 20
-1.184278399146
 30
0.0
 11
0.049309239061
 21
-1.205269839925
 31
0.0
  0
LINE
  5
10E
100
AcDbEntity
  8
0
370
           0
  6
Continuous
 62
           7
100
AcDbLine
 10
0.049309239061
 20
-1.205269839925
 30
0.0
 11
0.038893451677
 21
-1.22738421083
 31
0.0
  0
LINE
  5
10F
100
AcDbEntity
  8
0
370
           0
  6
Continuous
 62
           7
100
AcDbLine
 10
0.038893451677
 20
-1.22738421083
 30
0.0
 11
0.030687168718
 21
-1.250410086433
 31
0.0
  0
LINE
  5
110
100
AcDbEntity
  8
0
370
           0
  6
Continuous
 62
           7
100
AcDbLine
 10
0.030687168718
 20
-1.250410086433
 30
0.0
 11
0.024768846717
 21
-1.274127326829
 31
0.0
  0
LINE
  5
111
100
AcDbEntity
  8
0
370
           0
  6
Continuous
 62
           7
100
AcDbLine
 10
0.024768846717
 20
-1.274127326829
 30
0.0
 11
0.021195068055
 21
-1.298309182287
 31
0.0
  0
LINE
  5
112
100
AcDbEntity
  8
0
370
           0
  6
Continuous
 62
           7
100
AcDbLine
 10
0.021195068055
 20
-1.298309182287
 30
0.0
 11
0.02
 21
-1.322724461103
 31
0.0
  0
LWPOLYLINE
  5
113
100
AcDbEntity
  8
0
370
           0
  6
Continuous
 62
           7
100
AcDbPolyline
 90
       11
 70
           0
 10
-0.02
 20
-1.322724461103
 42
0.356393958693
 10
-0.22
 20
-1.077775486825
 42
-0.300614130092
 10
-1.077775486825
 20
-0.22
 42
0.356393958693
 10
-1.322724461103
 20
-0.02
 10
-1.322724461103
 20
-0.02
 10
-2.294166515317
 20
-0.02
 42
0.448957696155
 10
-2.542452934723
 20
-0.299220779221
 10
-2.542452934723
 20
-0.299220779221
 42
0.34713883885
 10
-0.299220779221
 20
-2.542452934723
 42
0.448957696155
 10
-0.02
 20
-2.294166515317
 10
-0.02
 20
-1.322724461103
  0
TEXT
  5
114
100
AcDbEntity
  8
0
  6
Continuous
 62
           7
100
AcDbText
 10
0.191596297109
 20
2.06801992034
 30
0.0
 40
0.120000001788
  1
A
 11
0.191596297109
 21
2.188019922128
 31
0.0
100
AcDbText
 73
           3
1001
TCAD
1000
TCW40_TEXT
1002
{
1000
Times New Roman
1070
           0
1070
         257
1002
}
  0
MTEXT
  5
115
100
AcDbEntity
  8
0
  6
Continuous
 62
           7
100
AcDbMText
 10
-4.920196320481
 20
2.391851027899
 30
0.0
 40
0.120000001788
 41
2.061022958401
 71
           1
 72
           1
  1
{typ. in eight places\Px and y plus and minus \Pwill change but the distance\Pfrom center will be the same\PA= x = -0.02\P      y = +2.559\PB= x= 1.0998\P      y= 0.02\PC= x= 1.0648\P      y= 0.02\PD= x= 0.098\P      y= 0.02\P}
 73
           1
 44
1.0
1001
TCAD
1000
TCW40_TEXT
1002
{
1000
Times New Roman
1070
           0
1070
         257
1002
}
  0
TEXT
  5
116
100
AcDbEntity
  8
0
  6
Continuous
 62
           7
100
AcDbText
 10
-0.359839580008
 20
2.080007656799
 30
0.0
 40
0.120000001788
  1
A
 11
-0.359839580008
 21
2.200007658587
 31
0.0
100
AcDbText
 73
           3
1001
TCAD
1000
TCW40_TEXT
1002
{
1000
Times New Roman
1070
           0
1070
         257
1002
}
  0
TEXT
  5
117
100
AcDbEntity
  8
0
  6
Continuous
 62
           7
100
AcDbText
 10
-2.241914204081
 20
0.209920769185
 30
0.0
 40
0.120000001788
  1
A
 11
-2.241914204081
 21
0.329920770973
 31
0.0
100
AcDbText
 73
           3
1001
TCAD
1000
TCW40_TEXT
1002
{
1000
Times New Roman
1070
           0
1070
         257
1002
}
  0
TEXT
  5
118
100
AcDbEntity
  8
0
  6
Continuous
 62
           7
100
AcDbText
 10
-2.217938731163
 20
-0.305551898555
 30
0.0
 40
0.120000001788
  1
A
 11
-2.217938731163
 21
-0.185551896767
 31
0.0
100
AcDbText
 73
           3
1001
TCAD
1000
TCW40_TEXT
1002
{
1000
Times New Roman
1070
           0
1070
         257
1002
}
  0
TEXT
  5
119
100
AcDbEntity
  8
0
  6
Continuous
 62
           7
100
AcDbText
 10
-0.359839580008
 20
-2.151663313251
 30
0.0
 40
0.120000001788
  1
A
 11
-0.359839580008
 21
-2.031663311463
 31
0.0
100
AcDbText
 73
           3
1001
TCAD
1000
TCW40_TEXT
1002
{
1000
Times New Roman
1070
           0
1070
         257
1002
}
  0
TEXT
  5
11A
100
AcDbEntity
  8
0
  6
Continuous
 62
           7
100
AcDbText
 10
0.167620824191
 20
-2.143651044942
 30
0.0
 40
0.104999998212
  1
A
 11
0.167620824191
 21
-2.03865104673
 31
0.0
100
AcDbText
 73
           3
1001
TCAD
1000
TCW40_TEXT
1002
{
1000
Times New Roman
1070
           0
1070
         257
1002
}
  0
TEXT
  5
11B
100
AcDbEntity
  8
0
  6
Continuous
 62
           7
100
AcDbText
 10
2.097646394101
 20
-0.437416999605
 30
0.0
 40
0.120000001788
  1
A
 11
2.097646394101
 21
-0.317416997817
 31
0.0
100
AcDbText
 73
           3
1001
TCAD
1000
TCW40_TEXT
1002
{
1000
Times New Roman
1070
           0
1070
         257
1002
}
  0
TEXT
  5
11C
100
AcDbEntity
  8
0
  6
Continuous
 62
           7
100
AcDbText
 10
2.013732238887
 20
0.245883978562
 30
0.0
 40
0.120000001788
  1
A
 11
2.013732238887
 21
0.36588398035
 31
0.0
100
AcDbText
 73
           3
1001
TCAD
1000
TCW40_TEXT
1002
{
1000
Times New Roman
1070
           0
1070
         257
1002
}
  0
TEXT
  5
11D
100
AcDbEntity
  8
0
  6
Continuous
 62
           7
100
AcDbText
 10
-0.264993398272
 20
1.139841577583
 30
0.0
 40
0.120000001788
  1
B
 11
-0.264993398272
 21
1.259841579371
 31
0.0
100
AcDbText
 73
           3
1001
TCAD
1000
TCW40_TEXT
1002
{
1000
Times New Roman
1070
           0
1070
         257
1002
}
  0
TEXT
  5
11E
100
AcDbEntity
  8
0
  6
Continuous
 62
           7
100
AcDbText
 10
1.288662670857
 20
0.136457558317
 30
0.0
 40
0.120000001788
  1
B
 11
1.288662670857
 21
0.256457560106
 31
0.0
100
AcDbText
 73
           3
1001
TCAD
1000
TCW40_TEXT
1002
{
1000
Times New Roman
1070
           0
1070
         257
1002
}
  0
TEXT
  5
11F
100
AcDbEntity
  8
0
  6
Continuous
 62
           7
100
AcDbText
 10
0.269705071836
 20
-1.362009499066
 30
0.0
 40
0.120000001788
  1
B
 11
0.269705071836
 21
-1.242009497278
 31
0.0
100
AcDbText
 73
           3
1001
TCAD
1000
TCW40_TEXT
1002
{
1000
Times New Roman
1070
           0
1070
         257
1002
}
  0
TEXT
  5
120
100
AcDbEntity
  8
0
  6
Continuous
 62
           7
100
AcDbText
 10
-0.29371854174
 20
-1.338034026148
 30
0.0
 40
0.120000001788
  1
B
 11
-0.29371854174
 21
-1.21803402436
 31
0.0
100
AcDbText
 73
           3
1001
TCAD
1000
TCW40_TEXT
1002
{
1000
Times New Roman
1070
           0
1070
         257
1002
}
  0
TEXT
  5
121
100
AcDbEntity
  8
0
  6
Continuous
 62
           7
100
AcDbText
 10
-1.396590295974
 20
-0.295100954209
 30
0.0
 40
0.120000001788
  1
B
 11
-1.396590295974
 21
-0.175100952421
 31
0.0
100
AcDbText
 73
           3
1001
TCAD
1000
TCW40_TEXT
1002
{
1000
Times New Roman
1070
           0
1070
         257
1002
}
  0
TEXT
  5
122
100
AcDbEntity
  8
0
  6
Continuous
 62
           7
100
AcDbText
 10
-1.372614823056
 20
0.208383977072
 30
0.0
 40
0.120000001788
  1
B
 11
-1.372614823056
 21
0.32838397886
 31
0.0
100
AcDbText
 73
           3
1001
TCAD
1000
TCW40_TEXT
1002
{
1000
Times New Roman
1070
           0
1070
         257
1002
}
  0
ARC
  5
123
100
AcDbEntity
  8
0
370
           0
  6
Continuous
 62
           7
100
AcDbCircle
 10
1.3227
 20
-0.27
 30
0.0
 40
0.25
100
AcDbArc
 50
90.0
 51
180.0
  0
LINE
  5
124
100
AcDbEntity
  8
0
370
           0
  6
Continuous
 62
           7
100
AcDbLine
 10
1.3227
 20
-0.02
 30
0.0
 11
2.294166515317
 21
-0.02
 31
0.0
  0
ELLIPSE
  5
125
100
AcDbEntity
  8
0
370
           0
  6
Continuous
 62
           7
100
AcDbEllipse
 10
0.02969017433
 20
-0.001333341024
 30
0.0
 11
0.0000000000000001
 21
-1.1006953559657866
 31
0.0
210
0.0
220
0.0
230
1.0
 40
0.977147462569
 41
0.1339593412221951
 42
1.3242170686482921
  0
TEXT
  5
126
100
AcDbEntity
  8
0
  6
Continuous
 62
           7
100
AcDbText
 10
0.23374186186
 20
1.143427421028
 30
0.0
 40
0.120000001788
  1
B
 11
0.23374186186
 21
1.263427422816
 31
0.0
100
AcDbText
 73
           3
1001
TCAD
1000
TCW40_TEXT
1002
{
1000
Times New Roman
1070
           0
1070
         257
1002
}
  0
LWPOLYLINE
  5
127
100
AcDbEntity
  8
0
370
           0
  6
Continuous
 62
           7
100
AcDbPolyline
 90
        6
 70
           0
 10
0.02
 20
-0.097979589711
 10
0.02
 20
-0.768071509332
 42
0.517067671959
 10
0.352908953886
 20
-1.003923380992
 42
0.227487258343
 10
1.003923380992
 20
-0.352908953886
 42
0.517067671959
 10
0.768071509332
 20
-0.02
 10
0.097979589711
 20
-0.02
  0
LWPOLYLINE
  5
128
100
AcDbEntity
  8
0
370
           0
  6
Continuous
 62
           7
100
AcDbPolyline
 90
        6
 70
           0
 10
-0.097979589711
 20
0.02
 10
-0.768976592622
 20
0.02
 42
-0.516950987946
 10
-1.004858982996
 20
0.35282208589
 42
-0.227680942137
 10
-0.35282208589
 20
1.004858982996
 42
-0.516950987946
 10
-0.02
 20
0.768976592622
 10
-0.02
 20
0.097979589711
  0
LWPOLYLINE
  5
129
100
AcDbEntity
  8
0
370
           0
  6
Continuous
 62
           7
100
AcDbPolyline
 90
        6
 70
           0
 10
-0.097979589711
 20
-0.02
 10
-0.767768855507
 20
-0.02
 42
0.517106747425
 10
-1.003610500474
 20
-0.35293804012
 42
0.227422404724
 10
-0.35293804012
 20
-1.003610500474
 42
0.517106747425
 10
-0.02
 20
-0.767768855507
 10
-0.02
 20
-0.097979589711
  0
LWPOLYLINE
  5
12A
100
AcDbEntity
  8
0
370
           0
  6
Continuous
 62
           7
100
AcDbPolyline
 90
        6
 70
           0
 10
0.097979589711
 20
0.02
 10
0.768474017106
 20
0.02
 42
0.517015748777
 10
1.004339472871
 20
0.352870300933
 42
0.227573441352
 10
0.352870300933
 20
1.004339472871
 42
0.517015748777
 10
0.02
 20
0.768474017106
 10
0.02
 20
0.097979589711
  0
TEXT
  5
12B
100
AcDbEntity
  8
0
  6
Continuous
 62
           7
100
AcDbText
 10
-0.806837973552
 20
0.107048461273
 30
0.0
 40
0.120000001788
  1
C
 11
-0.806837973552
 21
0.227048463061
 31
0.0
100
AcDbText
 73
           3
1001
TCAD
1000
TCW40_TEXT
1002
{
1000
Times New Roman
1070
           0
1070
         257
1002
}
  0
TEXT
  5
12C
100
AcDbEntity
  8
0
  6
Continuous
 62
           7
100
AcDbText
 10
0.689275847903
 20
0.040555666645
 30
0.0
 40
0.120000001788
  1
C
 11
0.689275847903
 21
0.160555668433
 31
0.0
100
AcDbText
 73
           3
1001
TCAD
1000
TCW40_TEXT
1002
{
1000
Times New Roman
1070
           0
1070
         257
1002
}
  0
TEXT
  5
12D
100
AcDbEntity
  8
0
  6
Continuous
 62
           7
100
AcDbText
 10
0.677288111444
 20
-0.223174535455
 30
0.0
 40
0.120000001788
  1
C
 11
0.677288111444
 21
-0.103174533666
 31
0.0
100
AcDbText
 73
           3
1001
TCAD
1000
TCW40_TEXT
1002
{
1000
Times New Roman
1070
           0
1070
         257
1002
}
  0
TEXT
  5
12E
100
AcDbEntity
  8
0
  6
Continuous
 62
           7
100
AcDbText
 10
-0.845154418857
 20
-0.211186798996
 30
0.0
 40
0.120000001788
  1
C
 11
-0.845154418857
 21
-0.091186797207
 31
0.0
100
AcDbText
 73
           3
1001
TCAD
1000
TCW40_TEXT
1002
{
1000
Times New Roman
1070
           0
1070
         257
1002
}
  0
TEXT
  5
12F
100
AcDbEntity
  8
0
  6
Continuous
 62
           7
100
AcDbText
 10
-0.233779859445
 20
0.783795327107
 30
0.0
 40
0.120000001788
  1
C
 11
-0.233779859445
 21
0.903795328895
 31
0.0
100
AcDbText
 73
           3
1001
TCAD
1000
TCW40_TEXT
1002
{
1000
Times New Roman
1070
           0
1070
         257
1002
}
  0
TEXT
  5
130
100
AcDbEntity
  8
0
  6
Continuous
 62
           7
100
AcDbText
 10
0.137839970786
 20
0.783795327107
 30
0.0
 40
0.120000001788
  1
C
 11
0.137839970786
 21
0.903795328895
 31
0.0
100
AcDbText
 73
           3
1001
TCAD
1000
TCW40_TEXT
1002
{
1000
Times New Roman
1070
           0
1070
         257
1002
}
  0
TEXT
  5
131
100
AcDbEntity
  8
0
  6
Continuous
 62
           7
100
AcDbText
 10
-0.245767595904
 20
-0.954426459458
 30
0.0
 40
0.120000001788
  1
C
 11
-0.245767595904
 21
-0.83442645767
 31
0.0
100
AcDbText
 73
           3
1001
TCAD
1000
TCW40_TEXT
1002
{
1000
Times New Roman
1070
           0
1070
         257
1002
}
  0
TEXT
  5
132
100
AcDbEntity
  8
0
  6
Continuous
 62
           7
100
AcDbText
 10
0.173803180164
 20
-0.942438722999
 30
0.0
 40
0.120000001788
  1
C
 11
0.173803180164
 21
-0.82243872121
 31
0.0
100
AcDbText
 73
           3
1001
TCAD
1000
TCW40_TEXT
1002
{
1000
Times New Roman
1070
           0
1070
         257
1002
}
  0
LINE
  5
133
100
AcDbEntity
  8
0
370
           0
  6
Continuous
 62
           7
100
AcDbLine
 10
0.097979589711
 20
0.0
 30
0.0
 11
0.097979589711
 21
0.0
 31
0.0
  0
LINE
  5
134
100
AcDbEntity
  8
0
370
           0
  6
Continuous
 62
           7
100
AcDbLine
 10
0.097979589711
 20
0.0
 30
0.0
 11
0.097979589711
 21
0.0
 31
0.0
  0
LINE
  5
135
100
AcDbEntity
  8
0
370
           0
  6
Continuous
 62
           7
100
AcDbLine
 10
0.097979589711
 20
0.0
 30
0.0
 11
0.097979589711
 21
0.0
 31
0.0
  0
LINE
  5
136
100
AcDbEntity
  8
0
370
           0
  6
Continuous
 62
           7
100
AcDbLine
 10
0.097979589711
 20
0.0
 30
0.0
 11
0.097979589711
 21
0.0
 31
0.0
  0
LINE
  5
137
100
AcDbEntity
  8
0
370
           0
  6
Continuous
 62
           7
100
AcDbLine
 10
0.097979589711
 20
0.0
 30
0.0
 11
0.097979589711
 21
0.0
 31
0.0
  0
LINE
  5
138
100
AcDbEntity
  8
0
370
           0
  6
Continuous
 62
           7
100
AcDbLine
 10
0.097979589711
 20
0.0
 30
0.0
 11
0.097979589711
 21
0.0
 31
0.0
  0
LINE
  5
139
100
AcDbEntity
  8
0
370
           0
  6
Continuous
 62
           7
100
AcDbLine
 10
0.097979589711
 20
0.0
 30
0.0
 11
0.097979589711
 21
0.0
 31
0.0
  0
LINE
  5
13A
100
AcDbEntity
  8
0
370
           0
  6
Continuous
 62
           7
100
AcDbLine
 10
0.097979589711
 20
0.0
 30
0.0
 11
0.097979589711
 21
0.0
 31
0.0
  0
LINE
  5
13B
100
AcDbEntity
  8
0
370
           0
  6
Continuous
 62
           7
100
AcDbLine
 10
0.097979589711
 20
0.0
 30
0.0
 11
0.097979589711
 21
0.0
 31
0.0
  0
LINE
  5
13C
100
AcDbEntity
  8
0
370
           0
  6
Continuous
 62
           7
100
AcDbLine
 10
0.097979589711
 20
0.0
 30
0.0
 11
0.097979589711
 21
0.0
 31
0.0
  0
LINE
  5
13D
100
AcDbEntity
  8
0
370
           0
  6
Continuous
 62
           7
100
AcDbLine
 10
0.097979589711
 20
0.0
 30
0.0
 11
0.097979589711
 21
0.0
 31
0.0
  0
LINE
  5
13E
100
AcDbEntity
  8
0
370
           0
  6
Continuous
 62
           7
100
AcDbLine
 10
0.097979589711
 20
0.0
 30
0.0
 11
0.097979589711
 21
0.0
 31
0.0
  0
LINE
  5
13F
100
AcDbEntity
  8
0
370
           0
  6
Continuous
 62
           7
100
AcDbLine
 10
0.097979589711
 20
0.0
 30
0.0
 11
0.097979589711
 21
0.0
 31
0.0
  0
LINE
  5
140
100
AcDbEntity
  8
0
370
           0
  6
Continuous
 62
           7
100
AcDbLine
 10
0.097979589711
 20
0.0
 30
0.0
 11
0.097979589711
 21
0.0
 31
0.0
  0
LINE
  5
141
100
AcDbEntity
  8
0
370
           0
  6
Continuous
 62
           7
100
AcDbLine
 10
0.097979589711
 20
0.0
 30
0.0
 11
0.097979589711
 21
0.0
 31
0.0
  0
LINE
  5
142
100
AcDbEntity
  8
0
370
           0
  6
Continuous
 62
           7
100
AcDbLine
 10
0.097979589711
 20
0.0
 30
0.0
 11
0.097979589711
 21
0.0
 31
0.0
  0
LINE
  5
143
100
AcDbEntity
  8
0
370
           0
  6
Continuous
 62
           7
100
AcDbLine
 10
0.097979589711
 20
0.0
 30
0.0
 11
0.097979589711
 21
0.0
 31
0.0
  0
LINE
  5
144
100
AcDbEntity
  8
0
370
           0
  6
Continuous
 62
           7
100
AcDbLine
 10
0.097979589711
 20
0.0
 30
0.0
 11
0.097979589711
 21
0.0
 31
0.0
  0
LINE
  5
145
100
AcDbEntity
  8
0
370
           0
  6
Continuous
 62
           7
100
AcDbLine
 10
0.097979589711
 20
0.0
 30
0.0
 11
0.097979589711
 21
0.0
 31
0.0
  0
LINE
  5
146
100
AcDbEntity
  8
0
370
           0
  6
Continuous
 62
           7
100
AcDbLine
 10
0.097979589711
 20
0.0
 30
0.0
 11
0.097979589711
 21
0.0
 31
0.0
  0
LINE
  5
147
100
AcDbEntity
  8
0
370
           0
  6
Continuous
 62
           7
100
AcDbLine
 10
0.097979589711
 20
0.0
 30
0.0
 11
0.097979589711
 21
0.0
 31
0.0
  0
LINE
  5
148
100
AcDbEntity
  8
0
370
           0
  6
Continuous
 62
           7
100
AcDbLine
 10
0.097979589711
 20
0.0
 30
0.0
 11
0.097979589711
 21
0.0
 31
0.0
  0
LINE
  5
149
100
AcDbEntity
  8
0
370
           0
  6
Continuous
 62
           7
100
AcDbLine
 10
0.097979589711
 20
0.0
 30
0.0
 11
0.097979589711
 21
0.0
 31
0.0
  0
LINE
  5
14A
100
AcDbEntity
  8
0
370
           0
  6
Continuous
 62
           7
100
AcDbLine
 10
0.097979589711
 20
0.0
 30
0.0
 11
0.097979589711
 21
0.0
 31
0.0
  0
LINE
  5
14B
100
AcDbEntity
  8
0
370
           0
  6
Continuous
 62
           7
100
AcDbLine
 10
0.097979589711
 20
0.0
 30
0.0
 11
0.097979589711
 21
0.0
 31
0.0
  0
LINE
  5
14C
100
AcDbEntity
  8
0
370
           0
  6
Continuous
 62
           7
100
AcDbLine
 10
0.097979589711
 20
0.0
 30
0.0
 11
0.097979589711
 21
0.0
 31
0.0
  0
LINE
  5
14D
100
AcDbEntity
  8
0
370
           0
  6
Continuous
 62
           7
100
AcDbLine
 10
0.097979589711
 20
0.0
 30
0.0
 11
0.097979589711
 21
0.0
 31
0.0
  0
LINE
  5
14E
100
AcDbEntity
  8
0
370
           0
  6
Continuous
 62
           7
100
AcDbLine
 10
0.097979589711
 20
0.0
 30
0.0
 11
0.097979589711
 21
0.0
 31
0.0
  0
LINE
  5
14F
100
AcDbEntity
  8
0
370
           0
  6
Continuous
 62
           7
100
AcDbLine
 10
0.097979589711
 20
0.0
 30
0.0
 11
0.097979589711
 21
0.0
 31
0.0
  0
LINE
  5
150
100
AcDbEntity
  8
0
370
           0
  6
Continuous
 62
           7
100
AcDbLine
 10
0.097979589711
 20
0.0
 30
0.0
 11
0.097979589711
 21
0.0
 31
0.0
  0
LINE
  5
151
100
AcDbEntity
  8
0
370
           0
  6
Continuous
 62
           7
100
AcDbLine
 10
0.097979589711
 20
0.0
 30
0.0
 11
0.097979589711
 21
0.0
 31
0.0
  0
LINE
  5
152
100
AcDbEntity
  8
0
370
           0
  6
Continuous
 62
           7
100
AcDbLine
 10
0.097979589711
 20
0.0
 30
0.0
 11
0.097979589711
 21
0.0
 31
0.0
  0
LINE
  5
153
100
AcDbEntity
  8
0
370
           0
  6
Continuous
 62
           7
100
AcDbLine
 10
0.097979589711
 20
0.0
 30
0.0
 11
0.097979589711
 21
0.0
 31
0.0
  0
LINE
  5
154
100
AcDbEntity
  8
0
370
           0
  6
Continuous
 62
           7
100
AcDbLine
 10
0.097979589711
 20
0.0
 30
0.0
 11
0.097979589711
 21
0.0
 31
0.0
  0
LINE
  5
155
100
AcDbEntity
  8
0
370
           0
  6
Continuous
 62
           7
100
AcDbLine
 10
0.097979589711
 20
0.0
 30
0.0
 11
0.097979589711
 21
0.0
 31
0.0
  0
LINE
  5
156
100
AcDbEntity
  8
0
370
           0
  6
Continuous
 62
           7
100
AcDbLine
 10
0.097979589711
 20
0.0
 30
0.0
 11
0.097979589711
 21
0.0
 31
0.0
  0
LINE
  5
157
100
AcDbEntity
  8
0
370
           0
  6
Continuous
 62
           7
100
AcDbLine
 10
0.097979589711
 20
0.0
 30
0.0
 11
0.097979589711
 21
0.0
 31
0.0
  0
LINE
  5
158
100
AcDbEntity
  8
0
370
           0
  6
Continuous
 62
           7
100
AcDbLine
 10
0.097979589711
 20
0.0
 30
0.0
 11
0.097979589711
 21
0.0
 31
0.0
  0
ARC
  5
159
100
AcDbEntity
  8
0
370
           0
  6
Continuous
 62
           7
100
AcDbCircle
 10
0.0
 20
0.0
 30
0.0
 40
0.1
100
AcDbArc
 50
78.463040967185
 51
101.536959032815
  0
ARC
  5
15A
100
AcDbEntity
  8
0
370
           0
  6
Continuous
 62
           7
100
AcDbCircle
 10
0.0
 20
0.0
 30
0.0
 40
0.1
100
AcDbArc
 50
168.463040967185
 51
191.536959032815
  0
ARC
  5
15B
100
AcDbEntity
  8
0
370
           0
  6
Continuous
 62
           7
100
AcDbCircle
 10
0.0
 20
0.0
 30
0.0
 40
0.1
100
AcDbArc
 50
-101.536959032815
 51
-78.463040967185
  0
ARC
  5
15C
100
AcDbEntity
  8
0
370
           0
  6
Continuous
 62
           7
100
AcDbCircle
 10
0.0
 20
0.0
 30
0.0
 40
0.1
100
AcDbArc
 50
-11.536959032815
 51
11.536959032815
  0
TEXT
  5
15D
100
AcDbEntity
  8
0
  6
Continuous
 62
           7
100
AcDbText
 10
-0.226151690813
 20
0.088506612481
 30
0.0
 40
0.120000001788
  1
D
 11
-0.226151690813
 21
0.208506614269
 31
0.0
100
AcDbText
 73
           3
1001
TCAD
1000
TCW40_TEXT
1002
{
1000
Times New Roman
1070
           0
1070
         257
1002
}
  0
TEXT
  5
15E
100
AcDbEntity
  8
0
  6
Continuous
 62
           7
100
AcDbText
 10
0.434788358817
 20
0.439999999106
 30
0.0
 40
0.120000001788
  1
D
 11
0.434788358817
 21
0.560000000894
 31
0.0
100
AcDbText
 73
           3
1001
TCAD
1000
TCW40_TEXT
1002
{
1000
Times New Roman
1070
           0
1070
         257
1002
}
  0
TEXT
  5
15F
100
AcDbEntity
  8
0
  6
Continuous
 62
           7
100
AcDbText
 10
0.109504930041
 20
-0.223174535455
 30
0.0
 40
0.120000001788
  1
D
 11
0.109504930041
 21
-0.103174533666
 31
0.0
100
AcDbText
 73
           3
1001
TCAD
1000
TCW40_TEXT
1002
{
1000
Times New Roman
1070
           0
1070
         257
1002
}
  0
TEXT
  5
160
100
AcDbEntity
  8
0
  6
Continuous
 62
           7
100
AcDbText
 10
-0.343656810439
 20
-0.215822936315
 30
0.0
 40
0.120000001788
  1
D
 11
-0.343656810439
 21
-0.095822934527
 31
0.0
100
AcDbText
 73
           3
1001
TCAD
1000
TCW40_TEXT
1002
{
1000
Times New Roman
1070
           0
1070
         257
1002
}
  0
TEXT
  5
161
100
AcDbEntity
  8
0
  6
Continuous
 62
           7
100
AcDbText
 10
1.240711725021
 20
-0.28311321775
 30
0.0
 40
0.120000001788
  1
B
 11
1.240711725021
 21
-0.163113215962
 31
0.0
100
AcDbText
 73
           3
1001
TCAD
1000
TCW40_TEXT
1002
{
1000
Times New Roman
1070
           0
1070
         257
1002
}
  0
DIMENSION
  5
16D
100
AcDbEntity
  8
0
  6
Continuous
 62
           7
100
AcDbDimension
  2
*D3
 10
2.639878243812
 20
-0.0253546415
 30
0.0
 11
-3.387577632235
 21
0.191641516796
 31
0.0
 70
           3
 71
           5
 72
           1
 41
1.0
 42
0.0
  1
dia 5.28
  3
STANDARD
100
AcDbDiametricDimension
 15
-2.639878243812
 25
0.0253546415
 35
0.0
 40
0.39430046155
1001
ACAD
1000
DSTYLE
1002
{
1070
         174
1070
           0
1070
         140
1040
0.12
1002
}
  0
DIMENSION
  5
179
100
AcDbEntity
  8
0
  6
Continuous
 62
           7
100
AcDbDimension
  2
*D4
 10
2.531531139394
 20
0.38072311498
 30
0.0
 11
-3.507454996826
 21
-0.311843414485
 31
0.0
 70
           3
 71
           5
 72
           1
 41
1.0
 42
0.0
  1
dia 5.12
  3
STANDARD
100
AcDbDiametricDimension
 15
-2.531531139394
 25
-0.38072311498
 35
0.0
 40
0.629507274754
1001
ACAD
1000
DSTYLE
1002
{
1070
         174
1070
           0
1070
         140
1040
0.12
1002
}
  0
DIMENSION
  5
185
100
AcDbEntity
  8
0
  6
Continuous
 62
           7
100
AcDbDimension
  2
*D5
 10
1.034497547932
 20
0.373918204053
 30
0.0
 11
-3.378390929123
 21
-0.947193446816
 31
0.0
 70
           3
 71
           5
 72
           1
 41
1.0
 42
0.0
  1
dia 2.2
  3
STANDARD
100
AcDbDiametricDimension
 15
-1.034497547932
 25
-0.373918204053
 35
0.0
 40
2.164518228597
1001
ACAD
1000
DSTYLE
1002
{
1070
         174
1070
           0
1070
         140
1040
0.12
1002
}
  0
DIMENSION
  5
191
100
AcDbEntity
  8
0
  6
Continuous
 62
           7
100
AcDbDimension
  2
*D6
 10
0.953798230423
 20
0.471241161686
 30
0.0
 11
-3.351614422858
 21
-1.318813277047
 31
0.0
 70
           3
 71
           5
 72
           1
 41
1.0
 42
0.0
  1
dia 2.13
  3
STANDARD
100
AcDbDiametricDimension
 15
-0.953798230423
 25
-0.471241161686
 35
0.0
 40
2.280309909125
1001
ACAD
1000
DSTYLE
1002
{
1070
         174
1070
           0
1070
         140
1040
0.12
1002
}
  0
LEADER
  5
192
100
AcDbEntity
  8
0
370
           0
  6
Continuous
 62
           7
100
AcDbLeader
  3
STANDARD
 73
           3
 74
           0
 75
           0
 40
0.0
 76
           6
 10
-0.2003113167
 20
-0.24696989028
 30
0.0
 10
-2.075141603591
 20
-2.020761419195
 30
0.0
 10
-3.23795204012
 20
-2.020761419195
 30
0.0
 10
-3.201988830743
 20
-2.020761419195
 30
0.0
 10
-3.201988830743
 20
-2.044736892113
 30
0.0
 10
-3.376988830743
 20
-2.044736892113
 30
0.0
 77
           7
211
0.0001
221
0.0
231
0.0
1001
ACAD
1000
DSTYLE
1002
{
1070
         174
1070
           0
1002
}
  0
TEXT
  5
193
100
AcDbEntity
  8
0
  6
Continuous
 62
           7
100
AcDbText
 10
-3.166025621366
 20
-1.992933106384
 30
0.0
 40
0.104999998212
  1
dia 0.2
 11
-3.166025621366
 21
-1.887933108172
 31
0.0
100
AcDbText
 73
           3
1001
TCAD
1000
TCW40_TEXT
1002
{
1000
Times New Roman
1070
           0
1070
         257
1002
}
  0
LEADER
  5
194
100
AcDbEntity
  8
0
370
           0
  6
Continuous
 62
           7
100
AcDbLeader
  3
STANDARD
 73
           3
 74
           0
 75
           0
 40
0.0
 76
           4
 10
-0.14690306436
 20
2.741284268249
 30
0.0
 10
-0.732515120175
 20
3.346747580193
 30
0.0
 10
-3.082111466152
 20
3.346747580193
 30
0.0
 10
-3.257111466152
 20
3.346747580193
 30
0.0
 77
           7
211
0.0001
221
0.0
231
0.0
1001
ACAD
1000
DSTYLE
1002
{
1070
         174
1070
           0
1002
}
  0
LEADER
  5
195
100
AcDbEntity
  8
0
370
           0
  6
Continuous
 62
           7
100
AcDbLeader
  3
STANDARD
 73
           3
 74
           0
 75
           0
 40
0.0
 76
           4
 10
-0.125175532381
 20
-1.238285154313
 30
0.0
 10
-1.605222258002
 20
-2.891670685637
 30
0.0
 10
-4.093876445829
 20
-2.891670685637
 30
0.0
 10
-4.268876445829
 20
-2.891670685637
 30
0.0
 77
           7
211
0.0001
221
0.0
231
0.0
1001
ACAD
1000
DSTYLE
1002
{
1070
         174
1070
           0
1002
}
  0
MTEXT
  5
196
100
AcDbEntity
  8
0
  6
Continuous
 62
           7
100
AcDbMText
 10
-4.485575780266
 20
-2.077154541504
 30
0.0
 40
0.120000001788
 41
2.88897711536
 71
           1
 72
           1
  1
{4  holes4/40 on the back side  .375 deep\P on a  2.0912 bolt\P circle as shown   }
 73
           1
 44
1.0
1001
TCAD
1000
TCW40_TEXT
1002
{
1000
Times New Roman
1070
           0
1070
         257
1002
}
  0
LEADER
  5
197
100
AcDbEntity
  8
0
370
           0
  6
Continuous
 62
           7
100
AcDbLeader
  3
STANDARD
 73
           3
 74
           0
 75
           0
 40
0.0
 76
           5
 10
0.295952755919
 20
2.394667536789
 30
0.0
 10
0.780337389021
 20
1.989136216052
 30
0.0
 10
0.578943408503
 20
2.93856498135
 30
0.0
 10
2.175709968323
 20
2.924179697028
 30
0.0
 10
2.350709968323
 20
2.924179697028
 30
0.0
 77
           7
211
0.0001
221
0.0
231
0.0
1001
ACAD
1000
DSTYLE
1002
{
1070
         174
1070
           0
1002
}
  0
TEXT
  5
198
100
AcDbEntity
  8
0
  6
Continuous
 62
           7
100
AcDbText
 10
0.650869830117
 20
3.023114812452
 30
0.0
 40
0.120000001788
  1
all radius are .250
 11
0.650869830117
 21
3.14311481424
 31
0.0
100
AcDbText
 73
           3
1001
TCAD
1000
TCW40_TEXT
1002
{
1000
Times New Roman
1070
           0
1070
         257
1002
}
  0
LINE
  5
199
100
AcDbEntity
  8
0
370
           0
  6
Continuous
 62
           7
100
AcDbLine
 10
6.0
 20
2.64
 30
0.0
 11
6.0
 21
-2.64
 31
0.0
  0
LINE
  5
19A
100
AcDbEntity
  8
0
370
           0
  6
Continuous
 62
           7
100
AcDbLine
 10
6.0
 20
-2.64
 30
0.0
 11
7.14
 21
-2.64
 31
0.0
  0
LINE
  5
19B
100
AcDbEntity
  8
0
370
           0
  6
Continuous
 62
           7
100
AcDbLine
 10
6.0
 20
2.64
 30
0.0
 11
7.14
 21
2.64
 31
0.0
  0
LINE
  5
19C
100
AcDbEntity
  8
0
370
           0
  6
Continuous
 62
           7
100
AcDbLine
 10
7.14
 20
2.64
 30
0.0
 11
7.14
 21
-2.64
 31
0.0
  0
LINE
  5
19D
100
AcDbEntity
  8
0
370
           0
  6
DASHDOT
 62
           7
 48
0.20000000298
100
AcDbLine
 10
6.0
 20
2.64
 30
0.0
 11
0.0
 21
2.64
 31
0.0
  0
LINE
  5
19E
100
AcDbEntity
  8
0
370
           0
  6
DASHDOT
 62
           7
 48
0.20000000298
100
AcDbLine
 10
0.0
 20
-2.64
 30
0.0
 11
6.0
 21
-2.64
 31
0.0
  0
LINE
  5
19F
100
AcDbEntity
  8
0
370
           0
  6
Continuous
 62
           7
 48
0.300000011921
100
AcDbLine
 10
6.028602462969
 20
-2.46748521295
 30
0.0
 11
6.028602462969
 21
-2.596038376001
 31
0.0
  0
LINE
  5
1A0
100
AcDbEntity
  8
0
370
           0
  6
Continuous
 62
           7
 48
0.300000011921
100
AcDbLine
 10
6.111890427763
 20
-2.46929582088
 30
0.0
 11
6.111890427763
 21
-2.596038376001
 31
0.0
  0
LINE
  5
1A1
100
AcDbEntity
  8
0
370
           0
  6
Continuous
 62
           7
 48
0.300000011921
100
AcDbLine
 10
6.073867661227
 20
-2.507318587417
 30
0.0
 11
6.073867661227
 21
-2.565258041186
 31
0.0
  0
LINE
  5
1A2
100
AcDbEntity
  8
0
370
           0
  6
Continuous
 62
           7
 48
0.300000011921
100
AcDbLine
 10
6.15534501809
 20
-2.507318587417
 30
0.0
 11
6.15534501809
 21
-2.559826217395
 31
0.0
  0
LINE
  5
1A3
100
AcDbEntity
  8
0
370
           0
  6
Continuous
 62
           7
 48
0.300000011921
100
AcDbLine
 10
6.177072313253
 20
-2.470201124846
 30
0.0
 11
6.177072313253
 21
-2.598754287897
 31
0.0
  0
LINE
  5
1A4
100
AcDbEntity
  8
0
370
           0
  6
Continuous
 62
           7
 48
0.300000011921
100
AcDbLine
 10
6.260360278047
 20
-2.472011732776
 30
0.0
 11
6.260360278047
 21
-2.598754287897
 31
0.0
  0
LINE
  5
1A5
100
AcDbEntity
  8
0
370
           0
  6
Continuous
 62
           7
 48
0.300000011921
100
AcDbLine
 10
6.222337511511
 20
-2.510034499312
 30
0.0
 11
6.222337511511
 21
-2.567973953082
 31
0.0
  0
LINE
  5
1A6
100
AcDbEntity
  8
0
370
           0
  6
Continuous
 62
           7
 48
0.300000011921
100
AcDbLine
 10
6.303814868374
 20
-2.510034499312
 30
0.0
 11
6.303814868374
 21
-2.562542129291
 31
0.0
  0
LINE
  5
1A7
100
AcDbEntity
  8
0
370
           0
  6
Continuous
 62
           7
 48
0.300000011921
100
AcDbLine
 10
6.330973987329
 20
-2.466579908985
 30
0.0
 11
6.330973987329
 21
-2.595133072036
 31
0.0
  0
LINE
  5
1A8
100
AcDbEntity
  8
0
370
           0
  6
Continuous
 62
           7
 48
0.300000011921
100
AcDbLine
 10
6.997277705678
 20
-2.466579908985
 30
0.0
 11
6.997277705678
 21
-2.595133072036
 31
0.0
  0
LINE
  5
1A9
100
AcDbEntity
  8
0
370
           0
  6
Continuous
 62
           7
 48
0.300000011921
100
AcDbLine
 10
7.080565670472
 20
-2.468390516915
 30
0.0
 11
7.080565670472
 21
-2.595133072036
 31
0.0
  0
LINE
  5
1AA
100
AcDbEntity
  8
0
370
           0
  6
Continuous
 62
           7
 48
0.300000011921
100
AcDbLine
 10
7.042542903936
 20
-2.506413283452
 30
0.0
 11
7.042542903936
 21
-2.564352737221
 31
0.0
  0
LINE
  5
1AB
100
AcDbEntity
  8
0
370
           0
  6
Continuous
 62
           7
 48
0.300000011921
100
AcDbLine
 10
7.124020260799
 20
-2.506413283452
 30
0.0
 11
7.124020260799
 21
-2.55892091343
 31
0.0
  0
LINE
  5
1AC
100
AcDbEntity
  8
0
370
           0
  6
Continuous
 62
           7
 48
0.300000011921
100
AcDbLine
 10
6.832512384021
 20
-2.468390516915
 30
0.0
 11
6.832512384021
 21
-2.596943679966
 31
0.0
  0
LINE
  5
1AD
100
AcDbEntity
  8
0
370
           0
  6
Continuous
 62
           7
 48
0.300000011921
100
AcDbLine
 10
6.915800348815
 20
-2.470201124846
 30
0.0
 11
6.915800348815
 21
-2.596943679966
 31
0.0
  0
LINE
  5
1AE
100
AcDbEntity
  8
0
370
           0
  6
Continuous
 62
           7
 48
0.300000011921
100
AcDbLine
 10
6.877777582279
 20
-2.508223891382
 30
0.0
 11
6.877777582279
 21
-2.566163345151
 31
0.0
  0
LINE
  5
1AF
100
AcDbEntity
  8
0
370
           0
  6
Continuous
 62
           7
 48
0.300000011921
100
AcDbLine
 10
6.959254939142
 20
-2.508223891382
 30
0.0
 11
6.959254939142
 21
-2.56073152136
 31
0.0
  0
LINE
  5
1B0
100
AcDbEntity
  8
0
370
           0
  6
Continuous
 62
           7
 48
0.300000011921
100
AcDbLine
 10
6.988374317334
 20
-0.971127849389
 30
0.0
 11
6.988374317334
 21
-1.09968101244
 31
0.0
  0
LINE
  5
1B1
100
AcDbEntity
  8
0
370
           0
  6
Continuous
 62
           7
 48
0.300000011921
100
AcDbLine
 10
7.071662282127
 20
-0.972938457319
 30
0.0
 11
7.071662282127
 21
-1.09968101244
 31
0.0
  0
LINE
  5
1B2
100
AcDbEntity
  8
0
370
           0
  6
Continuous
 62
           7
 48
0.300000011921
100
AcDbLine
 10
7.033639515591
 20
-1.010961223855
 30
0.0
 11
7.033639515591
 21
-1.068900677625
 31
0.0
  0
LINE
  5
1B3
100
AcDbEntity
  8
0
370
           0
  6
Continuous
 62
           7
 48
0.300000011921
100
AcDbLine
 10
7.115116872454
 20
-1.010961223855
 30
0.0
 11
7.115116872454
 21
-1.063468853834
 31
0.0
  0
LINE
  5
1B4
100
AcDbEntity
  8
0
370
           0
  6
Continuous
 62
           7
 48
0.300000011921
100
AcDbLine
 10
6.823608995677
 20
-0.972938457319
 30
0.0
 11
6.823608995677
 21
-1.10149162037
 31
0.0
  0
LINE
  5
1B5
100
AcDbEntity
  8
0
370
           0
  6
Continuous
 62
           7
 48
0.300000011921
100
AcDbLine
 10
6.90689696047
 20
-0.97474906525
 30
0.0
 11
6.90689696047
 21
-1.10149162037
 31
0.0
  0
LINE
  5
1B6
100
AcDbEntity
  8
0
370
           0
  6
Continuous
 62
           7
 48
0.300000011921
100
AcDbLine
 10
6.868874193934
 20
-1.012771831786
 30
0.0
 11
6.868874193934
 21
-1.070711285555
 31
0.0
  0
LINE
  5
1B7
100
AcDbEntity
  8
0
370
           0
  6
Continuous
 62
           7
 48
0.300000011921
100
AcDbLine
 10
6.950351550797
 20
-1.012771831786
 30
0.0
 11
6.950351550797
 21
-1.065279461764
 31
0.0
  0
LINE
  5
1B8
100
AcDbEntity
  8
0
370
           0
  6
Continuous
 62
           7
 48
0.300000011921
100
AcDbLine
 10
6.995883271736
 20
1.108852519891
 30
0.0
 11
6.995883271736
 21
0.98029935684
 31
0.0
  0
LINE
  5
1B9
100
AcDbEntity
  8
0
370
           0
  6
Continuous
 62
           7
 48
0.300000011921
100
AcDbLine
 10
7.07917123653
 20
1.107041911961
 30
0.0
 11
7.07917123653
 21
0.98029935684
 31
0.0
  0
LINE
  5
1BA
100
AcDbEntity
  8
0
370
           0
  6
Continuous
 62
           7
 48
0.300000011921
100
AcDbLine
 10
7.041148469993
 20
1.069019145425
 30
0.0
 11
7.041148469993
 21
1.011079691655
 31
0.0
  0
LINE
  5
1BB
100
AcDbEntity
  8
0
370
           0
  6
Continuous
 62
           7
 48
0.300000011921
100
AcDbLine
 10
7.122625826857
 20
1.069019145425
 30
0.0
 11
7.122625826857
 21
1.016511515446
 31
0.0
  0
LINE
  5
1BC
100
AcDbEntity
  8
0
370
           0
  6
Continuous
 62
           7
 48
0.300000011921
100
AcDbLine
 10
6.831117950079
 20
1.107041911961
 30
0.0
 11
6.831117950079
 21
0.97848874891
 31
0.0
  0
LINE
  5
1BD
100
AcDbEntity
  8
0
370
           0
  6
Continuous
 62
           7
 48
0.300000011921
100
AcDbLine
 10
6.914405914873
 20
1.105231304031
 30
0.0
 11
6.914405914873
 21
0.97848874891
 31
0.0
  0
LINE
  5
1BE
100
AcDbEntity
  8
0
370
           0
  6
Continuous
 62
           7
 48
0.300000011921
100
AcDbLine
 10
6.876383148336
 20
1.067208537495
 30
0.0
 11
6.876383148336
 21
1.009269083725
 31
0.0
  0
LINE
  5
1BF
100
AcDbEntity
  8
0
370
           0
  6
Continuous
 62
           7
 48
0.300000011921
100
AcDbLine
 10
6.9578605052
 20
1.067208537495
 30
0.0
 11
6.9578605052
 21
1.014700907516
 31
0.0
  0
LINE
  5
1C0
100
AcDbEntity
  8
0
370
           0
  6
Continuous
 62
           7
 48
0.300000011921
100
AcDbLine
 10
6.023453551826
 20
2.594250877837
 30
0.0
 11
6.023453551826
 21
2.465697714786
 31
0.0
  0
LINE
  5
1C1
100
AcDbEntity
  8
0
370
           0
  6
Continuous
 62
           7
 48
0.300000011921
100
AcDbLine
 10
6.106741516619
 20
2.592440269907
 30
0.0
 11
6.106741516619
 21
2.465697714786
 31
0.0
  0
LINE
  5
1C2
100
AcDbEntity
  8
0
370
           0
  6
Continuous
 62
           7
 48
0.300000011921
100
AcDbLine
 10
6.068718750083
 20
2.554417503371
 30
0.0
 11
6.068718750083
 21
2.496478049601
 31
0.0
  0
LINE
  5
1C3
100
AcDbEntity
  8
0
370
           0
  6
Continuous
 62
           7
 48
0.300000011921
100
AcDbLine
 10
6.150196106946
 20
2.554417503371
 30
0.0
 11
6.150196106946
 21
2.501909873392
 31
0.0
  0
LINE
  5
1C4
100
AcDbEntity
  8
0
370
           0
  6
Continuous
 62
           7
 48
0.300000011921
100
AcDbLine
 10
6.17192340211
 20
2.591534965942
 30
0.0
 11
6.17192340211
 21
2.462981802891
 31
0.0
  0
LINE
  5
1C5
100
AcDbEntity
  8
0
370
           0
  6
Continuous
 62
           7
 48
0.300000011921
100
AcDbLine
 10
6.255211366904
 20
2.589724358012
 30
0.0
 11
6.255211366904
 21
2.462981802891
 31
0.0
  0
LINE
  5
1C6
100
AcDbEntity
  8
0
370
           0
  6
Continuous
 62
           7
 48
0.300000011921
100
AcDbLine
 10
6.217188600367
 20
2.551701591475
 30
0.0
 11
6.217188600367
 21
2.493762137706
 31
0.0
  0
LINE
  5
1C7
100
AcDbEntity
  8
0
370
           0
  6
Continuous
 62
           7
 48
0.300000011921
100
AcDbLine
 10
6.298665957231
 20
2.551701591475
 30
0.0
 11
6.298665957231
 21
2.499193961497
 31
0.0
  0
LINE
  5
1C8
100
AcDbEntity
  8
0
370
           0
  6
Continuous
 62
           7
 48
0.300000011921
100
AcDbLine
 10
6.325825076185
 20
2.595156181803
 30
0.0
 11
6.325825076185
 21
2.466603018751
 31
0.0
  0
LINE
  5
1C9
100
AcDbEntity
  8
0
370
           0
  6
Continuous
 62
           7
 48
0.300000011921
100
AcDbLine
 10
6.992128794535
 20
2.595156181803
 30
0.0
 11
6.992128794535
 21
2.466603018751
 31
0.0
  0
LINE
  5
1CA
100
AcDbEntity
  8
0
370
           0
  6
Continuous
 62
           7
 48
0.300000011921
100
AcDbLine
 10
7.075416759329
 20
2.593345573872
 30
0.0
 11
7.075416759329
 21
2.466603018751
 31
0.0
  0
LINE
  5
1CB
100
AcDbEntity
  8
0
370
           0
  6
Continuous
 62
           7
 48
0.300000011921
100
AcDbLine
 10
7.037393992792
 20
2.555322807336
 30
0.0
 11
7.037393992792
 21
2.497383353566
 31
0.0
  0
LINE
  5
1CC
100
AcDbEntity
  8
0
370
           0
  6
Continuous
 62
           7
 48
0.300000011921
100
AcDbLine
 10
7.118871349656
 20
2.555322807336
 30
0.0
 11
7.118871349656
 21
2.502815177357
 31
0.0
  0
LINE
  5
1CD
100
AcDbEntity
  8
0
370
           0
  6
Continuous
 62
           7
 48
0.300000011921
100
AcDbLine
 10
6.827363472878
 20
2.593345573872
 30
0.0
 11
6.827363472878
 21
2.464792410821
 31
0.0
  0
LINE
  5
1CE
100
AcDbEntity
  8
0
370
           0
  6
Continuous
 62
           7
 48
0.300000011921
100
AcDbLine
 10
6.910651437671
 20
2.591534965942
 30
0.0
 11
6.910651437671
 21
2.464792410821
 31
0.0
  0
LINE
  5
1CF
100
AcDbEntity
  8
0
370
           0
  6
Continuous
 62
           7
 48
0.300000011921
100
AcDbLine
 10
6.872628671135
 20
2.553512199406
 30
0.0
 11
6.872628671135
 21
2.495572745636
 31
0.0
  0
LINE
  5
1D0
100
AcDbEntity
  8
0
370
           0
  6
Continuous
 62
           7
 48
0.300000011921
100
AcDbLine
 10
6.954106027999
 20
2.553512199406
 30
0.0
 11
6.954106027999
 21
2.501004569427
 31
0.0
  0
LINE
  5
1D1
100
AcDbEntity
  8
0
370
           0
  6
DASHED
 62
           7
 48
0.300000011921
100
AcDbLine
 10
7.1
 20
-2.64
 30
0.0
 11
7.1
 21
-2.64
 31
0.0
  0
LINE
  5
1D2
100
AcDbEntity
  8
0
370
           0
  6
DASHED
 62
           7
 48
0.300000011921
100
AcDbLine
 10
7.1
 20
-2.64
 30
0.0
 11
7.1
 21
2.64
 31
0.0
  0
LINE
  5
1D3
100
AcDbEntity
  8
0
370
           0
  6
DASHED
 62
           7
 48
0.300000011921
100
AcDbLine
 10
6.0
 20
2.294166515317
 30
0.0
 11
7.1
 21
2.294166515317
 31
0.0
  0
LINE
  5
1D4
100
AcDbEntity
  8
0
370
           0
  6
DASHED
 62
           7
 48
0.300000011921
100
AcDbLine
 10
6.0
 20
1.322724461103
 30
0.0
 11
7.1
 21
1.322724461103
 31
0.0
  0
LINE
  5
1D5
100
AcDbEntity
  8
0
370
           0
  6
DASHED
 62
           7
 48
0.300000011921
100
AcDbLine
 10
6.0
 20
0.768474017106
 30
0.0
 11
7.1
 21
0.768474017106
 31
0.0
  0
LINE
  5
1D6
100
AcDbEntity
  8
0
370
           0
  6
DASHED
 62
           7
 48
0.300000011921
100
AcDbLine
 10
6.0
 20
0.097979589711
 30
0.0
 11
7.1
 21
0.097979589711
 31
0.0
  0
LINE
  5
1D7
100
AcDbEntity
  8
0
370
           0
  6
DASHED
 62
           7
 48
0.300000011921
100
AcDbLine
 10
6.0
 20
-0.097979589711
 30
0.0
 11
7.1
 21
-0.097979589711
 31
0.0
  0
LINE
  5
1D8
100
AcDbEntity
  8
0
370
           0
  6
DASHED
 62
           7
 48
0.300000011921
100
AcDbLine
 10
6.0
 20
-0.768071509332
 30
0.0
 11
7.1
 21
-0.768071509332
 31
0.0
  0
LINE
  5
1D9
100
AcDbEntity
  8
0
370
           0
  6
DASHED
 62
           7
 48
0.300000011921
100
AcDbLine
 10
6.0
 20
-1.322724461103
 30
0.0
 11
7.1
 21
-1.322724461103
 31
0.0
  0
LINE
  5
1DA
100
AcDbEntity
  8
0
370
           0
  6
DASHED
 62
           7
 48
0.300000011921
100
AcDbLine
 10
6.0
 20
-2.343486371215
 30
0.0
 11
7.1
 21
-2.343486371215
 31
0.0
  0
DIMENSION
  5
1E9
100
AcDbEntity
  8
0
  6
Continuous
 62
           7
100
AcDbDimension
  2
*D7
 10
7.1
 20
2.85582137772
 30
0.0
 11
6.55
 21
2.85582137772
 31
0.0
 71
           5
 72
           1
 41
1.0
 42
0.0
  1
<1.1>
  3
STANDARD
100
AcDbAlignedDimension
 13
6.0
 23
2.64
 33
0.0
 14
7.1
 24
2.64
 34
0.0
100
AcDbRotatedDimension
1001
ACAD
1000
DSTYLE
1002
{
1070
          77
1070
           0
1002
}
  0
LWPOLYLINE
  5
1EA
100
AcDbEntity
  8
0
370
           0
  6
Continuous
 62
           7
100
AcDbPolyline
 90
        2
 70
           0
 10
7.1
 20
2.7025
 10
7.1
 20
3.237917216925
1001
TCAD
1000
TCW_ATTRIBUTE
1002
{
1000
0.04
1002
}
  0
LWPOLYLINE
  5
1EB
100
AcDbEntity
  8
0
370
           0
  6
Continuous
 62
           7
100
AcDbPolyline
 90
        2
 70
           0
 10
7.14
 20
2.7025
 10
7.14
 20
3.237917216925
1001
TCAD
1000
TCW_ATTRIBUTE
1002
{
1000
0.04
1002
}
  0
LWPOLYLINE
  5
1EC
100
AcDbEntity
  8
0
370
           0
  6
Continuous
 62
           7
100
AcDbPolyline
 90
        2
 70
           0
 10
6.75
 20
3.192917216925
 10
6.925
 20
3.192917216925
1001
TCAD
1000
TCW_ATTRIBUTE
1002
{
1000
0.04
1002
}
  0
LWPOLYLINE
  5
1ED
100
AcDbEntity
  8
0
370
           0
  6
Continuous
 62
           7
100
AcDbPolyline
 90
        2
 70
           0
 10
6.925
 20
3.192917216925
 40
0.0
 41
0.0
 10
6.925
 20
3.192917216925
 40
0.0
 41
0.0
1001
TCAD
1000
TCW_ATTRIBUTE
1002
{
1000
0.04
1002
}
  0
LWPOLYLINE
  5
1EE
100
AcDbEntity
  8
0
370
           0
  6
Continuous
 62
           7
100
AcDbPolyline
 90
        4
 70
           0
 10
7.520142183336
 20
3.192917216925
 10
7.384838257551
 20
3.192917216925
 10
7.315
 20
3.192917216925
 10
7.315
 20
3.192917216925
1001
TCAD
1000
TCW_ATTRIBUTE
1002
{
1000
0.04
1002
}
  0
LWPOLYLINE
  5
1F1
100
AcDbEntity
  8
0
370
           0
  6
Continuous
 62
           7
100
AcDbPolyline
 90
        4
 70
           0
 10
7.14
 20
3.192917216925
 40
0.0
 41
0.0
 10
7.315
 20
3.170167216925
 40
0.0
 41
0.0
 10
7.315
 20
3.215667216925
 40
0.0
 41
0.0
 10
7.14
 20
3.192917216925
 40
0.0
 41
0.0
1001
TCAD
1000
TCW_ATTRIBUTE
1002
{
1000
0.04
1002
}
  0
HATCH
  5
1EF
100
AcDbEntity
  8
0
  6
Continuous
 62
           7
100
AcDbHatch
 10
0.0
 20
0.0
 30
0.0
210
0.0
220
0.0
230
1.0
  2
SOLID
 70
           1
 71
           1
 91
        1
 92
        3
 72
           0
 73
           1
 93
        3
 10
7.1400000000000006
 20
3.1929172169246423
 10
7.3150000000000004
 20
3.1701672169246424
 10
7.3150000000000004
 20
3.2156672169246421
 97
        1
330
1F0
 75
           0
 76
           0
 98
        0
1001
TCAD
1000
TCW_ATTRIBUTE
1002
{
1000
0.04
1002
}
  0
LWPOLYLINE
  5
1F4
100
AcDbEntity
  8
0
370
           0
  6
Continuous
 62
           7
100
AcDbPolyline
 90
        4
 70
           0
 10
7.1
 20
3.192917216925
 40
0.0
 41
0.0
 10
6.925
 20
3.215667216925
 40
0.0
 41
0.0
 10
6.925
 20
3.170167216925
 40
0.0
 41
0.0
 10
7.1
 20
3.192917216925
 40
0.0
 41
0.0
1001
TCAD
1000
TCW_ATTRIBUTE
1002
{
1000
0.04
1002
}
  0
HATCH
  5
1F2
100
AcDbEntity
  8
0
  6
Continuous
 62
           7
100
AcDbHatch
 10
0.0
 20
0.0
 30
0.0
210
0.0
220
0.0
230
1.0
  2
SOLID
 70
           1
 71
           1
 91
        1
 92
        3
 72
           0
 73
           1
 93
        3
 10
7.1000000000000005
 20
3.1929172169246423
 10
6.9250000000000007
 20
3.2156672169246421
 10
6.9250000000000007
 20
3.1701672169246424
 97
        1
330
1F3
 75
           0
 76
           0
 98
        0
1001
TCAD
1000
TCW_ATTRIBUTE
1002
{
1000
0.04
1002
}
  0
TEXT
  5
1F5
100
AcDbEntity
  8
0
  6
Continuous
 62
           7
100
AcDbText
 10
7.537897807805
 20
3.14257673732
 30
0.0
 40
0.104999998212
  1
0.04
 72
           1
 11
7.676169412744
 21
3.195076737916
 31
0.0
100
AcDbText
 73
           2
1001
TCAD
1000
TCW40_TEXT
1002
{
1000
Times New Roman
1070
           0
1070
         514
1002
}
  0
LEADER
  5
1F6
100
AcDbEntity
  8
0
370
           0
  6
Continuous
 62
           7
100
AcDbLeader
  3
STANDARD
 73
           3
 74
           0
 75
           0
 40
0.0
 76
           4
 10
1.410435839523
 20
1.26763373408
 30
0.0
 10
3.177772364974
 20
3.731708697449
 30
0.0
 10
6.754665962421
 20
3.731708697449
 30
0.0
 10
6.929665962421
 20
3.731708697449
 30
0.0
 77
           7
211
0.0001
221
0.0
231
0.0
1001
ACAD
1000
DSTYLE
1002
{
1002
}
  0
LEADER
  5
1F7
100
AcDbEntity
  8
0
370
           0
  6
Continuous
 62
           7
100
AcDbLeader
  3
STANDARD
 73
           3
 74
           0
 75
           0
 40
0.0
 76
           3
 10
6.595775021322
 20
3.161134813223
 30
0.0
 10
6.952383698963
 20
3.731708697449
 30
0.0
 10
7.127383698963
 20
3.731708697449
 30
0.0
 77
           7
211
0.0001
221
0.0
231
0.0
1001
ACAD
1000
DSTYLE
1002
{
1002
}
  0
TEXT
  5
1F8
100
AcDbEntity
  8
0
  6
Continuous
 62
           7
100
AcDbText
 10
3.393464441202
 20
3.861323795118
 30
0.0
 40
0.104999998212
  1
all eight pockets are 1.1 inches deep
 11
3.393464441202
 21
3.96632379333
 31
0.0
100
AcDbText
 73
           3
1001
TCAD
1000
TCW40_TEXT
1002
{
1000
Times New Roman
1070
           0
1070
         257
1002
}
  0
LINE
  5
1F9
100
AcDbEntity
  8
0
370
           0
  6
Continuous
 62
           7
100
AcDbLine
 10
-0.020045170932
 20
-1.809016758401
 30
0.0
 11
-0.020045170932
 21
-1.777242933033
 31
0.0
1001
TCAD
1000
TCW_ATTRIBUTE
1002
{
1000
0.0403
1002
}
  0
LINE
  5
1FA
100
AcDbEntity
  8
0
370
           0
  6
Continuous
 62
           7
100
AcDbLine
 10
0.020276185675
 20
-1.807886253076
 30
0.0
 11
0.020276185675
 21
-1.777242933033
 31
0.0
1001
TCAD
1000
TCW_ATTRIBUTE
1002
{
1000
0.0403
1002
}
  0
LINE
  5
1FB
100
AcDbEntity
  8
0
370
           0
  6
Continuous
 62
           7
100
AcDbLine
 10
-0.195045170932
 20
-1.822242933033
 30
0.0
 11
-0.195045170932
 21
-1.822242933033
 31
0.0
1001
TCAD
1000
TCW_ATTRIBUTE
1002
{
1000
0.0403
1002
}
  0
LINE
  5
1FC
100
AcDbEntity
  8
0
370
           0
  6
Continuous
 62
           7
100
AcDbLine
 10
-0.370045170932
 20
-1.822242933033
 30
0.0
 11
-0.195045170932
 21
-1.822242933033
 31
0.0
1001
TCAD
1000
TCW_ATTRIBUTE
1002
{
1000
0.0403
1002
}
  0
LINE
  5
1FD
100
AcDbEntity
  8
0
370
           0
  6
Continuous
 62
           7
100
AcDbLine
 10
2.243513634825
 20
-1.822242933033
 30
0.0
 11
0.370276185675
 21
-1.822242933033
 31
0.0
1001
TCAD
1000
TCW_ATTRIBUTE
1002
{
1000
0.0403
1002
}
  0
LINE
  5
1FE
100
AcDbEntity
  8
0
370
           0
  6
Continuous
 62
           7
100
AcDbLine
 10
0.370276185675
 20
-1.822242933033
 30
0.0
 11
0.195276185675
 21
-1.822242933033
 31
0.0
1001
TCAD
1000
TCW_ATTRIBUTE
1002
{
1000
0.0403
1002
}
  0
LINE
  5
1FF
100
AcDbEntity
  8
0
370
           0
  6
Continuous
 62
           7
100
AcDbLine
 10
0.195276185675
 20
-1.822242933033
 30
0.0
 11
0.195276185675
 21
-1.822242933033
 31
0.0
1001
TCAD
1000
TCW_ATTRIBUTE
1002
{
1000
0.0403
1002
}
  0
LWPOLYLINE
  5
200
100
AcDbEntity
  8
0
370
           0
  6
Continuous
 62
           7
100
AcDbPolyline
 90
        4
 70
           0
 10
0.020276185675
 20
-1.822242933033
 40
0.0
 41
0.0
 10
0.195276185675
 20
-1.844992933033
 40
0.0
 41
0.0
 10
0.195276185675
 20
-1.799492933033
 40
0.0
 41
0.0
 10
0.020276185675
 20
-1.822242933033
 40
0.0
 41
0.0
1001
TCAD
1000
TCW_ATTRIBUTE
1002
{
1000
0.0403
1002
}
  0
HATCH
  5
201
100
AcDbEntity
  8
0
  6
Continuous
 62
           7
100
AcDbHatch
 10
0.0
 20
0.0
 30
0.0
210
0.0
220
0.0
230
1.0
  2
SOLID
 70
           1
 71
           0
 91
        1
 92
        3
 72
           0
 73
           1
 93
        3
 10
0.0202761856750015
 20
-1.8222429330325276
 10
0.1952761856750015
 20
-1.8449929330325276
 10
0.1952761856750015
 20
-1.7994929330325276
 97
        0
 75
           0
 76
           0
 98
        0
1001
TCAD
1000
TCW_ATTRIBUTE
1002
{
1000
0.0403
1002
}
  0
LWPOLYLINE
  5
202
100
AcDbEntity
  8
0
370
           0
  6
Continuous
 62
           7
100
AcDbPolyline
 90
        4
 70
           0
 10
-0.020045170932
 20
-1.822242933033
 40
0.0
 41
0.0
 10
-0.195045170932
 20
-1.799492933033
 40
0.0
 41
0.0
 10
-0.195045170932
 20
-1.844992933033
 40
0.0
 41
0.0
 10
-0.020045170932
 20
-1.822242933033
 40
0.0
 41
0.0
1001
TCAD
1000
TCW_ATTRIBUTE
1002
{
1000
0.0403
1002
}
  0
HATCH
  5
203
100
AcDbEntity
  8
0
  6
Continuous
 62
           7
100
AcDbHatch
 10
0.0
 20
0.0
 30
0.0
210
0.0
220
0.0
230
1.0
  2
SOLID
 70
           1
 71
           0
 91
        1
 92
        3
 72
           0
 73
           1
 93
        3
 10
-0.0200451709322944
 20
-1.8222429330325276
 10
-0.1950451709322944
 20
-1.7994929330325276
 10
-0.1950451709322944
 20
-1.8449929330325276
 97
        0
 75
           0
 76
           0
 98
        0
1001
TCAD
1000
TCW_ATTRIBUTE
1002
{
1000
0.0403
1002
}
  0
LWPOLYLINE
  5
205
102
{ACAD_REACTORS
330
204
330
20F
102
}
100
AcDbEntity
  8
0
370
           0
  6
Continuous
 62
           7
100
AcDbPolyline
 90
       33
 70
           1
 10
2.43282708843
 20
-1.823315715251
 10
2.434568022072
 20
-1.823472447504
 10
2.436164279788
 20
-1.823942644263
 10
2.437615861578
 20
-1.824726305528
 10
2.438922767443
 20
-1.8258234313
 10
2.440003014356
 20
-1.827142393491
 10
2.440774619294
 20
-1.828591564016
 10
2.441237582257
 20
-1.830170942874
 10
2.441391903245
 20
-1.831880530066
 10
2.441235170992
 20
-1.833590117257
 10
2.440764974233
 20
-1.835169496115
 10
2.439981312967
 20
-1.83661866664
 10
2.438884187196
 20
-1.837937628831
 10
2.437565225004
 20
-1.839034754603
 10
2.43611605448
 20
-1.839818415868
 10
2.434536675622
 20
-1.840288612627
 10
2.43282708843
 20
-1.84044534488
 10
2.431117501239
 20
-1.840288612627
 10
2.429538122381
 20
-1.839818415868
 10
2.428088951856
 20
-1.839034754603
 10
2.426769989665
 20
-1.837937628831
 10
2.425672863893
 20
-1.83661866664
 10
2.424889202628
 20
-1.835169496115
 10
2.424419005869
 20
-1.833590117257
 10
2.424262273615
 20
-1.831880530066
 10
2.424419005869
 20
-1.830139596424
 10
2.424889202628
 20
-1.828543338707
 10
2.425672863893
 20
-1.827091756917
 10
2.426769989665
 20
-1.825784851053
 10
2.428088951856
 20
-1.82470460414
 10
2.429538122381
 20
-1.823932999201
 10
2.431117501239
 20
-1.823470036238
 10
2.43282708843
 20
-1.823315715251
  0
HATCH
  5
204
100
AcDbEntity
  8
0
  6
Continuous
 62
           7
100
AcDbHatch
 10
0.0
 20
0.0
 30
0.0
210
0.0
220
0.0
230
1.0
  2
SOLID
 70
           1
 71
           1
 91
        1
 92
        3
 72
           0
 73
           1
 93
       32
 10
2.4328270884302565
 20
-1.8233157152507007
 10
2.4345680220722317
 20
-1.8234724475037871
 10
2.4361642797882812
 20
-1.8239426442630464
 10
2.4376158615784047
 20
-1.8247263055284786
 10
2.4389227674426022
 20
-1.8258234313000834
 10
2.4400030143561824
 20
-1.8271423934914415
 10
2.4407746192944542
 20
-1.8285915640161328
 10
2.441237582257417
 20
-1.8301709428741575
 10
2.441391903245071
 20
-1.8318805300655157
 10
2.4412351709919848
 20
-1.8335901172568736
 10
2.4407649742327258
 20
-1.8351694961148983
 10
2.4399813129672934
 20
-1.8366186666395896
 10
2.4388841871956886
 20
-1.8379376288309477
 10
2.4375652250043305
 20
-1.8390347546025525
 10
2.4361160544796392
 20
-1.8398184158679847
 10
2.4345366756216147
 20
-1.840288612627244
 10
2.4328270884302565
 20
-1.8404453448803304
 10
2.4311175012388984
 20
-1.840288612627244
 10
2.4295381223808739
 20
-1.8398184158679847
 10
2.4280889518561826
 20
-1.8390347546025525
 10
2.4267699896648245
 20
-1.8379376288309477
 10
2.4256728638932192
 20
-1.8366186666395896
 10
2.4248892026277873
 20
-1.8351694961148983
 10
2.4244190058685282
 20
-1.8335901172568736
 10
2.4242622736154416
 20
-1.8318805300655157
 10
2.4244190058685282
 20
-1.8301395964235403
 10
2.4248892026277873
 20
-1.828543338707491
 10
2.4256728638932192
 20
-1.8270917569173675
 10
2.4267699896648245
 20
-1.82578485105317
 10
2.4280889518561826
 20
-1.8247046041395896
 10
2.4295381223808739
 20
-1.823932999201318
 10
2.4311175012388984
 20
-1.8234700362383551
 97
        1
330
205
 75
           0
 76
           0
 98
        0
  0
LWPOLYLINE
  5
207
102
{ACAD_REACTORS
330
206
330
20F
102
}
100
AcDbEntity
  8
0
370
           0
  6
Continuous
 62
           7
100
AcDbPolyline
 90
       42
 70
           0
 10
2.458290051393
 20
-1.786587320189
 10
2.458627628554
 20
-1.777947756146
 10
2.459640360035
 20
-1.769930298584
 10
2.461328245838
 20
-1.762534947504
 10
2.463691285961
 20
-1.755761702905
 10
2.466613739665
 20
-1.749711837936
 10
2.469979866208
 20
-1.744486625745
 10
2.473789665591
 20
-1.740086066331
 10
2.478043137813
 20
-1.736510159695
 10
2.48154429522
 20
-1.734315908152
 10
2.485103322998
 20
-1.732748585621
 10
2.488720221146
 20
-1.731808192103
 10
2.492394989665
 20
-1.731494727596
 10
2.498259187196
 20
-1.732261510004
 10
2.503814742751
 20
-1.734561857226
 10
2.509061656331
 20
-1.738395769263
 10
2.513999927936
 20
-1.743763246115
 10
2.519232373924
 20
-1.752038709078
 10
2.522969835344
 20
-1.761664480683
 10
2.525212312196
 20
-1.77264056093
 10
2.52595980448
 20
-1.784966949819
 10
2.525631872381
 20
-1.793729488399
 10
2.524648076085
 20
-1.801807227596
 10
2.523008415591
 20
-1.809200167411
 10
2.520712890899
 20
-1.815908307843
 10
2.517908589202
 20
-1.821837609541
 10
2.51474259769
 20
-1.826894033152
 10
2.511214916362
 20
-1.831077578677
 10
2.50732554522
 20
-1.834388246115
 10
2.503291498152
 20
-1.836903195961
 10
2.499329789048
 20
-1.838699588707
 10
2.495440417906
 20
-1.839777424356
 10
2.491623384727
 20
-1.840136702905
 10
2.484452281331
 20
-1.839032343337
 10
2.477908106949
 20
-1.835719264633
 10
2.471990861578
 20
-1.830197466794
 10
2.46670054522
 20
-1.822466949819
 10
2.463020954171
 20
-1.814639982226
 10
2.46039267485
 20
-1.806051054757
 10
2.458815707257
 20
-1.796700167411
 10
2.458290051393
 20
-1.786587320189
 10
2.458290051393
 20
-1.786587320189
  0
LWPOLYLINE
  5
208
102
{ACAD_REACTORS
330
206
330
20F
102
}
100
AcDbEntity
  8
0
370
           0
  6
Continuous
 62
           7
100
AcDbPolyline
 90
       46
 70
           0
 10
2.473413508183
 20
-1.788516332535
 40
0.0
 41
0.0
 10
2.473746262813
 20
-1.798822080991
 40
0.0
 41
0.0
 10
2.474744526702
 20
-1.80813438809
 40
0.0
 41
0.0
 10
2.47640829985
 20
-1.816453253831
 40
0.0
 41
0.0
 10
2.478737582257
 20
-1.823778678214
 40
0.0
 41
0.0
 10
2.48120671806
 20
-1.828808577905
 40
0.0
 41
0.0
 10
2.484215977319
 20
-1.832401363399
 40
0.0
 41
0.0
 10
2.487765360035
 20
-1.834557034695
 40
0.0
 41
0.0
 10
2.491854866208
 20
-1.835275591794
 40
0.0
 41
0.0
 10
2.493957489665
 20
-1.835041699047
 40
0.0
 41
0.0
 10
2.496098693369
 20
-1.834340020806
 40
0.0
 41
0.0
 10
2.498278477319
 20
-1.833170557072
 40
0.0
 41
0.0
 10
2.500496841517
 20
-1.831533307843
 40
0.0
 41
0.0
 10
2.502599464973
 20
-1.829346290096
 40
0.0
 41
0.0
 10
2.504432026702
 20
-1.826527520806
 40
0.0
 41
0.0
 10
2.505994526702
 20
-1.823076999973
 40
0.0
 41
0.0
 10
2.507286964973
 20
-1.818994727596
 40
0.0
 41
0.0
 10
2.508839819912
 20
-1.811678948275
 40
0.0
 41
0.0
 10
2.509949002011
 20
-1.803003215251
 40
0.0
 41
0.0
 10
2.51061451127
 20
-1.792967528522
 40
0.0
 41
0.0
 10
2.51083634769
 20
-1.78157188809
 40
0.0
 41
0.0
 10
2.510604866208
 20
-1.772992605683
 40
0.0
 41
0.0
 10
2.509910421764
 20
-1.765155993028
 40
0.0
 41
0.0
 10
2.508753014356
 20
-1.758062050127
 40
0.0
 41
0.0
 10
2.507132643986
 20
-1.751710776979
 40
0.0
 41
0.0
 10
2.505642481949
 20
-1.747597158152
 40
0.0
 41
0.0
 10
2.503949773615
 20
-1.744129758461
 40
0.0
 41
0.0
 10
2.502054518986
 20
-1.741308577905
 40
0.0
 41
0.0
 10
2.49995671806
 20
-1.739133616485
 40
0.0
 41
0.0
 10
2.498292944912
 20
-1.738019611856
 40
0.0
 41
0.0
 10
2.496465205714
 20
-1.737223894263
 40
0.0
 41
0.0
 10
2.494473500467
 20
-1.736746463707
 40
0.0
 41
0.0
 10
2.492317829171
 20
-1.736587320189
 40
0.0
 41
0.0
 10
2.489766710344
 20
-1.736881494572
 40
0.0
 41
0.0
 10
2.487360267443
 20
-1.73776401772
 40
0.0
 41
0.0
 10
2.485098500467
 20
-1.739234889633
 40
0.0
 41
0.0
 10
2.482981409418
 20
-1.741294110312
 40
0.0
 41
0.0
 10
2.48042546806
 20
-1.744954411238
 40
0.0
 41
0.0
 10
2.478313199541
 20
-1.749530993028
 40
0.0
 41
0.0
 10
2.476644603862
 20
-1.755023855683
 40
0.0
 41
0.0
 10
2.475419681023
 20
-1.761432999201
 40
0.0
 41
0.0
 10
2.474541980406
 20
-1.768276170498
 40
0.0
 41
0.0
 10
2.473915051393
 20
-1.775071116485
 40
0.0
 41
0.0
 10
2.473538893986
 20
-1.781817837164
 40
0.0
 41
0.0
 10
2.473413508183
 20
-1.788516332535
 40
0.0
 41
0.0
 10
2.473413508183
 20
-1.788516332535
 40
0.0
 41
0.0
  0
LWPOLYLINE
  5
20A
102
{ACAD_REACTORS
330
209
330
20F
102
}
100
AcDbEntity
  8
0
370
           0
  6
Continuous
 62
           7
100
AcDbPolyline
 90
       12
 70
           0
 10
2.605126471146
 20
-1.79970460414
 10
2.605126471146
 20
-1.810661394263
 10
2.59108326127
 20
-1.810661394263
 10
2.59108326127
 20
-1.838284851053
 10
2.578351779788
 20
-1.838284851053
 10
2.578351779788
 20
-1.810661394263
 10
2.534061656331
 20
-1.810661394263
 10
2.534061656331
 20
-1.800784851053
 10
2.582595606949
 20
-1.731494727596
 10
2.59108326127
 20
-1.731494727596
 10
2.59108326127
 20
-1.79970460414
 10
2.605126471146
 20
-1.79970460414
  0
LWPOLYLINE
  5
20B
102
{ACAD_REACTORS
330
209
330
20F
102
}
100
AcDbEntity
  8
0
370
           0
  6
Continuous
 62
           7
100
AcDbPolyline
 90
        4
 70
           0
 10
2.578351779788
 20
-1.79970460414
 40
0.0
 41
0.0
 10
2.578351779788
 20
-1.747775591794
 40
0.0
 41
0.0
 10
2.541623384727
 20
-1.79970460414
 40
0.0
 41
0.0
 10
2.578351779788
 20
-1.79970460414
 40
0.0
 41
0.0
  0
LWPOLYLINE
  5
20D
102
{ACAD_REACTORS
330
20C
330
20F
102
}
100
AcDbEntity
  8
0
370
           0
  6
Continuous
 62
           7
100
AcDbPolyline
 90
       42
 70
           0
 10
2.616314742751
 20
-1.786587320189
 10
2.616652319912
 20
-1.777947756146
 10
2.617665051393
 20
-1.769930298584
 10
2.619352937196
 20
-1.762534947504
 10
2.621715977319
 20
-1.755761702905
 10
2.624638431023
 20
-1.749711837936
 10
2.628004557566
 20
-1.744486625745
 10
2.631814356949
 20
-1.740086066331
 10
2.636067829171
 20
-1.736510159695
 10
2.639568986578
 20
-1.734315908152
 10
2.643128014356
 20
-1.732748585621
 10
2.646744912504
 20
-1.731808192103
 10
2.650419681023
 20
-1.731494727596
 10
2.656283878554
 20
-1.732261510004
 10
2.661839434109
 20
-1.734561857226
 10
2.66708634769
 20
-1.738395769263
 10
2.672024619294
 20
-1.743763246115
 10
2.677257065282
 20
-1.752038709078
 10
2.680994526702
 20
-1.761664480683
 10
2.683237003554
 20
-1.77264056093
 10
2.683984495838
 20
-1.784966949819
 10
2.683656563739
 20
-1.793729488399
 10
2.682672767443
 20
-1.801807227596
 10
2.681033106949
 20
-1.809200167411
 10
2.678737582257
 20
-1.815908307843
 10
2.67593328056
 20
-1.821837609541
 10
2.672767289048
 20
-1.826894033152
 10
2.66923960772
 20
-1.831077578677
 10
2.665350236578
 20
-1.834388246115
 10
2.661316189511
 20
-1.836903195961
 10
2.657354480406
 20
-1.838699588707
 10
2.653465109264
 20
-1.839777424356
 10
2.649648076085
 20
-1.840136702905
 10
2.64247697269
 20
-1.839032343337
 10
2.635932798307
 20
-1.835719264633
 10
2.630015552936
 20
-1.830197466794
 10
2.624725236578
 20
-1.822466949819
 10
2.621045645529
 20
-1.814639982226
 10
2.618417366208
 20
-1.806051054757
 10
2.616840398615
 20
-1.796700167411
 10
2.616314742751
 20
-1.786587320189
 10
2.616314742751
 20
-1.786587320189
  0
LWPOLYLINE
  5
20E
102
{ACAD_REACTORS
330
20C
330
20F
102
}
100
AcDbEntity
  8
0
370
           0
  6
Continuous
 62
           7
100
AcDbPolyline
 90
       46
 70
           0
 10
2.631438199541
 20
-1.788516332535
 40
0.0
 41
0.0
 10
2.631770954171
 20
-1.798822080991
 40
0.0
 41
0.0
 10
2.63276921806
 20
-1.80813438809
 40
0.0
 41
0.0
 10
2.634432991208
 20
-1.816453253831
 40
0.0
 41
0.0
 10
2.636762273615
 20
-1.823778678214
 40
0.0
 41
0.0
 10
2.639231409418
 20
-1.828808577905
 40
0.0
 41
0.0
 10
2.642240668677
 20
-1.832401363399
 40
0.0
 41
0.0
 10
2.645790051393
 20
-1.834557034695
 40
0.0
 41
0.0
 10
2.649879557566
 20
-1.835275591794
 40
0.0
 41
0.0
 10
2.651982181023
 20
-1.835041699047
 40
0.0
 41
0.0
 10
2.654123384727
 20
-1.834340020806
 40
0.0
 41
0.0
 10
2.656303168677
 20
-1.833170557072
 40
0.0
 41
0.0
 10
2.658521532875
 20
-1.831533307843
 40
0.0
 41
0.0
 10
2.660624156331
 20
-1.829346290096
 40
0.0
 41
0.0
 10
2.66245671806
 20
-1.826527520806
 40
0.0
 41
0.0
 10
2.66401921806
 20
-1.823076999973
 40
0.0
 41
0.0
 10
2.665311656331
 20
-1.818994727596
 40
0.0
 41
0.0
 10
2.66686451127
 20
-1.811678948275
 40
0.0
 41
0.0
 10
2.667973693369
 20
-1.803003215251
 40
0.0
 41
0.0
 10
2.668639202628
 20
-1.792967528522
 40
0.0
 41
0.0
 10
2.668861039048
 20
-1.78157188809
 40
0.0
 41
0.0
 10
2.668629557566
 20
-1.772992605683
 40
0.0
 41
0.0
 10
2.667935113122
 20
-1.765155993028
 40
0.0
 41
0.0
 10
2.666777705714
 20
-1.758062050127
 40
0.0
 41
0.0
 10
2.665157335344
 20
-1.751710776979
 40
0.0
 41
0.0
 10
2.663667173307
 20
-1.747597158152
 40
0.0
 41
0.0
 10
2.661974464973
 20
-1.744129758461
 40
0.0
 41
0.0
 10
2.660079210344
 20
-1.741308577905
 40
0.0
 41
0.0
 10
2.657981409418
 20
-1.739133616485
 40
0.0
 41
0.0
 10
2.65631763627
 20
-1.738019611856
 40
0.0
 41
0.0
 10
2.654489897072
 20
-1.737223894263
 40
0.0
 41
0.0
 10
2.652498191825
 20
-1.736746463707
 40
0.0
 41
0.0
 10
2.650342520529
 20
-1.736587320189
 40
0.0
 41
0.0
 10
2.647791401702
 20
-1.736881494572
 40
0.0
 41
0.0
 10
2.645384958801
 20
-1.73776401772
 40
0.0
 41
0.0
 10
2.643123191825
 20
-1.739234889633
 40
0.0
 41
0.0
 10
2.641006100776
 20
-1.741294110312
 40
0.0
 41
0.0
 10
2.638450159418
 20
-1.744954411238
 40
0.0
 41
0.0
 10
2.636337890899
 20
-1.749530993028
 40
0.0
 41
0.0
 10
2.63466929522
 20
-1.755023855683
 40
0.0
 41
0.0
 10
2.633444372381
 20
-1.761432999201
 40
0.0
 41
0.0
 10
2.632566671764
 20
-1.768276170498
 40
0.0
 41
0.0
 10
2.631939742751
 20
-1.775071116485
 40
0.0
 41
0.0
 10
2.631563585344
 20
-1.781817837164
 40
0.0
 41
0.0
 10
2.631438199541
 20
-1.788516332535
 40
0.0
 41
0.0
 10
2.631438199541
 20
-1.788516332535
 40
0.0
 41
0.0
  0
TEXT
  5
210
100
AcDbEntity
  8
0
  6
Continuous
 62
           7
100
AcDbText
 10
2.783964758457
 20
-1.8456935179
 30
0.0
 40
0.104999998212
  1
all walls except outside wall
 11
2.783964758457
 21
-1.740693519688
 31
0.0
100
AcDbText
 73
           3
1001
TCAD
1000
TCW40_TEXT
1002
{
1000
Times New Roman
1070
           0
1070
         257
1002
}
  0
MTEXT
  5
211
100
AcDbEntity
  8
0
  6
Continuous
 62
           7
100
AcDbMText
 10
-3.423539944567
 20
4.132254235153
 30
0.0
 40
0.120000001788
 41
2.001234597722
 71
           1
 72
           1
  1
{8  holes4/40 4 on each  side\P  .375 deep\P on a  2.0912 bolt\P circle as shown   }
 73
           1
 44
1.0
1001
TCAD
1000
TCW40_TEXT
1002
{
1000
Times New Roman
1070
           0
1070
         257
1002
}
  0
LINE
  5
212
100
AcDbEntity
  8
0
370
           0
  6
DASHED
 62
           7
 48
0.300000011921
100
AcDbLine
 10
6.0
 20
2.610232523199
 30
0.0
 11
6.375
 21
2.610232523199
 31
0.0
1001
TCAD
1000
TCW_CUSTOM_DATA
1002
{
1000
#$AUX@_ToolInfo Properties
1070
           8
1000
Insert^JLine^JSingle@Line Single
1002
}
  0
LINE
  5
213
100
AcDbEntity
  8
0
370
           0
  6
DASHED
 62
           7
 48
0.300000011921
100
AcDbLine
 10
6.0
 20
2.450232523199
 30
0.0
 11
6.375
 21
2.450232523199
 31
0.0
1001
TCAD
1000
TCW_CUSTOM_DATA
1002
{
1000
#$AUX@_ToolInfo Properties
1070
           8
1000
Insert^JLine^JSingle@Line Single
1002
}
  0
LINE
  5
214
100
AcDbEntity
  8
0
370
           0
  6
DASHED
 62
           7
 48
0.300000011921
100
AcDbLine
 10
6.375
 20
2.610232523199
 30
0.0
 11
6.375
 21
2.450232523199
 31
0.0
1001
TCAD
1000
TCW_CUSTOM_DATA
1002
{
1000
#$AUX@_ToolInfo Properties
1070
           8
1000
Insert^JLine^JSingle@Line Single
1002
}
  0
LINE
  5
215
100
AcDbEntity
  8
0
370
           0
  6
DASHED
 62
           7
 48
0.300000011921
100
AcDbLine
 10
7.14
 20
2.610232523199
 30
0.0
 11
6.765
 21
2.610232523199
 31
0.0
1001
TCAD
1000
TCW_CUSTOM_DATA
1002
{
1000
#$AUX@_ToolInfo Properties
1070
           8
1000
Insert^JLine^JSingle@Line Single
1002
}
  0
LINE
  5
216
100
AcDbEntity
  8
0
370
           0
  6
DASHED
 62
           7
 48
0.300000011921
100
AcDbLine
 10
7.14
 20
2.450232523199
 30
0.0
 11
6.765
 21
2.450232523199
 31
0.0
1001
TCAD
1000
TCW_CUSTOM_DATA
1002
{
1000
#$AUX@_ToolInfo Properties
1070
           8
1000
Insert^JLine^JSingle@Line Single
1002
}
  0
LINE
  5
217
100
AcDbEntity
  8
0
370
           0
  6
DASHED
 62
           7
 48
0.300000011921
100
AcDbLine
 10
6.765
 20
2.610232523199
 30
0.0
 11
6.765
 21
2.450232523199
 31
0.0
1001
TCAD
1000
TCW_CUSTOM_DATA
1002
{
1000
#$AUX@_ToolInfo Properties
1070
           8
1000
Insert^JLine^JSingle@Line Single
1002
}
  0
LINE
  5
218
100
AcDbEntity
  8
0
370
           0
  6
DASHED
 62
           7
 48
0.300000011921
100
AcDbLine
 10
7.14
 20
1.1256
 30
0.0
 11
6.765
 21
1.1256
 31
0.0
1001
TCAD
1000
TCW_CUSTOM_DATA
1002
{
1000
#$AUX@_ToolInfo Properties
1070
           8
1000
Insert^JLine^JSingle@Line Single
1002
}
  0
LINE
  5
219
100
AcDbEntity
  8
0
370
           0
  6
DASHED
 62
           7
 48
0.300000011921
100
AcDbLine
 10
7.14
 20
0.9656
 30
0.0
 11
6.765
 21
0.9656
 31
0.0
1001
TCAD
1000
TCW_CUSTOM_DATA
1002
{
1000
#$AUX@_ToolInfo Properties
1070
           8
1000
Insert^JLine^JSingle@Line Single
1002
}
  0
LINE
  5
21A
100
AcDbEntity
  8
0
370
           0
  6
DASHED
 62
           7
 48
0.300000011921
100
AcDbLine
 10
6.765
 20
1.1256
 30
0.0
 11
6.765
 21
0.9656
 31
0.0
1001
TCAD
1000
TCW_CUSTOM_DATA
1002
{
1000
#$AUX@_ToolInfo Properties
1070
           8
1000
Insert^JLine^JSingle@Line Single
1002
}
  0
LINE
  5
21B
100
AcDbEntity
  8
0
370
           0
  6
DASHDOT
 62
           7
 48
0.300000011921
100
AcDbLine
 10
0.0
 20
-0.0
 30
0.0
 11
8.507692737467
 21
-0.0
 31
0.0
  0
LINE
  5
21C
102
{ACAD_REACTORS
330
227
102
}
100
AcDbEntity
  8
0
370
           0
  6
Continuous
 62
           7
 48
0.300000011921
100
AcDbLine
 10
6.995883271736
 20
0.066985096651
 30
0.0
 11
6.995883271736
 21
-0.0615680664
 31
0.0
  0
LINE
  5
21D
102
{ACAD_REACTORS
330
227
102
}
100
AcDbEntity
  8
0
370
           0
  6
Continuous
 62
           7
 48
0.300000011921
100
AcDbLine
 10
7.07917123653
 20
0.06517448872
 30
0.0
 11
7.07917123653
 21
-0.0615680664
 31
0.0
  0
LINE
  5
21E
102
{ACAD_REACTORS
330
227
102
}
100
AcDbEntity
  8
0
370
           0
  6
Continuous
 62
           7
 48
0.300000011921
100
AcDbLine
 10
7.041148469993
 20
0.027151722184
 30
0.0
 11
7.041148469993
 21
-0.030787731585
 31
0.0
  0
LINE
  5
21F
102
{ACAD_REACTORS
330
227
102
}
100
AcDbEntity
  8
0
370
           0
  6
Continuous
 62
           7
 48
0.300000011921
100
AcDbLine
 10
7.122625826857
 20
0.027151722184
 30
0.0
 11
7.122625826857
 21
-0.025355907795
 31
0.0
  0
LINE
  5
220
102
{ACAD_REACTORS
330
227
102
}
100
AcDbEntity
  8
0
370
           0
  6
Continuous
 62
           7
 48
0.300000011921
100
AcDbLine
 10
6.831117950079
 20
0.06517448872
 30
0.0
 11
6.831117950079
 21
-0.063378674331
 31
0.0
  0
LINE
  5
221
102
{ACAD_REACTORS
330
227
102
}
100
AcDbEntity
  8
0
370
           0
  6
Continuous
 62
           7
 48
0.300000011921
100
AcDbLine
 10
6.914405914873
 20
0.06336388079
 30
0.0
 11
6.914405914873
 21
-0.063378674331
 31
0.0
  0
LINE
  5
222
102
{ACAD_REACTORS
330
227
102
}
100
AcDbEntity
  8
0
370
           0
  6
Continuous
 62
           7
 48
0.300000011921
100
AcDbLine
 10
6.876383148336
 20
0.025341114254
 30
0.0
 11
6.876383148336
 21
-0.032598339516
 31
0.0
  0
LINE
  5
223
102
{ACAD_REACTORS
330
227
102
}
100
AcDbEntity
  8
0
370
           0
  6
Continuous
 62
           7
 48
0.300000011921
100
AcDbLine
 10
6.9578605052
 20
0.025341114254
 30
0.0
 11
6.9578605052
 21
-0.027166515725
 31
0.0
  0
LINE
  5
224
102
{ACAD_REACTORS
330
227
102
}
100
AcDbEntity
  8
0
370
           0
  6
DASHED
 62
           7
 48
0.300000011921
100
AcDbLine
 10
7.14
 20
0.08
 30
0.0
 11
6.765
 21
0.08
 31
0.0
  0
LINE
  5
225
102
{ACAD_REACTORS
330
227
102
}
100
AcDbEntity
  8
0
370
           0
  6
DASHED
 62
           7
 48
0.300000011921
100
AcDbLine
 10
7.14
 20
-0.08
 30
0.0
 11
6.765
 21
-0.08
 31
0.0
  0
LINE
  5
226
102
{ACAD_REACTORS
330
227
102
}
100
AcDbEntity
  8
0
370
           0
  6
DASHED
 62
           7
 48
0.300000011921
100
AcDbLine
 10
6.765
 20
0.08
 30
0.0
 11
6.765
 21
-0.08
 31
0.0
  0
LINE
  5
228
100
AcDbEntity
  8
0
370
           0
  6
DASHED
 62
           7
 48
0.300000011921
100
AcDbLine
 10
7.14
 20
-0.9656
 30
0.0
 11
6.765
 21
-0.9656
 31
0.0
1001
TCAD
1000
TCW_CUSTOM_DATA
1002
{
1000
#$AUX@_ToolInfo Properties
1070
           8
1000
Insert^JLine^JSingle@Line Single
1002
}
  0
LINE
  5
229
100
AcDbEntity
  8
0
370
           0
  6
DASHED
 62
           7
 48
0.300000011921
100
AcDbLine
 10
7.14
 20
-1.107895429623
 30
0.0
 11
6.765
 21
-1.107895429623
 31
0.0
1001
TCAD
1000
TCW_CUSTOM_DATA
1002
{
1000
#$AUX@_ToolInfo Properties
1070
           8
1000
Insert^JLine^JSingle@Line Single
1002
}
  0
LINE
  5
22A
100
AcDbEntity
  8
0
370
           0
  6
DASHED
 62
           7
 48
0.300000011921
100
AcDbLine
 10
6.765
 20
-0.9656
 30
0.0
 11
6.765
 21
-1.107895429623
 31
0.0
1001
TCAD
1000
TCW_CUSTOM_DATA
1002
{
1000
#$AUX@_ToolInfo Properties
1070
           8
1000
Insert^JLine^JSingle@Line Single
1002
}
  0
LINE
  5
22B
100
AcDbEntity
  8
0
370
           0
  6
DASHED
 62
           7
 48
0.300000011921
100
AcDbLine
 10
6.0
 20
-2.4502
 30
0.0
 11
6.375
 21
-2.4502
 31
0.0
1001
TCAD
1000
TCW_CUSTOM_DATA
1002
{
1000
#$AUX@_ToolInfo Properties
1070
           8
1000
Insert^JLine^JSingle@Line Single
1002
}
  0
LINE
  5
22C
100
AcDbEntity
  8
0
370
           0
  6
DASHED
 62
           7
 48
0.300000011921
100
AcDbLine
 10
6.0
 20
-2.6102
 30
0.0
 11
6.375
 21
-2.6102
 31
0.0
1001
TCAD
1000
TCW_CUSTOM_DATA
1002
{
1000
#$AUX@_ToolInfo Properties
1070
           8
1000
Insert^JLine^JSingle@Line Single
1002
}
  0
LINE
  5
22D
100
AcDbEntity
  8
0
370
           0
  6
DASHED
 62
           7
 48
0.300000011921
100
AcDbLine
 10
7.14
 20
-2.4502
 30
0.0
 11
6.765
 21
-2.4502
 31
0.0
1001
TCAD
1000
TCW_CUSTOM_DATA
1002
{
1000
#$AUX@_ToolInfo Properties
1070
           8
1000
Insert^JLine^JSingle@Line Single
1002
}
  0
LINE
  5
22E
100
AcDbEntity
  8
0
370
           0
  6
DASHED
 62
           7
 48
0.300000011921
100
AcDbLine
 10
7.14
 20
-2.6102
 30
0.0
 11
6.765
 21
-2.6102
 31
0.0
1001
TCAD
1000
TCW_CUSTOM_DATA
1002
{
1000
#$AUX@_ToolInfo Properties
1070
           8
1000
Insert^JLine^JSingle@Line Single
1002
}
  0
LINE
  5
22F
100
AcDbEntity
  8
0
370
           0
  6
DASHED
 62
           7
 48
0.300000011921
100
AcDbLine
 10
6.375
 20
-2.4502
 30
0.0
 11
6.375
 21
-2.6102
 31
0.0
1001
TCAD
1000
TCW_CUSTOM_DATA
1002
{
1000
#$AUX@_ToolInfo Properties
1070
           8
1000
Insert^JLine^JSingle@Line Single
1002
}
  0
LINE
  5
230
100
AcDbEntity
  8
0
370
           0
  6
DASHED
 62
           7
 48
0.300000011921
100
AcDbLine
 10
6.765
 20
-2.4502
 30
0.0
 11
6.765
 21
-2.6102
 31
0.0
1001
TCAD
1000
TCW_CUSTOM_DATA
1002
{
1000
#$AUX@_ToolInfo Properties
1070
           8
1000
Insert^JLine^JSingle@Line Single
1002
}
  0
MTEXT
  5
231
100
AcDbEntity
  8
0
  6
Continuous
 62
           7
100
AcDbMText
 10
-6.010565846104
 20
4.136388060582
 30
0.0
 40
0.120000001788
 41
2.297971815548
 71
           1
 72
           1
  1
{Author: Chris Gauthier \PAdvisor: Dr. Richard Jones\Poffice phone: 6-5081\Pemail: WhistlerG99@msn.com }
 73
           1
 44
1.0
1001
TCAD
1000
TCW40_TEXT
1002
{
1000
Times New Roman
1070
           0
1070
         257
1002
}
  0
CIRCLE
  5
232
100
AcDbEntity
  8
0
370
           0
  6
Continuous
 62
           7
100
AcDbCircle
 10
0.0
 20
2.530232523199
 30
0.0
 40
0.055
1001
TCAD
1000
TCW_CUSTOM_DATA
1002
{
1000
#$AUX@_ToolInfo Properties
1070
           8
1000
Insert^JCircle^JCenterAndPoint@Circle CenterAndPoint
1002
}
  0
CIRCLE
  5
233
100
AcDbEntity
  8
0
370
           0
  6
Continuous
 62
           7
100
AcDbCircle
 10
2.5302
 20
0.0
 30
0.0
 40
0.055
1001
TCAD
1000
TCW_CUSTOM_DATA
1002
{
1000
#$AUX@_ToolInfo Properties
1070
           8
1000
Insert^JCircle^JCenterAndPoint@Circle CenterAndPoint
1002
}
  0
CIRCLE
  5
234
100
AcDbEntity
  8
0
370
           0
  6
Continuous
 62
           7
100
AcDbCircle
 10
0.0
 20
-2.5302
 30
0.0
 40
0.055
1001
TCAD
1000
TCW_CUSTOM_DATA
1002
{
1000
#$AUX@_ToolInfo Properties
1070
           8
1000
Insert^JCircle^JCenterAndPoint@Circle CenterAndPoint
1002
}
  0
CIRCLE
  5
235
100
AcDbEntity
  8
0
370
           0
  6
Continuous
 62
           7
100
AcDbCircle
 10
-2.5302
 20
0.0
 30
0.0
 40
0.055
1001
TCAD
1000
TCW_CUSTOM_DATA
1002
{
1000
#$AUX@_ToolInfo Properties
1070
           8
1000
Insert^JCircle^JCenterAndPoint@Circle CenterAndPoint
1002
}
  0
CIRCLE
  5
236
100
AcDbEntity
  8
0
370
           0
  6
DASHED
 62
           7
 48
0.20000000298
100
AcDbCircle
 10
-1.0456
 20
0.0
 30
0.0
 40
0.055
1001
TCAD
1000
TCW_CUSTOM_DATA
1002
{
1000
#$AUX@_ToolInfo Properties
1070
           8
1000
Insert^JCircle^JCenterAndPoint@Circle CenterAndPoint
1002
}
  0
CIRCLE
  5
237
100
AcDbEntity
  8
0
370
           0
  6
DASHED
 62
           7
 48
0.20000000298
100
AcDbCircle
 10
0.0
 20
1.0456
 30
0.0
 40
0.055
1001
TCAD
1000
TCW_CUSTOM_DATA
1002
{
1000
#$AUX@_ToolInfo Properties
1070
           8
1000
Insert^JCircle^JCenterAndPoint@Circle CenterAndPoint
1002
}
  0
CIRCLE
  5
238
100
AcDbEntity
  8
0
370
           0
  6
DASHED
 62
           7
 48
0.20000000298
100
AcDbCircle
 10
0.0
 20
-1.0456
 30
0.0
 40
0.055
1001
TCAD
1000
TCW_CUSTOM_DATA
1002
{
1000
#$AUX@_ToolInfo Properties
1070
           8
1000
Insert^JCircle^JCenterAndPoint@Circle CenterAndPoint
1002
}
  0
CIRCLE
  5
239
100
AcDbEntity
  8
0
370
           0
  6
DASHED
 62
           7
 48
0.20000000298
100
AcDbCircle
 10
1.0456
 20
-0.0
 30
0.0
 40
0.055
1001
TCAD
1000
TCW_CUSTOM_DATA
1002
{
1000
#$AUX@_ToolInfo Properties
1070
           8
1000
Insert^JCircle^JCenterAndPoint@Circle CenterAndPoint
1002
}
  0
LINE
  5
23A
100
AcDbEntity
  8
0
370
           0
  6
Continuous
 62
           7
100
AcDbLine
 10
11.43
 20
-2.64
 30
0.0
 11
12.57
 21
-2.64
 31
0.0
  0
LINE
  5
23B
100
AcDbEntity
  8
0
370
           0
  6
Continuous
 62
           7
100
AcDbLine
 10
11.43
 20
2.64
 30
0.0
 11
12.57
 21
2.64
 31
0.0
  0
LINE
  5
23C
100
AcDbEntity
  8
0
370
           0
  6
Continuous
 62
           7
100
AcDbLine
 10
12.57
 20
2.64
 30
0.0
 11
12.57
 21
-2.64
 31
0.0
  0
LINE
  5
23D
100
AcDbEntity
  8
0
370
           0
  6
Continuous
 62
           7
 48
0.300000011921
100
AcDbLine
 10
11.458602462969
 20
-2.46748521295
 30
0.0
 11
11.458602462969
 21
-2.596038376001
 31
0.0
  0
LINE
  5
23E
100
AcDbEntity
  8
0
370
           0
  6
Continuous
 62
           7
 48
0.300000011921
100
AcDbLine
 10
11.541890427763
 20
-2.46929582088
 30
0.0
 11
11.541890427763
 21
-2.596038376001
 31
0.0
  0
LINE
  5
23F
100
AcDbEntity
  8
0
370
           0
  6
Continuous
 62
           7
 48
0.300000011921
100
AcDbLine
 10
11.503867661227
 20
-2.507318587417
 30
0.0
 11
11.503867661227
 21
-2.565258041186
 31
0.0
  0
LINE
  5
240
100
AcDbEntity
  8
0
370
           0
  6
Continuous
 62
           7
 48
0.300000011921
100
AcDbLine
 10
11.58534501809
 20
-2.507318587417
 30
0.0
 11
11.58534501809
 21
-2.559826217395
 31
0.0
  0
LINE
  5
241
100
AcDbEntity
  8
0
370
           0
  6
Continuous
 62
           7
 48
0.300000011921
100
AcDbLine
 10
11.607072313253
 20
-2.470201124846
 30
0.0
 11
11.607072313253
 21
-2.598754287897
 31
0.0
  0
LINE
  5
242
100
AcDbEntity
  8
0
370
           0
  6
Continuous
 62
           7
 48
0.300000011921
100
AcDbLine
 10
11.690360278047
 20
-2.472011732776
 30
0.0
 11
11.690360278047
 21
-2.598754287897
 31
0.0
  0
LINE
  5
243
100
AcDbEntity
  8
0
370
           0
  6
Continuous
 62
           7
 48
0.300000011921
100
AcDbLine
 10
11.652337511511
 20
-2.510034499312
 30
0.0
 11
11.652337511511
 21
-2.567973953082
 31
0.0
  0
LINE
  5
244
100
AcDbEntity
  8
0
370
           0
  6
Continuous
 62
           7
 48
0.300000011921
100
AcDbLine
 10
11.733814868374
 20
-2.510034499312
 30
0.0
 11
11.733814868374
 21
-2.562542129291
 31
0.0
  0
LINE
  5
245
100
AcDbEntity
  8
0
370
           0
  6
Continuous
 62
           7
 48
0.300000011921
100
AcDbLine
 10
11.760973987329
 20
-2.466579908985
 30
0.0
 11
11.760973987329
 21
-2.595133072036
 31
0.0
  0
LINE
  5
246
100
AcDbEntity
  8
0
370
           0
  6
Continuous
 62
           7
 48
0.300000011921
100
AcDbLine
 10
12.427277705678
 20
-2.466579908985
 30
0.0
 11
12.427277705678
 21
-2.595133072036
 31
0.0
  0
LINE
  5
247
100
AcDbEntity
  8
0
370
           0
  6
Continuous
 62
           7
 48
0.300000011921
100
AcDbLine
 10
12.510565670472
 20
-2.468390516915
 30
0.0
 11
12.510565670472
 21
-2.595133072036
 31
0.0
  0
LINE
  5
248
100
AcDbEntity
  8
0
370
           0
  6
Continuous
 62
           7
 48
0.300000011921
100
AcDbLine
 10
12.472542903936
 20
-2.506413283452
 30
0.0
 11
12.472542903936
 21
-2.564352737221
 31
0.0
  0
LINE
  5
249
100
AcDbEntity
  8
0
370
           0
  6
Continuous
 62
           7
 48
0.300000011921
100
AcDbLine
 10
12.554020260799
 20
-2.506413283452
 30
0.0
 11
12.554020260799
 21
-2.55892091343
 31
0.0
  0
LINE
  5
24A
100
AcDbEntity
  8
0
370
           0
  6
Continuous
 62
           7
 48
0.300000011921
100
AcDbLine
 10
12.262512384021
 20
-2.468390516915
 30
0.0
 11
12.262512384021
 21
-2.596943679966
 31
0.0
  0
LINE
  5
24B
100
AcDbEntity
  8
0
370
           0
  6
Continuous
 62
           7
 48
0.300000011921
100
AcDbLine
 10
12.345800348815
 20
-2.470201124846
 30
0.0
 11
12.345800348815
 21
-2.596943679966
 31
0.0
  0
LINE
  5
24C
100
AcDbEntity
  8
0
370
           0
  6
Continuous
 62
           7
 48
0.300000011921
100
AcDbLine
 10
12.307777582279
 20
-2.508223891382
 30
0.0
 11
12.307777582279
 21
-2.566163345151
 31
0.0
  0
LINE
  5
24D
100
AcDbEntity
  8
0
370
           0
  6
Continuous
 62
           7
 48
0.300000011921
100
AcDbLine
 10
12.389254939142
 20
-2.508223891382
 30
0.0
 11
12.389254939142
 21
-2.56073152136
 31
0.0
  0
LINE
  5
24E
100
AcDbEntity
  8
0
370
           0
  6
Continuous
 62
           7
 48
0.300000011921
100
AcDbLine
 10
12.418374317334
 20
-0.971127849389
 30
0.0
 11
12.418374317334
 21
-1.09968101244
 31
0.0
  0
LINE
  5
24F
100
AcDbEntity
  8
0
370
           0
  6
Continuous
 62
           7
 48
0.300000011921
100
AcDbLine
 10
12.501662282127
 20
-0.972938457319
 30
0.0
 11
12.501662282127
 21
-1.09968101244
 31
0.0
  0
LINE
  5
250
100
AcDbEntity
  8
0
370
           0
  6
Continuous
 62
           7
 48
0.300000011921
100
AcDbLine
 10
12.463639515591
 20
-1.010961223855
 30
0.0
 11
12.463639515591
 21
-1.068900677625
 31
0.0
  0
LINE
  5
251
100
AcDbEntity
  8
0
370
           0
  6
Continuous
 62
           7
 48
0.300000011921
100
AcDbLine
 10
12.545116872454
 20
-1.010961223855
 30
0.0
 11
12.545116872454
 21
-1.063468853834
 31
0.0
  0
LINE
  5
252
100
AcDbEntity
  8
0
370
           0
  6
Continuous
 62
           7
 48
0.300000011921
100
AcDbLine
 10
12.253608995677
 20
-0.972938457319
 30
0.0
 11
12.253608995677
 21
-1.10149162037
 31
0.0
  0
LINE
  5
253
100
AcDbEntity
  8
0
370
           0
  6
Continuous
 62
           7
 48
0.300000011921
100
AcDbLine
 10
12.33689696047
 20
-0.97474906525
 30
0.0
 11
12.33689696047
 21
-1.10149162037
 31
0.0
  0
LINE
  5
254
100
AcDbEntity
  8
0
370
           0
  6
Continuous
 62
           7
 48
0.300000011921
100
AcDbLine
 10
12.298874193934
 20
-1.012771831786
 30
0.0
 11
12.298874193934
 21
-1.070711285555
 31
0.0
  0
LINE
  5
255
100
AcDbEntity
  8
0
370
           0
  6
Continuous
 62
           7
 48
0.300000011921
100
AcDbLine
 10
12.380351550797
 20
-1.012771831786
 30
0.0
 11
12.380351550797
 21
-1.065279461764
 31
0.0
  0
LINE
  5
256
100
AcDbEntity
  8
0
370
           0
  6
Continuous
 62
           7
 48
0.300000011921
100
AcDbLine
 10
12.425883271736
 20
0.066985096651
 30
0.0
 11
12.425883271736
 21
-0.0615680664
 31
0.0
  0
LINE
  5
257
100
AcDbEntity
  8
0
370
           0
  6
Continuous
 62
           7
 48
0.300000011921
100
AcDbLine
 10
12.50917123653
 20
0.06517448872
 30
0.0
 11
12.50917123653
 21
-0.0615680664
 31
0.0
  0
LINE
  5
258
100
AcDbEntity
  8
0
370
           0
  6
Continuous
 62
           7
 48
0.300000011921
100
AcDbLine
 10
12.471148469993
 20
0.027151722184
 30
0.0
 11
12.471148469993
 21
-0.030787731585
 31
0.0
  0
LINE
  5
259
100
AcDbEntity
  8
0
370
           0
  6
Continuous
 62
           7
 48
0.300000011921
100
AcDbLine
 10
12.552625826857
 20
0.027151722184
 30
0.0
 11
12.552625826857
 21
-0.025355907795
 31
0.0
  0
LINE
  5
25A
100
AcDbEntity
  8
0
370
           0
  6
Continuous
 62
           7
 48
0.300000011921
100
AcDbLine
 10
12.261117950079
 20
0.06517448872
 30
0.0
 11
12.261117950079
 21
-0.063378674331
 31
0.0
  0
LINE
  5
25B
100
AcDbEntity
  8
0
370
           0
  6
Continuous
 62
           7
 48
0.300000011921
100
AcDbLine
 10
12.344405914873
 20
0.06336388079
 30
0.0
 11
12.344405914873
 21
-0.063378674331
 31
0.0
  0
LINE
  5
25C
100
AcDbEntity
  8
0
370
           0
  6
Continuous
 62
           7
 48
0.300000011921
100
AcDbLine
 10
12.306383148336
 20
0.025341114254
 30
0.0
 11
12.306383148336
 21
-0.032598339516
 31
0.0
  0
LINE
  5
25D
100
AcDbEntity
  8
0
370
           0
  6
Continuous
 62
           7
 48
0.300000011921
100
AcDbLine
 10
12.3878605052
 20
0.025341114254
 30
0.0
 11
12.3878605052
 21
-0.027166515725
 31
0.0
  0
LINE
  5
25E
100
AcDbEntity
  8
0
370
           0
  6
Continuous
 62
           7
 48
0.300000011921
100
AcDbLine
 10
12.425883271736
 20
1.108852519891
 30
0.0
 11
12.425883271736
 21
0.98029935684
 31
0.0
  0
LINE
  5
25F
100
AcDbEntity
  8
0
370
           0
  6
Continuous
 62
           7
 48
0.300000011921
100
AcDbLine
 10
12.50917123653
 20
1.107041911961
 30
0.0
 11
12.50917123653
 21
0.98029935684
 31
0.0
  0
LINE
  5
260
100
AcDbEntity
  8
0
370
           0
  6
Continuous
 62
           7
 48
0.300000011921
100
AcDbLine
 10
12.471148469993
 20
1.069019145425
 30
0.0
 11
12.471148469993
 21
1.011079691655
 31
0.0
  0
LINE
  5
261
100
AcDbEntity
  8
0
370
           0
  6
Continuous
 62
           7
 48
0.300000011921
100
AcDbLine
 10
12.552625826857
 20
1.069019145425
 30
0.0
 11
12.552625826857
 21
1.016511515446
 31
0.0
  0
LINE
  5
262
100
AcDbEntity
  8
0
370
           0
  6
Continuous
 62
           7
 48
0.300000011921
100
AcDbLine
 10
12.261117950079
 20
1.107041911961
 30
0.0
 11
12.261117950079
 21
0.97848874891
 31
0.0
  0
LINE
  5
263
100
AcDbEntity
  8
0
370
           0
  6
Continuous
 62
           7
 48
0.300000011921
100
AcDbLine
 10
12.344405914873
 20
1.105231304031
 30
0.0
 11
12.344405914873
 21
0.97848874891
 31
0.0
  0
LINE
  5
264
100
AcDbEntity
  8
0
370
           0
  6
Continuous
 62
           7
 48
0.300000011921
100
AcDbLine
 10
12.306383148336
 20
1.067208537495
 30
0.0
 11
12.306383148336
 21
1.009269083725
 31
0.0
  0
LINE
  5
265
100
AcDbEntity
  8
0
370
           0
  6
Continuous
 62
           7
 48
0.300000011921
100
AcDbLine
 10
12.3878605052
 20
1.067208537495
 30
0.0
 11
12.3878605052
 21
1.014700907516
 31
0.0
  0
LINE
  5
266
100
AcDbEntity
  8
0
370
           0
  6
Continuous
 62
           7
 48
0.300000011921
100
AcDbLine
 10
11.453453551826
 20
2.594250877837
 30
0.0
 11
11.453453551826
 21
2.465697714786
 31
0.0
  0
LINE
  5
267
100
AcDbEntity
  8
0
370
           0
  6
Continuous
 62
           7
 48
0.300000011921
100
AcDbLine
 10
11.536741516619
 20
2.592440269907
 30
0.0
 11
11.536741516619
 21
2.465697714786
 31
0.0
  0
LINE
  5
268
100
AcDbEntity
  8
0
370
           0
  6
Continuous
 62
           7
 48
0.300000011921
100
AcDbLine
 10
11.498718750083
 20
2.554417503371
 30
0.0
 11
11.498718750083
 21
2.496478049601
 31
0.0
  0
LINE
  5
269
100
AcDbEntity
  8
0
370
           0
  6
Continuous
 62
           7
 48
0.300000011921
100
AcDbLine
 10
11.580196106946
 20
2.554417503371
 30
0.0
 11
11.580196106946
 21
2.501909873392
 31
0.0
  0
LINE
  5
26A
100
AcDbEntity
  8
0
370
           0
  6
Continuous
 62
           7
 48
0.300000011921
100
AcDbLine
 10
11.60192340211
 20
2.591534965942
 30
0.0
 11
11.60192340211
 21
2.462981802891
 31
0.0
  0
LINE
  5
26B
100
AcDbEntity
  8
0
370
           0
  6
Continuous
 62
           7
 48
0.300000011921
100
AcDbLine
 10
11.685211366904
 20
2.589724358012
 30
0.0
 11
11.685211366904
 21
2.462981802891
 31
0.0
  0
LINE
  5
26C
100
AcDbEntity
  8
0
370
           0
  6
Continuous
 62
           7
 48
0.300000011921
100
AcDbLine
 10
11.647188600367
 20
2.551701591475
 30
0.0
 11
11.647188600367
 21
2.493762137706
 31
0.0
  0
LINE
  5
26D
100
AcDbEntity
  8
0
370
           0
  6
Continuous
 62
           7
 48
0.300000011921
100
AcDbLine
 10
11.728665957231
 20
2.551701591475
 30
0.0
 11
11.728665957231
 21
2.499193961497
 31
0.0
  0
LINE
  5
26E
100
AcDbEntity
  8
0
370
           0
  6
Continuous
 62
           7
 48
0.300000011921
100
AcDbLine
 10
11.755825076185
 20
2.595156181803
 30
0.0
 11
11.755825076185
 21
2.466603018751
 31
0.0
  0
LINE
  5
26F
100
AcDbEntity
  8
0
370
           0
  6
Continuous
 62
           7
 48
0.300000011921
100
AcDbLine
 10
12.422128794535
 20
2.595156181803
 30
0.0
 11
12.422128794535
 21
2.466603018751
 31
0.0
  0
LINE
  5
270
100
AcDbEntity
  8
0
370
           0
  6
Continuous
 62
           7
 48
0.300000011921
100
AcDbLine
 10
12.505416759329
 20
2.593345573872
 30
0.0
 11
12.505416759329
 21
2.466603018751
 31
0.0
  0
LINE
  5
271
100
AcDbEntity
  8
0
370
           0
  6
Continuous
 62
           7
 48
0.300000011921
100
AcDbLine
 10
12.467393992792
 20
2.555322807336
 30
0.0
 11
12.467393992792
 21
2.497383353566
 31
0.0
  0
LINE
  5
272
100
AcDbEntity
  8
0
370
           0
  6
Continuous
 62
           7
 48
0.300000011921
100
AcDbLine
 10
12.548871349656
 20
2.555322807336
 30
0.0
 11
12.548871349656
 21
2.502815177357
 31
0.0
  0
LINE
  5
273
100
AcDbEntity
  8
0
370
           0
  6
Continuous
 62
           7
 48
0.300000011921
100
AcDbLine
 10
12.257363472878
 20
2.593345573872
 30
0.0
 11
12.257363472878
 21
2.464792410821
 31
0.0
  0
LINE
  5
274
100
AcDbEntity
  8
0
370
           0
  6
Continuous
 62
           7
 48
0.300000011921
100
AcDbLine
 10
12.340651437671
 20
2.591534965942
 30
0.0
 11
12.340651437671
 21
2.464792410821
 31
0.0
  0
LINE
  5
275
100
AcDbEntity
  8
0
370
           0
  6
Continuous
 62
           7
 48
0.300000011921
100
AcDbLine
 10
12.302628671135
 20
2.553512199406
 30
0.0
 11
12.302628671135
 21
2.495572745636
 31
0.0
  0
LINE
  5
276
100
AcDbEntity
  8
0
370
           0
  6
Continuous
 62
           7
 48
0.300000011921
100
AcDbLine
 10
12.384106027999
 20
2.553512199406
 30
0.0
 11
12.384106027999
 21
2.501004569427
 31
0.0
  0
LINE
  5
277
100
AcDbEntity
  8
0
370
           0
  6
DASHED
 62
           7
 48
0.300000011921
100
AcDbLine
 10
12.53
 20
-2.64
 30
0.0
 11
12.53
 21
-2.64
 31
0.0
  0
LINE
  5
278
100
AcDbEntity
  8
0
370
           0
  6
DASHED
 62
           7
 48
0.300000011921
100
AcDbLine
 10
12.53
 20
-2.64
 30
0.0
 11
12.53
 21
2.64
 31
0.0
  0
LINE
  5
279
100
AcDbEntity
  8
0
370
           0
  6
DASHED
 62
           7
 48
0.300000011921
100
AcDbLine
 10
11.43
 20
2.294166515317
 30
0.0
 11
12.53
 21
2.294166515317
 31
0.0
  0
LINE
  5
27A
100
AcDbEntity
  8
0
370
           0
  6
DASHED
 62
           7
 48
0.300000011921
100
AcDbLine
 10
11.43
 20
1.322724461103
 30
0.0
 11
12.53
 21
1.322724461103
 31
0.0
  0
LINE
  5
27B
100
AcDbEntity
  8
0
370
           0
  6
DASHED
 62
           7
 48
0.300000011921
100
AcDbLine
 10
11.43
 20
0.768474017106
 30
0.0
 11
12.53
 21
0.768474017106
 31
0.0
  0
LINE
  5
27C
100
AcDbEntity
  8
0
370
           0
  6
DASHED
 62
           7
 48
0.300000011921
100
AcDbLine
 10
11.43
 20
0.097979589711
 30
0.0
 11
12.53
 21
0.097979589711
 31
0.0
  0
LINE
  5
27D
100
AcDbEntity
  8
0
370
           0
  6
DASHED
 62
           7
 48
0.300000011921
100
AcDbLine
 10
11.43
 20
-0.097979589711
 30
0.0
 11
12.53
 21
-0.097979589711
 31
0.0
  0
LINE
  5
27E
100
AcDbEntity
  8
0
370
           0
  6
DASHED
 62
           7
 48
0.300000011921
100
AcDbLine
 10
11.43
 20
-0.768071509332
 30
0.0
 11
12.53
 21
-0.768071509332
 31
0.0
  0
LINE
  5
27F
100
AcDbEntity
  8
0
370
           0
  6
DASHED
 62
           7
 48
0.300000011921
100
AcDbLine
 10
11.43
 20
-1.322724461103
 30
0.0
 11
12.53
 21
-1.322724461103
 31
0.0
  0
LINE
  5
280
100
AcDbEntity
  8
0
370
           0
  6
DASHED
 62
           7
 48
0.300000011921
100
AcDbLine
 10
11.43
 20
-2.343486371215
 30
0.0
 11
12.53
 21
-2.343486371215
 31
0.0
  0
LINE
  5
281
100
AcDbEntity
  8
0
370
           0
  6
DASHED
 62
           7
 48
0.300000011921
100
AcDbLine
 10
11.43
 20
2.610232523199
 30
0.0
 11
11.805
 21
2.610232523199
 31
0.0
1001
TCAD
1000
TCW_CUSTOM_DATA
1002
{
1000
#$AUX@_ToolInfo Properties
1070
           8
1000
Insert^JLine^JSingle@Line Single
1002
}
  0
LINE
  5
282
100
AcDbEntity
  8
0
370
           0
  6
DASHED
 62
           7
 48
0.300000011921
100
AcDbLine
 10
11.43
 20
2.450232523199
 30
0.0
 11
11.805
 21
2.450232523199
 31
0.0
1001
TCAD
1000
TCW_CUSTOM_DATA
1002
{
1000
#$AUX@_ToolInfo Properties
1070
           8
1000
Insert^JLine^JSingle@Line Single
1002
}
  0
LINE
  5
283
100
AcDbEntity
  8
0
370
           0
  6
DASHED
 62
           7
 48
0.300000011921
100
AcDbLine
 10
11.805
 20
2.610232523199
 30
0.0
 11
11.805
 21
2.450232523199
 31
0.0
1001
TCAD
1000
TCW_CUSTOM_DATA
1002
{
1000
#$AUX@_ToolInfo Properties
1070
           8
1000
Insert^JLine^JSingle@Line Single
1002
}
  0
LINE
  5
284
100
AcDbEntity
  8
0
370
           0
  6
DASHED
 62
           7
 48
0.300000011921
100
AcDbLine
 10
12.57
 20
2.610232523199
 30
0.0
 11
12.195
 21
2.610232523199
 31
0.0
1001
TCAD
1000
TCW_CUSTOM_DATA
1002
{
1000
#$AUX@_ToolInfo Properties
1070
           8
1000
Insert^JLine^JSingle@Line Single
1002
}
  0
LINE
  5
285
100
AcDbEntity
  8
0
370
           0
  6
DASHED
 62
           7
 48
0.300000011921
100
AcDbLine
 10
12.57
 20
2.450232523199
 30
0.0
 11
12.195
 21
2.450232523199
 31
0.0
1001
TCAD
1000
TCW_CUSTOM_DATA
1002
{
1000
#$AUX@_ToolInfo Properties
1070
           8
1000
Insert^JLine^JSingle@Line Single
1002
}
  0
LINE
  5
286
100
AcDbEntity
  8
0
370
           0
  6
DASHED
 62
           7
 48
0.300000011921
100
AcDbLine
 10
12.195
 20
2.610232523199
 30
0.0
 11
12.195
 21
2.450232523199
 31
0.0
1001
TCAD
1000
TCW_CUSTOM_DATA
1002
{
1000
#$AUX@_ToolInfo Properties
1070
           8
1000
Insert^JLine^JSingle@Line Single
1002
}
  0
LINE
  5
287
100
AcDbEntity
  8
0
370
           0
  6
DASHED
 62
           7
 48
0.300000011921
100
AcDbLine
 10
12.57
 20
1.1256
 30
0.0
 11
12.195
 21
1.1256
 31
0.0
1001
TCAD
1000
TCW_CUSTOM_DATA
1002
{
1000
#$AUX@_ToolInfo Properties
1070
           8
1000
Insert^JLine^JSingle@Line Single
1002
}
  0
LINE
  5
288
100
AcDbEntity
  8
0
370
           0
  6
DASHED
 62
           7
 48
0.300000011921
100
AcDbLine
 10
12.57
 20
0.9656
 30
0.0
 11
12.195
 21
0.9656
 31
0.0
1001
TCAD
1000
TCW_CUSTOM_DATA
1002
{
1000
#$AUX@_ToolInfo Properties
1070
           8
1000
Insert^JLine^JSingle@Line Single
1002
}
  0
LINE
  5
289
100
AcDbEntity
  8
0
370
           0
  6
DASHED
 62
           7
 48
0.300000011921
100
AcDbLine
 10
12.195
 20
1.1256
 30
0.0
 11
12.195
 21
0.9656
 31
0.0
1001
TCAD
1000
TCW_CUSTOM_DATA
1002
{
1000
#$AUX@_ToolInfo Properties
1070
           8
1000
Insert^JLine^JSingle@Line Single
1002
}
  0
LINE
  5
28A
100
AcDbEntity
  8
0
370
           0
  6
DASHED
 62
           7
 48
0.300000011921
100
AcDbLine
 10
12.57
 20
0.08
 30
0.0
 11
12.195
 21
0.08
 31
0.0
1001
TCAD
1000
TCW_CUSTOM_DATA
1002
{
1000
#$AUX@_ToolInfo Properties
1070
           8
1000
Insert^JLine^JSingle@Line Single
1002
}
  0
LINE
  5
28B
100
AcDbEntity
  8
0
370
           0
  6
DASHED
 62
           7
 48
0.300000011921
100
AcDbLine
 10
12.57
 20
-0.08
 30
0.0
 11
12.195
 21
-0.08
 31
0.0
1001
TCAD
1000
TCW_CUSTOM_DATA
1002
{
1000
#$AUX@_ToolInfo Properties
1070
           8
1000
Insert^JLine^JSingle@Line Single
1002
}
  0
LINE
  5
28C
100
AcDbEntity
  8
0
370
           0
  6
DASHED
 62
           7
 48
0.300000011921
100
AcDbLine
 10
12.195
 20
0.08
 30
0.0
 11
12.195
 21
-0.08
 31
0.0
1001
TCAD
1000
TCW_CUSTOM_DATA
1002
{
1000
#$AUX@_ToolInfo Properties
1070
           8
1000
Insert^JLine^JSingle@Line Single
1002
}
  0
LINE
  5
28D
100
AcDbEntity
  8
0
370
           0
  6
DASHED
 62
           7
 48
0.300000011921
100
AcDbLine
 10
12.57
 20
-0.9656
 30
0.0
 11
12.195
 21
-0.9656
 31
0.0
1001
TCAD
1000
TCW_CUSTOM_DATA
1002
{
1000
#$AUX@_ToolInfo Properties
1070
           8
1000
Insert^JLine^JSingle@Line Single
1002
}
  0
LINE
  5
28E
100
AcDbEntity
  8
0
370
           0
  6
DASHED
 62
           7
 48
0.300000011921
100
AcDbLine
 10
12.57
 20
-1.107895429623
 30
0.0
 11
12.195
 21
-1.107895429623
 31
0.0
1001
TCAD
1000
TCW_CUSTOM_DATA
1002
{
1000
#$AUX@_ToolInfo Properties
1070
           8
1000
Insert^JLine^JSingle@Line Single
1002
}
  0
LINE
  5
28F
100
AcDbEntity
  8
0
370
           0
  6
DASHED
 62
           7
 48
0.300000011921
100
AcDbLine
 10
12.195
 20
-0.9656
 30
0.0
 11
12.195
 21
-1.107895429623
 31
0.0
1001
TCAD
1000
TCW_CUSTOM_DATA
1002
{
1000
#$AUX@_ToolInfo Properties
1070
           8
1000
Insert^JLine^JSingle@Line Single
1002
}
  0
LINE
  5
290
100
AcDbEntity
  8
0
370
           0
  6
DASHED
 62
           7
 48
0.300000011921
100
AcDbLine
 10
11.43
 20
-2.4502
 30
0.0
 11
11.805
 21
-2.4502
 31
0.0
1001
TCAD
1000
TCW_CUSTOM_DATA
1002
{
1000
#$AUX@_ToolInfo Properties
1070
           8
1000
Insert^JLine^JSingle@Line Single
1002
}
  0
LINE
  5
291
100
AcDbEntity
  8
0
370
           0
  6
DASHED
 62
           7
 48
0.300000011921
100
AcDbLine
 10
11.43
 20
-2.6102
 30
0.0
 11
11.805
 21
-2.6102
 31
0.0
1001
TCAD
1000
TCW_CUSTOM_DATA
1002
{
1000
#$AUX@_ToolInfo Properties
1070
           8
1000
Insert^JLine^JSingle@Line Single
1002
}
  0
LINE
  5
292
100
AcDbEntity
  8
0
370
           0
  6
DASHED
 62
           7
 48
0.300000011921
100
AcDbLine
 10
12.57
 20
-2.4502
 30
0.0
 11
12.195
 21
-2.4502
 31
0.0
1001
TCAD
1000
TCW_CUSTOM_DATA
1002
{
1000
#$AUX@_ToolInfo Properties
1070
           8
1000
Insert^JLine^JSingle@Line Single
1002
}
  0
LINE
  5
293
100
AcDbEntity
  8
0
370
           0
  6
DASHED
 62
           7
 48
0.300000011921
100
AcDbLine
 10
12.57
 20
-2.6102
 30
0.0
 11
12.195
 21
-2.6102
 31
0.0
1001
TCAD
1000
TCW_CUSTOM_DATA
1002
{
1000
#$AUX@_ToolInfo Properties
1070
           8
1000
Insert^JLine^JSingle@Line Single
1002
}
  0
LINE
  5
294
100
AcDbEntity
  8
0
370
           0
  6
DASHED
 62
           7
 48
0.300000011921
100
AcDbLine
 10
11.805
 20
-2.4502
 30
0.0
 11
11.805
 21
-2.6102
 31
0.0
1001
TCAD
1000
TCW_CUSTOM_DATA
1002
{
1000
#$AUX@_ToolInfo Properties
1070
           8
1000
Insert^JLine^JSingle@Line Single
1002
}
  0
LINE
  5
295
100
AcDbEntity
  8
0
370
           0
  6
DASHED
 62
           7
 48
0.300000011921
100
AcDbLine
 10
12.195
 20
-2.4502
 30
0.0
 11
12.195
 21
-2.6102
 31
0.0
1001
TCAD
1000
TCW_CUSTOM_DATA
1002
{
1000
#$AUX@_ToolInfo Properties
1070
           8
1000
Insert^JLine^JSingle@Line Single
1002
}
  0
LINE
  5
296
100
AcDbEntity
  8
0
370
           0
  6
DASHED
 62
           7
 48
0.300000011921
100
AcDbLine
 10
11.5
 20
3.0
 30
0.0
 11
11.5
 21
3.0
 31
0.0
1001
TCAD
1000
TCW_CUSTOM_DATA
1002
{
1000
#$AUX@_ToolInfo Properties
1070
           8
1000
Insert^JLine^JSingle@Line Single
1002
}
  0
LINE
  5
297
100
AcDbEntity
  8
0
370
           0
  6
Continuous
 62
           7
 48
0.300000011921
100
AcDbLine
 10
12.57
 20
2.64
 30
0.0
 11
12.57
 21
2.87622
 31
0.0
1001
TCAD
1000
TCW_CUSTOM_DATA
1002
{
1000
#$AUX@_ToolInfo Properties
1070
           8
1000
Insert^JLine^JSingle@Line Single
1002
}
  0
LINE
  5
298
100
AcDbEntity
  8
0
370
           0
  6
Continuous
 62
           7
 48
0.300000011921
100
AcDbLine
 10
12.57
 20
2.87622
 30
0.0
 11
11.15268
 21
2.87622
 31
0.0
1001
TCAD
1000
TCW_CUSTOM_DATA
1002
{
1000
#$AUX@_ToolInfo Properties
1070
           8
1000
Insert^JLine^JSingle@Line Single
1002
}
  0
LINE
  5
299
100
AcDbEntity
  8
0
370
           0
  6
Continuous
 62
           7
 48
0.300000011921
100
AcDbLine
 10
12.57
 20
-2.64
 30
0.0
 11
12.57
 21
-2.87622
 31
0.0
1001
TCAD
1000
TCW_CUSTOM_DATA
1002
{
1000
#$AUX@_ToolInfo Properties
1070
           8
1000
Insert^JLine^JSingle@Line Single
1002
}
  0
LINE
  5
29A
100
AcDbEntity
  8
0
370
           0
  6
Continuous
 62
           7
 48
0.300000011921
100
AcDbLine
 10
12.57
 20
-2.87622
 30
0.0
 11
11.15268
 21
-2.87622
 31
0.0
1001
TCAD
1000
TCW_CUSTOM_DATA
1002
{
1000
#$AUX@_ToolInfo Properties
1070
           8
1000
Insert^JLine^JSingle@Line Single
1002
}
  0
LINE
  5
29B
100
AcDbEntity
  8
0
370
           0
  6
Continuous
 62
           7
 48
0.300000011921
100
AcDbLine
 10
11.43
 20
-2.87622
 30
0.0
 11
11.43
 21
2.87622
 31
0.0
1001
TCAD
1000
TCW_CUSTOM_DATA
1002
{
1000
#$AUX@_ToolInfo Properties
1070
           8
1000
Insert^JLine^JSingle@Line Single
1002
}
  0
LINE
  5
29C
100
AcDbEntity
  8
0
370
           0
  6
Continuous
 62
           7
 48
0.300000011921
100
AcDbLine
 10
11.15268
 20
2.87622
 30
0.0
 11
11.15268
 21
-2.87622
 31
0.0
1001
TCAD
1000
TCW_CUSTOM_DATA
1002
{
1000
#$AUX@_ToolInfo Properties
1070
           8
1000
Insert^JLine^JSingle@Line Single
1002
}
  0
LINE
  5
29D
100
AcDbEntity
  8
0
370
           0
  6
DASHED
 62
           7
 48
0.300000011921
100
AcDbLine
 10
11.805
 20
2.81310989
 30
0.0
 11
11.805
 21
2.70310989
 31
0.0
1001
TCAD
1000
TCW_CUSTOM_DATA
1002
{
1000
#$AUX@_ToolInfo Properties
1070
           8
1000
Insert^JLine^JSingle@Line Single
1002
}
  0
LINE
  5
29E
100
AcDbEntity
  8
0
370
           0
  6
DASHED
 62
           7
 48
0.300000011921
100
AcDbLine
 10
11.15268
 20
2.81310989
 30
0.0
 11
11.805
 21
2.81310989
 31
0.0
1001
TCAD
1000
TCW_CUSTOM_DATA
1002
{
1000
#$AUX@_ToolInfo Properties
1070
           8
1000
Insert^JLine^JSingle@Line Single
1002
}
  0
LINE
  5
29F
100
AcDbEntity
  8
0
370
           0
  6
DASHED
 62
           7
 48
0.300000011921
100
AcDbLine
 10
11.805
 20
2.70310989
 30
0.0
 11
11.15268
 21
2.70310989
 31
0.0
1001
TCAD
1000
TCW_CUSTOM_DATA
1002
{
1000
#$AUX@_ToolInfo Properties
1070
           8
1000
Insert^JLine^JSingle@Line Single
1002
}
  0
LINE
  5
2A0
100
AcDbEntity
  8
0
370
           0
  6
Continuous
 62
           7
 48
0.300000011921
100
AcDbLine
 10
11.456276840143
 20
2.802112482666
 30
0.0
 11
11.456276840143
 21
2.716009142299
 31
0.0
1001
TCAD
1000
TCW_CUSTOM_DATA
1002
{
1000
#$AUX@_ToolInfo Properties
1070
           8
1000
Insert^JLine^JSingle@Line Single
1002
}
  0
LINE
  5
2A1
100
AcDbEntity
  8
0
370
           0
  6
Continuous
 62
           7
 48
0.300000011921
100
AcDbLine
 10
11.503478068863
 20
2.801593787872
 30
0.0
 11
11.503478068863
 21
2.715490447504
 31
0.0
1001
TCAD
1000
TCW_CUSTOM_DATA
1002
{
1000
#$AUX@_ToolInfo Properties
1070
           8
1000
Insert^JLine^JSingle@Line Single
1002
}
  0
LINE
  5
2A2
100
AcDbEntity
  8
0
370
           0
  6
Continuous
 62
           7
 48
0.300000011921
100
AcDbLine
 10
11.546529739043
 20
2.802631177514
 30
0.0
 11
11.546529739043
 21
2.716527837147
 31
0.0
1001
TCAD
1000
TCW_CUSTOM_DATA
1002
{
1000
#$AUX@_ToolInfo Properties
1070
           8
1000
Insert^JLine^JSingle@Line Single
1002
}
  0
LINE
  5
2A3
100
AcDbEntity
  8
0
370
           0
  6
Continuous
 62
           7
 48
0.300000011921
100
AcDbLine
 10
11.590100104043
 20
2.803668567157
 30
0.0
 11
11.590100104043
 21
2.71756522679
 31
0.0
1001
TCAD
1000
TCW_CUSTOM_DATA
1002
{
1000
#$AUX@_ToolInfo Properties
1070
           8
1000
Insert^JLine^JSingle@Line Single
1002
}
  0
LINE
  5
2A4
100
AcDbEntity
  8
0
370
           0
  6
Continuous
 62
           7
 48
0.300000011921
100
AcDbLine
 10
11.631595689759
 20
2.803149872336
 30
0.0
 11
11.631595689759
 21
2.717046531968
 31
0.0
1001
TCAD
1000
TCW_CUSTOM_DATA
1002
{
1000
#$AUX@_ToolInfo Properties
1070
           8
1000
Insert^JLine^JSingle@Line Single
1002
}
  0
LINE
  5
2A5
100
AcDbEntity
  8
0
370
           0
  6
Continuous
 62
           7
 48
0.300000011921
100
AcDbLine
 10
11.674128665117
 20
2.804187261979
 30
0.0
 11
11.674128665117
 21
2.718083921611
 31
0.0
1001
TCAD
1000
TCW_CUSTOM_DATA
1002
{
1000
#$AUX@_ToolInfo Properties
1070
           8
1000
Insert^JLine^JSingle@Line Single
1002
}
  0
LINE
  5
2A6
100
AcDbEntity
  8
0
370
           0
  6
Continuous
 62
           7
 48
0.300000011921
100
AcDbLine
 10
11.718237717161
 20
2.803656879299
 30
0.0
 11
11.718237717161
 21
2.717553538931
 31
0.0
1001
TCAD
1000
TCW_CUSTOM_DATA
1002
{
1000
#$AUX@_ToolInfo Properties
1070
           8
1000
Insert^JLine^JSingle@Line Single
1002
}
  0
LINE
  5
2A7
100
AcDbEntity
  8
0
370
           0
  6
Continuous
 62
           7
 48
0.300000011921
100
AcDbLine
 10
11.763565937352
 20
2.803158766989
 30
0.0
 11
11.763565937352
 21
2.717055426621
 31
0.0
1001
TCAD
1000
TCW_CUSTOM_DATA
1002
{
1000
#$AUX@_ToolInfo Properties
1070
           8
1000
Insert^JLine^JSingle@Line Single
1002
}
  0
LINE
  5
2A8
100
AcDbEntity
  8
0
370
           0
  6
Continuous
 62
           7
 48
0.300000011921
100
AcDbLine
 10
11.478147583886
 20
2.777541027621
 30
0.0
 11
11.478147583886
 21
2.736695818214
 31
0.0
1001
TCAD
1000
TCW_CUSTOM_DATA
1002
{
1000
#$AUX@_ToolInfo Properties
1070
           8
1000
Insert^JLine^JSingle@Line Single
1002
}
  0
LINE
  5
2A9
100
AcDbEntity
  8
0
370
           0
  6
Continuous
 62
           7
 48
0.300000011921
100
AcDbLine
 10
11.52795881482
 20
2.779035364579
 30
0.0
 11
11.52795881482
 21
2.738190155172
 31
0.0
1001
TCAD
1000
TCW_CUSTOM_DATA
1002
{
1000
#$AUX@_ToolInfo Properties
1070
           8
1000
Insert^JLine^JSingle@Line Single
1002
}
  0
LINE
  5
2AA
100
AcDbEntity
  8
0
370
           0
  6
Continuous
 62
           7
 48
0.300000011921
100
AcDbLine
 10
11.569800248843
 20
2.779035364579
 30
0.0
 11
11.569800248843
 21
2.738190155172
 31
0.0
1001
TCAD
1000
TCW_CUSTOM_DATA
1002
{
1000
#$AUX@_ToolInfo Properties
1070
           8
1000
Insert^JLine^JSingle@Line Single
1002
}
  0
LINE
  5
2AB
100
AcDbEntity
  8
0
370
           0
  6
Continuous
 62
           7
 48
0.300000011921
100
AcDbLine
 10
11.610645458246
 20
2.77803913996
 30
0.0
 11
11.610645458246
 21
2.737193930553
 31
0.0
1001
TCAD
1000
TCW_CUSTOM_DATA
1002
{
1000
#$AUX@_ToolInfo Properties
1070
           8
1000
Insert^JLine^JSingle@Line Single
1002
}
  0
LINE
  5
2AC
100
AcDbEntity
  8
0
370
           0
  6
Continuous
 62
           7
 48
0.300000011921
100
AcDbLine
 10
11.652486892268
 20
2.77803913996
 30
0.0
 11
11.652486892268
 21
2.737193930553
 31
0.0
1001
TCAD
1000
TCW_CUSTOM_DATA
1002
{
1000
#$AUX@_ToolInfo Properties
1070
           8
1000
Insert^JLine^JSingle@Line Single
1002
}
  0
LINE
  5
2AD
100
AcDbEntity
  8
0
370
           0
  6
Continuous
 62
           7
 48
0.300000011921
100
AcDbLine
 10
11.694328326291
 20
2.77704291534
 30
0.0
 11
11.694328326291
 21
2.736197705933
 31
0.0
1001
TCAD
1000
TCW_CUSTOM_DATA
1002
{
1000
#$AUX@_ToolInfo Properties
1070
           8
1000
Insert^JLine^JSingle@Line Single
1002
}
  0
LINE
  5
2AE
100
AcDbEntity
  8
0
370
           0
  6
Continuous
 62
           7
 48
0.300000011921
100
AcDbLine
 10
11.741150883412
 20
2.77803913996
 30
0.0
 11
11.741150883412
 21
2.737193930553
 31
0.0
1001
TCAD
1000
TCW_CUSTOM_DATA
1002
{
1000
#$AUX@_ToolInfo Properties
1070
           8
1000
Insert^JLine^JSingle@Line Single
1002
}
  0
LINE
  5
2AF
100
AcDbEntity
  8
0
370
           0
  6
Continuous
 62
           7
 48
0.300000011921
100
AcDbLine
 10
11.784984766673
 20
2.77704291534
 30
0.0
 11
11.784984766673
 21
2.736197705933
 31
0.0
1001
TCAD
1000
TCW_CUSTOM_DATA
1002
{
1000
#$AUX@_ToolInfo Properties
1070
           8
1000
Insert^JLine^JSingle@Line Single
1002
}
  0
LINE
  5
2B0
100
AcDbEntity
  8
0
370
           0
  6
DASHED
 62
           7
 48
0.300000011921
100
AcDbLine
 10
11.15268
 20
-2.70310989
 30
0.0
 11
11.805
 21
-2.70310989
 31
0.0
1001
TCAD
1000
TCW_CUSTOM_DATA
1002
{
1000
#$AUX@_ToolInfo Properties
1070
           8
1000
Insert^JLine^JSingle@Line Single
1002
}
  0
LINE
  5
2B1
100
AcDbEntity
  8
0
370
           0
  6
DASHED
 62
           7
 48
0.300000011921
100
AcDbLine
 10
11.805
 20
-2.81310989
 30
0.0
 11
11.15268
 21
-2.81310989
 31
0.0
1001
TCAD
1000
TCW_CUSTOM_DATA
1002
{
1000
#$AUX@_ToolInfo Properties
1070
           8
1000
Insert^JLine^JSingle@Line Single
1002
}
  0
LINE
  5
2B2
100
AcDbEntity
  8
0
370
           0
  6
DASHED
 62
           7
 48
0.300000011921
100
AcDbLine
 10
11.805
 20
-2.70310989
 30
0.0
 11
11.805
 21
-2.81310989
 31
0.0
1001
TCAD
1000
TCW_CUSTOM_DATA
1002
{
1000
#$AUX@_ToolInfo Properties
1070
           8
1000
Insert^JLine^JSingle@Line Single
1002
}
  0
LINE
  5
2B3
100
AcDbEntity
  8
0
370
           0
  6
Continuous
 62
           7
 48
0.300000011921
100
AcDbLine
 10
11.450774505768
 20
-2.717739378544
 30
0.0
 11
11.450774505768
 21
-2.803842718911
 31
0.0
1001
TCAD
1000
TCW_CUSTOM_DATA
1002
{
1000
#$AUX@_ToolInfo Properties
1070
           8
1000
Insert^JLine^JSingle@Line Single
1002
}
  0
LINE
  5
2B4
100
AcDbEntity
  8
0
370
           0
  6
Continuous
 62
           7
 48
0.300000011921
100
AcDbLine
 10
11.497975734489
 20
-2.718258073339
 30
0.0
 11
11.497975734489
 21
-2.804361413706
 31
0.0
1001
TCAD
1000
TCW_CUSTOM_DATA
1002
{
1000
#$AUX@_ToolInfo Properties
1070
           8
1000
Insert^JLine^JSingle@Line Single
1002
}
  0
LINE
  5
2B5
100
AcDbEntity
  8
0
370
           0
  6
Continuous
 62
           7
 48
0.300000011921
100
AcDbLine
 10
11.541027404668
 20
-2.717220683696
 30
0.0
 11
11.541027404668
 21
-2.803324024063
 31
0.0
1001
TCAD
1000
TCW_CUSTOM_DATA
1002
{
1000
#$AUX@_ToolInfo Properties
1070
           8
1000
Insert^JLine^JSingle@Line Single
1002
}
  0
LINE
  5
2B6
100
AcDbEntity
  8
0
370
           0
  6
Continuous
 62
           7
 48
0.300000011921
100
AcDbLine
 10
11.584597769669
 20
-2.716183294053
 30
0.0
 11
11.584597769669
 21
-2.80228663442
 31
0.0
1001
TCAD
1000
TCW_CUSTOM_DATA
1002
{
1000
#$AUX@_ToolInfo Properties
1070
           8
1000
Insert^JLine^JSingle@Line Single
1002
}
  0
LINE
  5
2B7
100
AcDbEntity
  8
0
370
           0
  6
Continuous
 62
           7
 48
0.300000011921
100
AcDbLine
 10
11.626093355384
 20
-2.716701988874
 30
0.0
 11
11.626093355384
 21
-2.802805329242
 31
0.0
1001
TCAD
1000
TCW_CUSTOM_DATA
1002
{
1000
#$AUX@_ToolInfo Properties
1070
           8
1000
Insert^JLine^JSingle@Line Single
1002
}
  0
LINE
  5
2B8
100
AcDbEntity
  8
0
370
           0
  6
Continuous
 62
           7
 48
0.300000011921
100
AcDbLine
 10
11.668626330742
 20
-2.715664599232
 30
0.0
 11
11.668626330742
 21
-2.801767939599
 31
0.0
1001
TCAD
1000
TCW_CUSTOM_DATA
1002
{
1000
#$AUX@_ToolInfo Properties
1070
           8
1000
Insert^JLine^JSingle@Line Single
1002
}
  0
LINE
  5
2B9
100
AcDbEntity
  8
0
370
           0
  6
Continuous
 62
           7
 48
0.300000011921
100
AcDbLine
 10
11.712735382787
 20
-2.716194981912
 30
0.0
 11
11.712735382787
 21
-2.802298322279
 31
0.0
1001
TCAD
1000
TCW_CUSTOM_DATA
1002
{
1000
#$AUX@_ToolInfo Properties
1070
           8
1000
Insert^JLine^JSingle@Line Single
1002
}
  0
LINE
  5
2BA
100
AcDbEntity
  8
0
370
           0
  6
Continuous
 62
           7
 48
0.300000011921
100
AcDbLine
 10
11.758063602978
 20
-2.716693094221
 30
0.0
 11
11.758063602978
 21
-2.802796434589
 31
0.0
1001
TCAD
1000
TCW_CUSTOM_DATA
1002
{
1000
#$AUX@_ToolInfo Properties
1070
           8
1000
Insert^JLine^JSingle@Line Single
1002
}
  0
LINE
  5
2BB
100
AcDbEntity
  8
0
370
           0
  6
Continuous
 62
           7
 48
0.300000011921
100
AcDbLine
 10
11.472645249512
 20
-2.742310833589
 30
0.0
 11
11.472645249512
 21
-2.783156042997
 31
0.0
1001
TCAD
1000
TCW_CUSTOM_DATA
1002
{
1000
#$AUX@_ToolInfo Properties
1070
           8
1000
Insert^JLine^JSingle@Line Single
1002
}
  0
LINE
  5
2BC
100
AcDbEntity
  8
0
370
           0
  6
Continuous
 62
           7
 48
0.300000011921
100
AcDbLine
 10
11.522456480446
 20
-2.740816496631
 30
0.0
 11
11.522456480446
 21
-2.781661706038
 31
0.0
1001
TCAD
1000
TCW_CUSTOM_DATA
1002
{
1000
#$AUX@_ToolInfo Properties
1070
           8
1000
Insert^JLine^JSingle@Line Single
1002
}
  0
LINE
  5
2BD
100
AcDbEntity
  8
0
370
           0
  6
Continuous
 62
           7
 48
0.300000011921
100
AcDbLine
 10
11.564297914468
 20
-2.740816496631
 30
0.0
 11
11.564297914468
 21
-2.781661706038
 31
0.0
1001
TCAD
1000
TCW_CUSTOM_DATA
1002
{
1000
#$AUX@_ToolInfo Properties
1070
           8
1000
Insert^JLine^JSingle@Line Single
1002
}
  0
LINE
  5
2BE
100
AcDbEntity
  8
0
370
           0
  6
Continuous
 62
           7
 48
0.300000011921
100
AcDbLine
 10
11.605143123871
 20
-2.74181272125
 30
0.0
 11
11.605143123871
 21
-2.782657930658
 31
0.0
1001
TCAD
1000
TCW_CUSTOM_DATA
1002
{
1000
#$AUX@_ToolInfo Properties
1070
           8
1000
Insert^JLine^JSingle@Line Single
1002
}
  0
LINE
  5
2BF
100
AcDbEntity
  8
0
370
           0
  6
Continuous
 62
           7
 48
0.300000011921
100
AcDbLine
 10
11.646984557894
 20
-2.74181272125
 30
0.0
 11
11.646984557894
 21
-2.782657930658
 31
0.0
1001
TCAD
1000
TCW_CUSTOM_DATA
1002
{
1000
#$AUX@_ToolInfo Properties
1070
           8
1000
Insert^JLine^JSingle@Line Single
1002
}
  0
LINE
  5
2C0
100
AcDbEntity
  8
0
370
           0
  6
Continuous
 62
           7
 48
0.300000011921
100
AcDbLine
 10
11.688825991917
 20
-2.74280894587
 30
0.0
 11
11.688825991917
 21
-2.783654155277
 31
0.0
1001
TCAD
1000
TCW_CUSTOM_DATA
1002
{
1000
#$AUX@_ToolInfo Properties
1070
           8
1000
Insert^JLine^JSingle@Line Single
1002
}
  0
LINE
  5
2C1
100
AcDbEntity
  8
0
370
           0
  6
Continuous
 62
           7
 48
0.300000011921
100
AcDbLine
 10
11.735648549037
 20
-2.74181272125
 30
0.0
 11
11.735648549037
 21
-2.782657930658
 31
0.0
1001
TCAD
1000
TCW_CUSTOM_DATA
1002
{
1000
#$AUX@_ToolInfo Properties
1070
           8
1000
Insert^JLine^JSingle@Line Single
1002
}
  0
LINE
  5
2C2
100
AcDbEntity
  8
0
370
           0
  6
Continuous
 62
           7
 48
0.300000011921
100
AcDbLine
 10
11.779482432299
 20
-2.74280894587
 30
0.0
 11
11.779482432299
 21
-2.783654155277
 31
0.0
1001
TCAD
1000
TCW_CUSTOM_DATA
1002
{
1000
#$AUX@_ToolInfo Properties
1070
           8
1000
Insert^JLine^JSingle@Line Single
1002
}
  0
LINE
  5
2C3
100
AcDbEntity
  8
0
370
           0
  6
DASHDOT
 62
           7
 48
0.300000011921
100
AcDbLine
 10
7.14
 20
2.64
 30
0.0
 11
12.57
 21
2.64
 31
0.0
1001
TCAD
1000
TCW_CUSTOM_DATA
1002
{
1000
#$AUX@_ToolInfo Properties
1070
           8
1000
Insert^JLine^JSingle@Line Single
1002
}
  0
LINE
  5
2C4
100
AcDbEntity
  8
0
370
           0
  6
DASHDOT
 62
           7
 48
0.300000011921
100
AcDbLine
 10
7.14
 20
-2.64
 30
0.0
 11
12.57
 21
-2.64
 31
0.0
1001
TCAD
1000
TCW_CUSTOM_DATA
1002
{
1000
#$AUX@_ToolInfo Properties
1070
           8
1000
Insert^JLine^JSingle@Line Single
1002
}
  0
LINE
  5
2C5
100
AcDbEntity
  8
0
370
           0
  6
DASHDOT
 62
           7
 48
0.300000011921
100
AcDbLine
 10
8.507692737467
 20
0.0
 30
0.0
 11
13.0
 21
0.0
 31
0.0
1001
TCAD
1000
TCW_CUSTOM_DATA
1002
{
1000
#$AUX@_ToolInfo Properties
1070
           8
1000
Insert^JLine^JSingle@Line Single
1002
}
  0
DIMENSION
  5
2CF
100
AcDbEntity
  8
0
  6
Continuous
 62
           7
100
AcDbDimension
  2
*D8
 10
10.5
 20
2.81310989
 30
0.0
 11
10.5
 21
2.844664945
 31
0.0
 70
           1
 71
           5
 72
           1
 41
1.0
 42
0.0
  1
<0.0631>
  3
STANDARD
100
AcDbAlignedDimension
 13
11.15268
 23
2.87622
 33
0.0
 14
11.15268
 24
2.81310989
 34
0.0
 50
-90.000000000002
1001
TCAD
1000
TCW_CUSTOM_DATA
1002
{
1000
#$AUX@_ToolInfo Properties
1070
           8
1000
Insert^JDimension^JParallel@Dimension Parallel
1002
}
1001
ACAD
1000
DSTYLE
1002
{
1002
}
  0
DIMENSION
  5
2DE
100
AcDbEntity
  8
0
  6
Continuous
 62
           7
100
AcDbDimension
  2
*D9
 10
12.57
 20
4.0
 30
0.0
 11
11.86134
 21
4.14999999851
 31
0.0
 70
           1
 71
           5
 72
           1
 41
1.0
 42
0.0
  1
<1.4173>
  3
STANDARD
100
AcDbAlignedDimension
 13
11.15268
 23
2.87622
 33
0.0
 14
12.57
 24
2.87622
 34
0.0
1001
TCAD
1000
TCW_CUSTOM_DATA
1002
{
1000
#$AUX@_ToolInfo Properties
1070
           8
1000
Insert^JDimension^JParallel@Dimension Parallel
1002
}
1001
ACAD
1000
DSTYLE
1002
{
1002
}
  0
DIMENSION
  5
2E8
100
AcDbEntity
  8
0
  6
Continuous
 62
           7
100
AcDbDimension
  2
*D10
 10
10.5
 20
-2.87622
 30
0.0
 11
10.5
 21
-2.817165
 31
0.0
 70
           1
 71
           5
 72
           1
 41
1.0
 42
0.0
  1
<0.1181>
  3
STANDARD
100
AcDbAlignedDimension
 13
11.43
 23
-2.75811
 33
0.0
 14
11.43
 24
-2.87622
 34
0.0
 50
-90.0
1001
TCAD
1000
TCW_CUSTOM_DATA
1002
{
1000
#$AUX@_ToolInfo Properties
1070
           8
1000
Insert^JDimension^JParallel@Dimension Parallel
1002
}
1001
ACAD
1000
DSTYLE
1002
{
1002
}
  0
DIMENSION
  5
2F8
100
AcDbEntity
  8
0
  6
Continuous
 62
           7
100
AcDbDimension
  2
*D11
 10
13.5
 20
2.64
 30
0.0
 11
13.5
 21
2.75811
 31
0.0
 70
           1
 71
           5
 72
           1
 41
1.0
 42
0.0
  1
<0.2362>
  3
STANDARD
100
AcDbAlignedDimension
 13
12.57
 23
2.87622
 33
0.0
 14
12.57
 24
2.64
 34
0.0
 50
-90.0
1001
TCAD
1000
TCW_CUSTOM_DATA
1002
{
1000
#$AUX@_ToolInfo Properties
1070
           8
1000
Insert^JDimension^JParallel@Dimension Parallel
1002
}
1001
ACAD
1000
DSTYLE
1002
{
1002
}
  0
DIMENSION
  5
30A
100
AcDbEntity
  8
0
  6
Continuous
 62
           7
100
AcDbDimension
  2
*D12
 10
11.43
 20
-3.5
 30
0.0
 11
11.29134
 21
-3.35000000149
 31
0.0
 70
           1
 71
           5
 72
           1
 41
1.0
 42
0.0
  1
<0.2773>
  3
STANDARD
100
AcDbAlignedDimension
 13
11.15268
 23
-2.87622
 33
0.0
 14
11.43
 24
-2.87622
 34
0.0
1001
TCAD
1000
TCW_CUSTOM_DATA
1002
{
1000
#$AUX@_ToolInfo Properties
1070
           8
1000
Insert^JDimension^JParallel@Dimension Parallel
1002
}
1001
ACAD
1000
DSTYLE
1002
{
1002
}
  0
LINE
  5
30B
102
{ACAD_REACTORS
330
316
102
}
100
AcDbEntity
  8
0
370
           0
  6
Continuous
 62
           7
 48
0.300000011921
100
AcDbLine
 10
6.235331762343
 20
0.067312756649
 30
0.0
 11
6.235331762343
 21
-0.061240406402
 31
0.0
  0
LINE
  5
30C
102
{ACAD_REACTORS
330
316
102
}
100
AcDbEntity
  8
0
370
           0
  6
Continuous
 62
           7
 48
0.300000011921
100
AcDbLine
 10
6.318619727137
 20
0.065502148719
 30
0.0
 11
6.318619727137
 21
-0.061240406402
 31
0.0
  0
LINE
  5
30D
102
{ACAD_REACTORS
330
316
102
}
100
AcDbEntity
  8
0
370
           0
  6
Continuous
 62
           7
 48
0.300000011921
100
AcDbLine
 10
6.280596960601
 20
0.027479382183
 30
0.0
 11
6.280596960601
 21
-0.030460071587
 31
0.0
  0
LINE
  5
30E
102
{ACAD_REACTORS
330
316
102
}
100
AcDbEntity
  8
0
370
           0
  6
Continuous
 62
           7
 48
0.300000011921
100
AcDbLine
 10
6.362074317464
 20
0.027479382183
 30
0.0
 11
6.362074317464
 21
-0.025028247796
 31
0.0
  0
LINE
  5
30F
102
{ACAD_REACTORS
330
316
102
}
100
AcDbEntity
  8
0
370
           0
  6
Continuous
 62
           7
 48
0.300000011921
100
AcDbLine
 10
6.070566440686
 20
0.065502148719
 30
0.0
 11
6.070566440686
 21
-0.063051014332
 31
0.0
  0
LINE
  5
310
102
{ACAD_REACTORS
330
316
102
}
100
AcDbEntity
  8
0
370
           0
  6
Continuous
 62
           7
 48
0.300000011921
100
AcDbLine
 10
6.15385440548
 20
0.063691540788
 30
0.0
 11
6.15385440548
 21
-0.063051014332
 31
0.0
  0
LINE
  5
311
102
{ACAD_REACTORS
330
316
102
}
100
AcDbEntity
  8
0
370
           0
  6
Continuous
 62
           7
 48
0.300000011921
100
AcDbLine
 10
6.115831638944
 20
0.025668774252
 30
0.0
 11
6.115831638944
 21
-0.032270679517
 31
0.0
  0
LINE
  5
312
102
{ACAD_REACTORS
330
316
102
}
100
AcDbEntity
  8
0
370
           0
  6
Continuous
 62
           7
 48
0.300000011921
100
AcDbLine
 10
6.197308995807
 20
0.025668774252
 30
0.0
 11
6.197308995807
 21
-0.026838855726
 31
0.0
  0
LINE
  5
313
102
{ACAD_REACTORS
330
316
102
}
100
AcDbEntity
  8
0
370
           0
  6
DASHED
 62
           7
 48
0.300000011921
100
AcDbLine
 10
6.379448490607
 20
0.080327659998
 30
0.0
 11
6.004448490607
 21
0.080327659998
 31
0.0
  0
LINE
  5
314
102
{ACAD_REACTORS
330
316
102
}
100
AcDbEntity
  8
0
370
           0
  6
DASHED
 62
           7
 48
0.300000011921
100
AcDbLine
 10
6.379448490607
 20
-0.079672340002
 30
0.0
 11
6.004448490607
 21
-0.079672340002
 31
0.0
  0
LINE
  5
315
102
{ACAD_REACTORS
330
316
102
}
100
AcDbEntity
  8
0
370
           0
  6
DASHED
 62
           7
 48
0.300000011921
100
AcDbLine
 10
6.004448490607
 20
0.080327659998
 30
0.0
 11
6.004448490607
 21
-0.079672340002
 31
0.0
  0
LINE
  5
317
100
AcDbEntity
  8
0
370
           0
  6
Continuous
 62
           7
 48
0.300000011921
100
AcDbLine
 10
6.383067168512
 20
0.054932996543
 30
0.0
 11
6.383067168512
 21
-0.057007943373
 31
0.0
  0
CIRCLE
  5
318
100
AcDbEntity
  8
0
370
           0
  6
Continuous
 62
           7
100
AcDbCircle
 10
0.0
 20
0.0
 30
0.0
 40
0.0984
  0
LINE
  5
319
100
AcDbEntity
  8
0
370
          50
  6
Continuous
 62
           7
 48
0.300000011921
100
AcDbLine
 10
0.252889196357
 20
0.943795329491
 30
0.0
 11
0.025467794038
 21
0.095047101307
 31
0.0
1001
ACAD
1000
TCW40_DEV_WIDTH
1002
{
1040
0.019999999553
1002
}
  0
LINE
  5
31A
100
AcDbEntity
  8
0
370
          50
  6
Continuous
 62
           7
 48
0.300000011921
100
AcDbLine
 10
0.095047101307
 20
0.025467794038
 30
0.0
 11
0.950664198234
 21
0.25472970419
 31
0.0
1001
ACAD
1000
TCW40_DEV_WIDTH
1002
{
1040
0.019999999553
1002
}
  0
ARC
  5
31B
100
AcDbEntity
  8
0
370
          50
  6
Continuous
 62
           7
100
AcDbCircle
 10
-0.0
 20
0.0
 30
0.0
 40
0.9842
100
AcDbArc
 50
15.0
 51
75.0
1001
ACAD
1000
TCW40_DEV_WIDTH
1002
{
1040
0.019999999553
1002
}
  0
ARC
  5
31C
100
AcDbEntity
  8
0
370
          50
  6
Continuous
 62
           7
100
AcDbCircle
 10
-0.0
 20
0.0
 30
0.0
 40
1.1811
100
AcDbArc
 50
15.0
 51
75.0
1001
ACAD
1000
TCW40_DEV_WIDTH
1002
{
1040
0.019999999553
1002
}
  0
LINE
  5
31D
100
AcDbEntity
  8
0
370
          50
  6
Continuous
 62
           7
 48
0.300000011921
100
AcDbLine
 10
1.14085499343
 20
0.305691174171
 30
0.0
 11
2.28170998686
 21
0.611382348341
 31
0.0
1001
ACAD
1000
TCW40_DEV_WIDTH
1002
{
1040
0.019999999553
1002
}
  0
LINE
  5
31E
100
AcDbEntity
  8
0
370
          50
  6
Continuous
 62
           7
 48
0.300000011921
100
AcDbLine
 10
0.305691174171
 20
1.14085499343
 30
0.0
 11
0.611382348341
 21
2.28170998686
 31
0.0
1001
ACAD
1000
TCW40_DEV_WIDTH
1002
{
1040
0.019999999553
1002
}
  0
ARC
  5
31F
100
AcDbEntity
  8
0
370
          50
  6
Continuous
 62
           7
100
AcDbCircle
 10
-0.0
 20
0.0
 30
0.0
 40
2.3622
100
AcDbArc
 50
15.0
 51
75.0
1001
ACAD
1000
TCW40_DEV_WIDTH
1002
{
1040
0.019999999553
1002
}
  0
ENDSEC
  0
SECTION
  2
OBJECTS
  0
DICTIONARY
  5
19
100
AcDbDictionary
280
           0
281
           1
  3
ACAD_GROUP
350
1A
  3
ACAD_MLINESTYLE
350
1B
  3
ACAD_LAYOUT
350
1E
  3
ACAD_PLOTSETTINGS
350
22
  3
ACAD_PLOTSTYLENAME
350
1F
  0
DICTIONARY
  5
1A
102
{ACAD_REACTORS
330
19
102
}
100
AcDbDictionary
280
           0
281
           1
  3

350
20F
  3

350
227
  3

350
316
  0
DICTIONARY
  5
1B
102
{ACAD_REACTORS
330
19
102
}
100
AcDbDictionary
280
           0
281
           1
  3
Standard
350
1C
  0
MLINESTYLE
  5
1C
100
AcDbMlineStyle
  2
STANDARD
 70
           0
  3

 62
         256
 51
90.0
 52
90.0
 71
           3
 49
0.25
 62
           7
  6
ByLayer
 49
0.0
 62
           7
  6
ByLayer
 49
-0.25
 62
           7
  6
ByLayer
  0
ACDBDICTIONARYWDFLT
  5
1F
102
{ACAD_REACTORS
330
19
102
}
100
AcDbDictionary
281
           1
  3
Normal
350
1D
100
AcDbDictionaryWithDefault
340
1D
  0
ACDBPLACEHOLDER
  5
1D
102
{ACAD_REACTORS
330
1F
102
}
  0
LAYOUT
  5
21
102
{ACAD_REACTORS
330
1E
102
}
100
AcDbPlotSettings
  1

  2

  4

  6

 40
0.0
 41
0.0
 42
0.0
 43
0.0
 44
0.0
 45
0.0
 46
0.0
 47
0.0
 48
0.0
 49
0.0
140
0.0
141
0.0
142
1.0
143
1.0
 70
           0
 72
           0
 73
           0
 74
           0
  7

 75
           0
147
1.0
148
0.0
149
0.0
100
AcDbLayout
  1
Layout1
 70
           0
 71
           0
 10
0.0
 20
0.0
 11
0.0
 21
0.0
 12
0.0
 22
0.0
 32
0.0
 14
0.0
 24
0.0
 34
0.0
 15
0.0
 25
0.0
 35
0.0
146
0.0
 13
0.0
 23
0.0
 33
0.0
 16
0.0
 26
0.0
 36
0.0
 17
0.0
 27
0.0
 37
0.0
 76
           0
330
B
331
0
345
0
346
0
  0
DICTIONARY
  5
1E
102
{ACAD_REACTORS
330
19
102
}
100
AcDbDictionary
280
           0
281
           1
  3
Model
350
320
  3
Paper 1
350
323
  0
DICTIONARY
  5
22
102
{ACAD_REACTORS
330
19
102
}
100
AcDbDictionary
280
           0
281
           1
  0
GROUP
  5
20F
102
{ACAD_REACTORS
330
1A
102
}
100
AcDbGroup
300

 70
           1
 71
           1
340
205
340
207
340
208
340
20A
340
20B
340
20D
340
20E
  0
GROUP
  5
227
102
{ACAD_REACTORS
330
1A
102
}
100
AcDbGroup
300

 70
           1
 71
           1
340
21C
340
21D
340
21E
340
21F
340
220
340
221
340
222
340
223
340
224
340
225
340
226
  0
GROUP
  5
316
102
{ACAD_REACTORS
330
1A
102
}
100
AcDbGroup
300

 70
           1
 71
           1
340
30B
340
30C
340
30D
340
30E
340
30F
340
310
340
311
340
312
340
313
340
314
340
315
  0
LAYOUT
  5
320
100
AcDbPlotSettings
  1

  2

  4

  6

 40
0.0
 41
0.0
 42
0.0
 43
0.0
 44
0.0
 45
0.0
 46
0.0
 47
0.0
 48
0.0
 49
0.0
140
0.0
141
0.0
142
1.0
143
1.0
 70
           0
 72
           0
 73
           0
 74
           0
  7

 75
           0
147
1.0
148
0.0
149
0.0
100
AcDbLayout
  1
Model
 70
           0
 71
           0
 10
0.0
 20
0.0
 11
0.0
 21
0.0
 12
0.0
 22
0.0
 32
0.0
 14
0.0
 24
0.0
 34
0.0
 15
0.0
 25
0.0
 35
0.0
146
0.0
 13
0.0
 23
0.0
 33
0.0
 16
0.0
 26
0.0
 36
0.0
 17
0.0
 27
0.0
 37
0.0
 76
           0
330
A
331
0
345
0
346
0
  0
LAYOUT
  5
323
100
AcDbPlotSettings
  1

  2

  4

  6

 40
4.572
 41
4.61518
 42
4.23418
 43
4.572
 44
279.4
 45
215.9
 46
-4.572
 47
-4.61518
 48
0.0
 49
0.0
140
0.0
141
0.0
142
1.0
143
1.0
 70
           0
 72
           0
 73
           0
 74
           0
  7

 75
           0
147
1.0
148
0.0
149
0.0
100
AcDbLayout
  1
Paper 1
 70
           1
 71
           1
 10
0.0
 20
0.0
 11
279.4
 21
215.9
 12
0.0
 22
0.0
 32
0.0
 14
0.0
 24
0.0
 34
0.0
 15
0.0
 25
0.0
 35
0.0
146
0.0
 13
0.0
 23
0.0
 33
0.0
 16
0.0
 26
0.0
 36
0.0
 17
0.0
 27
0.0
 37
0.0
 76
           0
330
B
331
321
345
0
346
0
  0
ENDSEC
  0
EOF
