  0
SECTION
  2
HEADER
  9
$ACADVER
  1
AC1015
  9
$ACADMAINTVER
 70
           6
  9
$DWGCODEPAGE
  3
ANSI_1252
  9
$INSBASE
 10
0.0
 20
0.0
 30
0.0
  9
$EXTMIN
 10
-5.226981077009
 20
-8.5
 30
0.0
  9
$EXTMAX
 10
8.5
 20
4.091245731721
 30
0.0
  9
$LIMMIN
 10
-6.8831547569
 20
-8.781118827
  9
$LIMMAX
 10
10.1355964625
 20
4.369734388
  9
$ORTHOMODE
 70
           0
  9
$REGENMODE
 70
           1
  9
$FILLMODE
 70
           1
  9
$QTEXTMODE
 70
           0
  9
$MIRRTEXT
 70
           1
  9
$LTSCALE
 40
1.0
  9
$ATTMODE
 70
           1
  9
$TEXTSIZE
 40
0.25
  9
$TRACEWID
 40
1.0
  9
$TEXTSTYLE
  7
STANDARD
  9
$CLAYER
  8
0
  9
$CELTYPE
  6
Continuous
  9
$CECOLOR
 62
           7
  9
$CELTSCALE
 40
1.0
  9
$DISPSILH
 70
           0
  9
$DIMSCALE
 40
1.0
  9
$DIMASZ
 40
0.25
  9
$DIMEXO
 40
0.0625
  9
$DIMDLI
 40
0.375
  9
$DIMRND
 40
0.01
  9
$DIMDLE
 40
0.0
  9
$DIMEXE
 40
0.125
  9
$DIMTP
 40
0.0
  9
$DIMTM
 40
0.0
  9
$DIMTXT
 40
0.15
  9
$DIMCEN
 40
0.09
  9
$DIMTSZ
 40
0.0
  9
$DIMTOL
 70
           0
  9
$DIMLIM
 70
           0
  9
$DIMTIH
 70
           1
  9
$DIMTOH
 70
           1
  9
$DIMSE1
 70
           0
  9
$DIMSE2
 70
           0
  9
$DIMTAD
 70
           1
  9
$DIMZIN
 70
           8
  9
$DIMBLK
  1

  9
$DIMASO
 70
           0
  9
$DIMSHO
 70
           1
  9
$DIMPOST
  1

  9
$DIMAPOST
  1

  9
$DIMALT
 70
           0
  9
$DIMALTD
 70
           2
  9
$DIMALTF
 40
1.0
  9
$DIMLFAC
 40
1.0
  9
$DIMTOFL
 70
           1
  9
$DIMTVP
 40
0.0
  9
$DIMTIX
 70
           0
  9
$DIMSOXD
 70
           0
  9
$DIMSAH
 70
           0
  9
$DIMBLK1
  1

  9
$DIMBLK2
  1

  9
$DIMSTYLE
  2
STANDARD
  9
$DIMCLRD
 70
           7
  9
$DIMCLRE
 70
           7
  9
$DIMCLRT
 70
           7
  9
$DIMTFAC
 40
1.0
  9
$DIMGAP
 40
0.0625
  9
$DIMJUST
 70
           0
  9
$DIMSD1
 70
           0
  9
$DIMSD2
 70
           0
  9
$DIMTOLJ
 70
           1
  9
$DIMTZIN
 70
           0
  9
$DIMALTZ
 70
           0
  9
$DIMALTTZ
 70
           0
  9
$DIMUPT
 70
           0
  9
$DIMDEC
 70
           2
  9
$DIMTDEC
 70
           2
  9
$DIMALTU
 70
           2
  9
$DIMALTTD
 70
           2
  9
$DIMTXSTY
  7
STANDARD
  9
$DIMAUNIT
 70
           0
  9
$DIMADEC
 70
           2
  9
$DIMALTRND
 40
0.0
  9
$DIMAZIN
 70
           0
  9
$DIMDSEP
 70
           0
  9
$DIMATFIT
 70
           0
  9
$DIMFRAC
 70
           0
  9
$DIMLDRBLK
  1

  9
$DIMLUNIT
 70
           2
  9
$DIMLWD
 70
           0
  9
$DIMLWE
 70
           0
  9
$DIMTMOVE
 70
           0
  9
$LUNITS
 70
           2
  9
$LUPREC
 70
           5
  9
$SKETCHINC
 40
1.0
  9
$FILLETRAD
 40
1.0
  9
$AUNITS
 70
           0
  9
$AUPREC
 70
           2
  9
$MENU
  1
acad
  9
$ELEVATION
 40
0.0
  9
$PELEVATION
 40
0.0
  9
$THICKNESS
 40
0.0
  9
$LIMCHECK
 70
           0
  9
$CHAMFERA
 40
0.0
  9
$CHAMFERB
 40
0.0
  9
$CHAMFERC
 40
0.0
  9
$CHAMFERD
 40
0.0
  9
$SKPOLY
 70
           0
  9
$TDCREATE
 40
0.000000000
  9
$TDUCREATE
 40
0.000000000
  9
$TDUPDATE
 40
2449702.667959363
  9
$TDUUPDATE
 40
0.000000000
  9
$TDINDWG
 40
0.0000000000
  9
$TDUSRTIMER
 40
0.0000000000
  9
$USRTIMER
 70
           1
  9
$ANGBASE
 50
0.0
  9
$ANGDIR
 70
           0
  9
$PDMODE
 70
           0
  9
$PDSIZE
 40
0.0
  9
$PLINEWID
 40
0.0
  9
$SPLFRAME
 70
           0
  9
$SPLINETYPE
 70
           5
  9
$SPLINESEGS
 70
          20
  9
$HANDSEED
  5
205
  9
$SURFTAB1
 70
           6
  9
$SURFTAB2
 70
           6
  9
$SURFTYPE
 70
           6
  9
$SURFU
 70
           6
  9
$SURFV
 70
           6
  9
$UCSBASE
  2

  9
$UCSNAME
  2

  9
$UCSORG
 10
0.0
 20
0.0
 30
0.0
  9
$UCSXDIR
 10
1.0
 20
0.0
 30
0.0
  9
$UCSYDIR
 10
0.0
 20
1.0
 30
0.0
  9
$UCSORTHOREF
  2

  9
$UCSORTHOVIEW
 70
           0
  9
$UCSORGTOP
 10
0.0
 20
0.0
 30
0.0
  9
$UCSORGBOTTOM
 10
0.0
 20
0.0
 30
0.0
  9
$UCSORGLEFT
 10
0.0
 20
0.0
 30
0.0
  9
$UCSORGRIGHT
 10
0.0
 20
0.0
 30
0.0
  9
$UCSORGFRONT
 10
0.0
 20
0.0
 30
0.0
  9
$UCSORGBACK
 10
0.0
 20
0.0
 30
0.0
  9
$PUCSBASE
  2

  9
$PUCSNAME
  2

  9
$PUCSORG
 10
0.0
 20
0.0
 30
0.0
  9
$PUCSXDIR
 10
1.0
 20
0.0
 30
0.0
  9
$PUCSYDIR
 10
0.0
 20
1.0
 30
0.0
  9
$PUCSORTHOREF
  2

  9
$PUCSORTHOVIEW
 70
           0
  9
$PUCSORGTOP
 10
0.0
 20
0.0
 30
0.0
  9
$PUCSORGBOTTOM
 10
0.0
 20
0.0
 30
0.0
  9
$PUCSORGLEFT
 10
0.0
 20
0.0
 30
0.0
  9
$PUCSORGRIGHT
 10
0.0
 20
0.0
 30
0.0
  9
$PUCSORGFRONT
 10
0.0
 20
0.0
 30
0.0
  9
$PUCSORGBACK
 10
0.0
 20
0.0
 30
0.0
  9
$USERI1
 70
           0
  9
$USERI2
 70
           0
  9
$USERI3
 70
           0
  9
$USERI4
 70
           0
  9
$USERI5
 70
           0
  9
$USERR1
 40
0.0
  9
$USERR2
 40
0.0
  9
$USERR3
 40
0.0
  9
$USERR4
 40
0.0
  9
$USERR5
 40
0.0
  9
$WORLDVIEW
 70
           1
  9
$SHADEDGE
 70
           3
  9
$SHADEDIF
 70
          70
  9
$TILEMODE
 70
           1
  9
$MAXACTVP
 70
          16
  9
$PINSBASE
 10
0.0
 20
0.0
 30
0.0
  9
$PLIMCHECK
 70
           0
  9
$PEXTMIN
 10
0.0
 20
0.0
 30
0.0
  9
$PEXTMAX
 10
11.0
 20
8.5
 30
0.0
  9
$PLIMMIN
 10
0.0
 20
0.0
  9
$PLIMMAX
 10
11.0
 20
8.5
  9
$UNITMODE
 70
           0
  9
$VISRETAIN
 70
           0
  9
$PLINEGEN
 70
           1
  9
$PSLTSCALE
 70
           1
  9
$TREEDEPTH
 70
        3020
  9
$CMLSTYLE
  2
STANDARD
  9
$CMLJUST
 70
           0
  9
$CMLSCALE
 40
1.0
  9
$PROXYGRAPHICS
 70
           0
  9
$MEASUREMENT
 70
           0
  9
$CELWEIGHT
370
           0
  9
$ENDCAPS
280
           0
  9
$JOINSTYLE
280
           0
  9
$LWDISPLAY
290
           0
  9
$INSUNITS
 70
           0
  9
$HYPERLINKBASE
  1

  9
$STYLESHEET
  1

  9
$XEDIT
290
           1
  9
$CEPSNTYPE
380
           0
  9
$PSTYLEMODE
290
           1
  9
$FINGERPRINTGUID
  2

  9
$VERSIONGUID
  2

  9
$EXTNAMES
290
           1
  9
$PSVPSCALE
 40
0.0
  0
ENDSEC
  0
SECTION
  2
CLASSES
  0
CLASS
  1
LWPOLYLINE
  2
AcDbPolyline
  3
AutoCAD 2000
 90
        0
280
           0
281
           1
  0
CLASS
  1
IMAGE
  2
AcDbRasterImage
  3
ISM
 90
    32895
280
           0
281
           1
  0
CLASS
  1
OLE2FRAME
  2
AcDbOle2Frame
  3
AutoCAD 2000
 90
    32768
280
           0
281
           1
  0
CLASS
  1
HATCH
  2
AcDbHatch
  3
AutoCAD 2000
 90
        0
280
           0
281
           1
  0
CLASS
  1
DICTIONARYVAR
  2
AcDbDictionaryVar
  3
AutoCAD 2000
 90
    32768
280
           0
281
           0
  0
CLASS
  1
RASTERVARIABLES
  2
AcDbRasterVariables
  3
ISM
 90
    32768
280
           0
281
           0
  0
CLASS
  1
IMAGEDEF
  2
AcDbRasterImageDef
  3
ISM
 90
    32768
280
           0
281
           0
  0
CLASS
  1
IMAGEDEF_REACTOR
  2
AcDbRasterImageDefReactor
  3
ISM
 90
    32769
280
           0
281
           0
  0
CLASS
  1
IDBUFFER
  2
AcDbIdBuffer
  3
AutoCAD 2000
 90
    32768
280
           0
281
           0
  0
CLASS
  1
SPATIAL_FILTER
  2
AcDbSpatialFilter
  3
AutoCAD 2000
 90
    32768
280
           0
281
           0
  0
CLASS
  1
XRECORD
  2
AcDbXrecord
  3
AutoCAD 2000
 90
    32768
280
           0
281
           0
  0
CLASS
  1
SORTENTSTABLE
  2
AcDbSortentsTable
  3
AutoCAD 2000
 90
    32768
280
           0
281
           0
  0
CLASS
  1
LAYER_INDEX
  2
AcDbLayerIndex
  3
AutoCAD 2000
 90
    32768
280
           0
281
           0
  0
CLASS
  1
SPATIAL_INDEX
  2
AcDbSpatialIndex
  3
AutoCAD 2000
 90
    32768
280
           0
281
           0
  0
CLASS
  1
OBJECT_PTR
  2
CAseDLPNTableRecord
  3
"ASE-LPNTableRecord"
 90
    32769
280
           0
281
           0
  0
CLASS
  1
LAYOUT
  2
AcDbLayout
  3
AutoCAD 2000
 90
        0
280
           0
281
           0
  0
CLASS
  1
PLOTSETTINGS
  2
AcDbPlotSettings
  3
AutoCAD 2000
 90
    32768
280
           0
281
           0
  0
CLASS
  1
ACDBDICTIONARYWDFLT
  2
AcDbDictionaryWithDefault
  3
AutoCAD 2000
 90
        0
280
           0
281
           0
  0
CLASS
  1
ACDBPLACEHOLDER
  2
AcDbPlaceHolder
  3
AutoCAD 2000
 90
        0
280
           0
281
           0
  0
ENDSEC
  0
SECTION
  2
TABLES
  0
TABLE
  2
VPORT
  5
7
100
AcDbSymbolTable
 70
           1
  0
VPORT
  5
15
100
AcDbSymbolTableRecord
100
AcDbViewportTableRecord
  2
*ACTIVE
 70
           0
 10
0.0
 20
0.0
 11
1.0
 21
1.0
 12
0.0
 22
0.0
 13
0.0
 23
0.0
 14
0.5
 24
0.5
 15
0.5
 25
0.5
 16
0.0
 26
0.0
 36
1.0
 17
0.8601693983
 27
3.9125140353
 37
-1.0
 40
6.566311038289
 41
1.491228070175
 42
50.0
 43
0.0
 44
0.0
 50
0.0
 51
0.0
 71
           0
 72
         100
 73
           1
 74
           1
 75
           0
 76
           1
 77
           0
 78
           0
281
           0
 65
           0
110
0.0
120
0.0
130
0.0
111
1.0
121
0.0
131
0.0
112
0.0
122
1.0
132
0.0
345
0
346
0
 79
           0
146
0.0
  0
ENDTAB
  0
TABLE
  2
LTYPE
  5
4
100
AcDbSymbolTable
 70
          15
  0
LTYPE
  5
11
100
AcDbSymbolTableRecord
100
AcDbLinetypeTableRecord
  2
ByBlock
 70
          64
  3

 72
          65
 73
           0
 40
0.0
  0
LTYPE
  5
12
100
AcDbSymbolTableRecord
100
AcDbLinetypeTableRecord
  2
ByLayer
 70
          64
  3

 72
          65
 73
           0
 40
0.0
  0
LTYPE
  5
13
100
AcDbSymbolTableRecord
100
AcDbLinetypeTableRecord
  2
Continuous
 70
          64
  3
Solid line
 72
          65
 73
           0
 40
0.0
  0
LTYPE
  5
24
100
AcDbSymbolTableRecord
100
AcDbLinetypeTableRecord
  2
BORDER
 70
           0
  3
BORDER
 72
          65
 73
           6
 40
1.75
 49
0.5
 74
           0
 49
-0.25
 74
           0
 49
0.5
 74
           0
 49
-0.25
 74
           0
 49
0.0
 74
           0
 49
-0.25
 74
           0
  0
LTYPE
  5
25
100
AcDbSymbolTableRecord
100
AcDbLinetypeTableRecord
  2
CENTER
 70
           0
  3
CENTER
 72
          65
 73
           4
 40
2.0
 49
1.25
 74
           0
 49
-0.25
 74
           0
 49
0.25
 74
           0
 49
-0.25
 74
           0
  0
LTYPE
  5
26
100
AcDbSymbolTableRecord
100
AcDbLinetypeTableRecord
  2
DASHDOT
 70
           0
  3
DASHDOT
 72
          65
 73
           4
 40
1.0
 49
0.5
 74
           0
 49
-0.25
 74
           0
 49
0.0
 74
           0
 49
-0.25
 74
           0
  0
LTYPE
  5
27
100
AcDbSymbolTableRecord
100
AcDbLinetypeTableRecord
  2
DASHED
 70
           0
  3
DASHED
 72
          65
 73
           2
 40
0.75
 49
0.5
 74
           0
 49
-0.25
 74
           0
  0
LTYPE
  5
28
100
AcDbSymbolTableRecord
100
AcDbLinetypeTableRecord
  2
DIVIDE
 70
           0
  3
DIVIDE
 72
          65
 73
           6
 40
1.25
 49
0.5
 74
           0
 49
-0.25
 74
           0
 49
0.0
 74
           0
 49
-0.25
 74
           0
 49
0.0
 74
           0
 49
-0.25
 74
           0
  0
LTYPE
  5
29
100
AcDbSymbolTableRecord
100
AcDbLinetypeTableRecord
  2
DOT
 70
           0
  3
DOT
 72
          65
 73
           2
 40
0.25
 49
0.0
 74
           0
 49
-0.25
 74
           0
  0
LTYPE
  5
2A
100
AcDbSymbolTableRecord
100
AcDbLinetypeTableRecord
  2
HIDDEN
 70
           0
  3
HIDDEN
 72
          65
 73
           2
 40
0.375
 49
0.25
 74
           0
 49
-0.125
 74
           0
  0
LTYPE
  5
2B
100
AcDbSymbolTableRecord
100
AcDbLinetypeTableRecord
  2
PHANTOM
 70
           0
  3
PHANTOM
 72
          65
 73
           6
 40
2.5
 49
1.25
 74
           0
 49
-0.25
 74
           0
 49
0.25
 74
           0
 49
-0.25
 74
           0
 49
0.25
 74
           0
 49
-0.25
 74
           0
  0
LTYPE
  5
2C
100
AcDbSymbolTableRecord
100
AcDbLinetypeTableRecord
  2
$INVISIBLE
 70
           0
  3
$INVISIBLE
 72
          65
 73
           2
 40
200.0
 49
-100.0
 74
           0
 49
-100.0
 74
           0
  0
LTYPE
  5
2D
100
AcDbSymbolTableRecord
100
AcDbLinetypeTableRecord
  2
$SNAPEXT
 70
           0
  3
$SNAPEXT
 72
          65
 73
           2
 40
0.04
 49
0.02
 74
           0
 49
-0.02
 74
           0
  0
LTYPE
  5
2E
100
AcDbSymbolTableRecord
100
AcDbLinetypeTableRecord
  2
$AUXILIARY
 70
           0
  3
$AUXILIARY
 72
          65
 73
           2
 40
0.1
 49
0.05
 74
           0
 49
-0.05
 74
           0
  0
LTYPE
  5
2F
100
AcDbSymbolTableRecord
100
AcDbLinetypeTableRecord
  2
$CONSTRUCTION
 70
           0
  3
$CONSTRUCTION
 72
          65
 73
           4
 40
0.3
 49
0.2
 74
           0
 49
-0.05
 74
           0
 49
0.0
 74
           0
 49
-0.05
 74
           0
  0
ENDTAB
  0
TABLE
  2
LAYER
  5
2
100
AcDbSymbolTable
 70
           3
  0
LAYER
  5
14
100
AcDbSymbolTableRecord
100
AcDbLayerTableRecord
  2
0
 70
           0
 62
           7
  6
Continuous
290
           1
370
           0
390
0
1001
TCAD
1000
TCW_LAYER_ORDER
1002
{
1071
        0
1002
}
  0
LAYER
  5
30
100
AcDbSymbolTableRecord
100
AcDbLayerTableRecord
  2
$CONSTRUCTION
 70
           0
 62
           1
  6
$CONSTRUCTION
290
           1
370
           0
390
0
1001
TCAD
1000
TCW_LAYER_ORDER
1002
{
1071
        0
1002
}
  0
LAYER
  5
33
100
AcDbSymbolTableRecord
100
AcDbLayerTableRecord
  2
ASHADE
 70
           0
 62
           7
  6
Continuous
290
           1
370
          -3
390
0
  0
ENDTAB
  0
TABLE
  2
STYLE
  5
3
100
AcDbSymbolTable
 70
           2
  0
STYLE
  5
17
100
AcDbSymbolTableRecord
100
AcDbTextStyleTableRecord
  2
STANDARD
 70
           0
 40
0.0
 41
1.0
 50
0.0
 71
           0
 42
0.15000000596
  3
TIMES.TTF
  4

1001
ACAD
1000
Times New Roman
1071
      290
  0
STYLE
  5
32
100
AcDbSymbolTableRecord
100
AcDbTextStyleTableRecord
  2
ASHADE
 70
           0
 40
0.2
 41
1.0
 50
0.0
 71
           0
 42
2.5
  3
simplex.shx
  4

  0
ENDTAB
  0
TABLE
  2
VIEW
  5
5
100
AcDbSymbolTable
 70
           1
  0
VIEW
  5
31
100
AcDbSymbolTableRecord
100
AcDbViewTableRecord
  2
View_0
 70
           0
 40
8.5
 10
-1.402499675751
 20
0.0
 41
11.0
 11
0.0
 21
0.0
 31
1.0
 12
6.902499709278
 22
4.250000104308
 32
-1.0
 42
97.532499545905
 43
0.0
 44
0.0
 50
0.0
 71
           0
281
           0
 72
           0
110
0.0
120
0.0
130
0.0
111
1.0
121
0.0
131
0.0
112
0.0
122
1.0
132
0.0
  0
ENDTAB
  0
TABLE
  2
UCS
  5
6
100
AcDbSymbolTable
 70
           0
  0
ENDTAB
  0
TABLE
  2
APPID
  5
8
100
AcDbSymbolTable
 70
           3
  0
APPID
  5
16
100
AcDbSymbolTableRecord
100
AcDbRegAppTableRecord
  2
ACAD
 70
           0
  0
APPID
  5
23
100
AcDbSymbolTableRecord
100
AcDbRegAppTableRecord
  2
TCAD
 70
           0
  0
APPID
  5
51
100
AcDbSymbolTableRecord
100
AcDbRegAppTableRecord
  2
AVE_RENDER
 70
           0
  0
ENDTAB
  0
TABLE
  2
DIMSTYLE
  5
9
100
AcDbSymbolTable
 70
           1
100
AcDbDimStyleTable
 71
           0
  0
DIMSTYLE
105
18
100
AcDbSymbolTableRecord
100
AcDbDimStyleTableRecord
  2
STANDARD
 70
           0
  3

  4

 40
1.0
 41
0.25
 42
0.0625
 43
0.375
 44
0.125
 45
0.01
 46
0.0
 47
0.0
 48
0.0
 71
           0
 72
           0
 73
           1
 74
           1
 75
           0
 76
           0
 77
           1
 78
           8
 79
           0
140
0.15
141
0.09
142
0.0
143
1.0
144
1.0
145
0.0
146
1.0
147
0.0625
148
0.01
170
           0
171
           2
172
           1
173
           0
174
           0
175
           0
176
           7
177
           7
178
           7
179
           2
271
           2
272
           2
273
           2
274
           2
275
           0
276
           0
277
           2
278
          46
279
           0
280
           0
281
           0
282
           0
283
           1
284
           0
285
           0
286
           0
288
           0
340
17
341
0
342
0
343
0
344
0
371
          -2
372
          -2
  0
ENDTAB
  0
TABLE
  2
BLOCK_RECORD
  5
1
100
AcDbSymbolTable
 70
          13
  0
BLOCK_RECORD
  5
A
100
AcDbSymbolTableRecord
100
AcDbBlockTableRecord
  2
*MODEL_SPACE
340
201
  0
BLOCK_RECORD
  5
B
100
AcDbSymbolTableRecord
100
AcDbBlockTableRecord
  2
*PAPER_SPACE
340
204
  0
BLOCK_RECORD
  5
34
100
AcDbSymbolTableRecord
100
AcDbBlockTableRecord
  2
OVERHEAD
340
0
102
{BLKREFS
331
52
331
5E
331
6A
331
76
331
A2
331
AE
102
}
  0
BLOCK_RECORD
  5
82
100
AcDbSymbolTableRecord
100
AcDbBlockTableRecord
  2
DIRECT
340
0
102
{BLKREFS
331
96
102
}
  0
BLOCK_RECORD
  5
BA
100
AcDbSymbolTableRecord
100
AcDbBlockTableRecord
  2
SH_SPOT
340
0
102
{BLKREFS
331
E2
102
}
  0
BLOCK_RECORD
  5
16C
100
AcDbSymbolTableRecord
100
AcDbBlockTableRecord
  2
*D3
340
0
  0
BLOCK_RECORD
  5
178
100
AcDbSymbolTableRecord
100
AcDbBlockTableRecord
  2
*D4
340
0
  0
BLOCK_RECORD
  5
184
100
AcDbSymbolTableRecord
100
AcDbBlockTableRecord
  2
*D5
340
0
  0
BLOCK_RECORD
  5
190
100
AcDbSymbolTableRecord
100
AcDbBlockTableRecord
  2
*D6
340
0
  0
BLOCK_RECORD
  5
19C
100
AcDbSymbolTableRecord
100
AcDbBlockTableRecord
  2
*D7
340
0
  0
BLOCK_RECORD
  5
1A8
100
AcDbSymbolTableRecord
100
AcDbBlockTableRecord
  2
*D8
340
0
  0
BLOCK_RECORD
  5
1B4
100
AcDbSymbolTableRecord
100
AcDbBlockTableRecord
  2
*D9
340
0
  0
BLOCK_RECORD
  5
1C4
100
AcDbSymbolTableRecord
100
AcDbBlockTableRecord
  2
*D10
340
0
  0
BLOCK_RECORD
  5
1DE
100
AcDbSymbolTableRecord
100
AcDbBlockTableRecord
  2
*D11
340
0
  0
BLOCK_RECORD
  5
1ED
100
AcDbSymbolTableRecord
100
AcDbBlockTableRecord
  2
*D12
340
0
  0
ENDTAB
  0
ENDSEC
  0
SECTION
  2
BLOCKS
  0
BLOCK
  5
D
100
AcDbEntity
  8
0
100
AcDbBlockBegin
  2
*MODEL_SPACE
 70
           0
 10
0.0
 20
0.0
 30
0.0
  3
*MODEL_SPACE
  1

  0
ENDBLK
  5
E
100
AcDbEntity
  8
0
100
AcDbBlockEnd
  0
BLOCK
  5
F
100
AcDbEntity
 67
           1
  8
0
100
AcDbBlockBegin
  2
*PAPER_SPACE
 70
           0
 10
0.0
 20
0.0
 30
0.0
  3
*PAPER_SPACE
  1

  0
ENDBLK
  5
10
100
AcDbEntity
 67
           1
  8
0
100
AcDbBlockEnd
  0
BLOCK
  5
35
100
AcDbEntity
  8
0
100
AcDbBlockBegin
  2
OVERHEAD
 70
           2
 10
0.0
 20
0.0
 30
0.0
  3
OVERHEAD
  1

  0
ATTDEF
  5
36
100
AcDbEntity
  8
ASHADE
  6
Continuous
 62
           1
100
AcDbText
 10
0.0
 20
-0.1
 30
0.0
 40
0.2
  1

  7
ASHADE
 72
           1
 11
0.0
 21
-0.1
 31
0.0
100
AcDbAttributeDefinition
  3
Light Name
  2
SNAME
 70
           0
  0
ATTDEF
  5
37
100
AcDbEntity
  8
ASHADE
  6
Continuous
 62
           7
100
AcDbText
 10
0.0
 20
0.28
 30
0.0
 40
0.01
  1

100
AcDbAttributeDefinition
  3

  2
GNAME
 70
           1
  0
ATTDEF
  5
38
100
AcDbEntity
  8
ASHADE
  6
Continuous
 62
           7
100
AcDbText
 10
0.0
 20
0.265
 30
0.0
 40
0.01
  1

100
AcDbAttributeDefinition
  3
Look-at X
  2
LAX
 70
           1
  0
ATTDEF
  5
39
100
AcDbEntity
  8
ASHADE
  6
Continuous
 62
           7
100
AcDbText
 10
0.0
 20
0.25
 30
0.0
 40
0.01
  1

100
AcDbAttributeDefinition
  3
Look-at Y
  2
LAY
 70
           1
  0
ATTDEF
  5
3A
100
AcDbEntity
  8
ASHADE
  6
Continuous
 62
           7
100
AcDbText
 10
0.0
 20
0.235
 30
0.0
 40
0.01
  1

100
AcDbAttributeDefinition
  3
Look-at Z
  2
LAZ
 70
           1
  0
ATTDEF
  5
3B
100
AcDbEntity
  8
ASHADE
  6
Continuous
 62
           7
100
AcDbText
 10
0.0
 20
0.22
 30
0.0
 40
0.01
  1
1
100
AcDbAttributeDefinition
  3
Light Intensity
  2
INTENSITY
 70
           1
  0
ATTDEF
  5
3C
100
AcDbEntity
  8
ASHADE
  6
Continuous
 62
           7
100
AcDbText
 10
0.0
 20
0.205
 30
0.0
 40
0.01
  1
1,1,1
100
AcDbAttributeDefinition
  3
Light Color (RGB)
  2
COLOR
 70
           1
  0
ATTDEF
  5
3D
100
AcDbEntity
  8
ASHADE
  6
Continuous
 62
           7
100
AcDbText
 10
0.0
 20
0.19
 30
0.0
 40
0.01
  1
0
100
AcDbAttributeDefinition
  3
Depth Map Size
  2
CONEA
 70
           1
  0
ATTDEF
  5
3E
100
AcDbEntity
  8
ASHADE
  6
Continuous
 62
           7
100
AcDbText
 10
0.0
 20
0.175
 30
0.0
 40
0.01
  1
-1
100
AcDbAttributeDefinition
  3
*not used*
  2
CONED
 70
           1
  0
ATTDEF
  5
3F
100
AcDbEntity
  8
ASHADE
  6
Continuous
 62
           7
100
AcDbText
 10
0.0
 20
0.16
 30
0.0
 40
0.01
  1
-1
100
AcDbAttributeDefinition
  3
*not used*
  2
BEAMD
 70
           1
  0
ARC
  5
40
100
AcDbEntity
  8
ASHADE
  6
Continuous
 62
           7
100
AcDbCircle
 10
0.0
 20
0.0
 30
0.0
 40
0.3
100
AcDbArc
 50
205.679289
 51
334.320711
  0
ARC
  5
41
100
AcDbEntity
  8
ASHADE
  6
Continuous
 62
           7
100
AcDbCircle
 10
0.0
 20
0.0
 30
0.0
 40
0.3
100
AcDbArc
 50
25.679289
 51
154.320711
  0
LINE
  5
42
100
AcDbEntity
  8
ASHADE
  6
Continuous
 62
           7
100
AcDbLine
 10
-0.27037
 20
-0.13
 30
0.0
 11
-0.315432
 21
-0.151667
 31
0.0
  0
LINE
  5
43
100
AcDbEntity
  8
ASHADE
  6
Continuous
 62
           7
100
AcDbLine
 10
-0.204141
 20
-0.219832
 30
0.0
 11
-0.272188
 21
-0.29311
 31
0.0
  0
LINE
  5
44
100
AcDbEntity
  8
ASHADE
  6
Continuous
 62
           7
100
AcDbLine
 10
-0.109659
 20
-0.27924
 30
0.0
 11
-0.127936
 21
-0.32578
 31
0.0
  0
LINE
  5
45
100
AcDbEntity
  8
ASHADE
  6
Continuous
 62
           7
100
AcDbLine
 10
0.0
 20
-0.3
 30
0.0
 11
0.0
 21
-0.4
 31
0.0
  0
LINE
  5
46
100
AcDbEntity
  8
ASHADE
  6
Continuous
 62
           7
100
AcDbLine
 10
0.109659
 20
-0.27924
 30
0.0
 11
0.127936
 21
-0.32578
 31
0.0
  0
LINE
  5
47
100
AcDbEntity
  8
ASHADE
  6
Continuous
 62
           7
100
AcDbLine
 10
0.204141
 20
-0.219832
 30
0.0
 11
0.272188
 21
-0.29311
 31
0.0
  0
LINE
  5
48
100
AcDbEntity
  8
ASHADE
  6
Continuous
 62
           7
100
AcDbLine
 10
0.27037
 20
-0.13
 30
0.0
 11
0.315432
 21
-0.151667
 31
0.0
  0
LINE
  5
49
100
AcDbEntity
  8
ASHADE
  6
Continuous
 62
           7
100
AcDbLine
 10
-0.109659
 20
0.27924
 30
0.0
 11
-0.127936
 21
0.32578
 31
0.0
  0
LINE
  5
4A
100
AcDbEntity
  8
ASHADE
  6
Continuous
 62
           7
100
AcDbLine
 10
-0.204141
 20
0.219832
 30
0.0
 11
-0.272188
 21
0.29311
 31
0.0
  0
LINE
  5
4B
100
AcDbEntity
  8
ASHADE
  6
Continuous
 62
           7
100
AcDbLine
 10
-0.27037
 20
0.13
 30
0.0
 11
-0.315432
 21
0.151667
 31
0.0
  0
LINE
  5
4C
100
AcDbEntity
  8
ASHADE
  6
Continuous
 62
           7
100
AcDbLine
 10
0.27037
 20
0.13
 30
0.0
 11
0.315432
 21
0.151667
 31
0.0
  0
LINE
  5
4D
100
AcDbEntity
  8
ASHADE
  6
Continuous
 62
           7
100
AcDbLine
 10
0.204141
 20
0.219832
 30
0.0
 11
0.272188
 21
0.29311
 31
0.0
  0
LINE
  5
4E
100
AcDbEntity
  8
ASHADE
  6
Continuous
 62
           7
100
AcDbLine
 10
0.109659
 20
0.27924
 30
0.0
 11
0.127936
 21
0.32578
 31
0.0
  0
LINE
  5
4F
100
AcDbEntity
  8
ASHADE
  6
Continuous
 62
           7
100
AcDbLine
 10
0.0
 20
0.3
 30
0.0
 11
0.0
 21
0.4
 31
0.0
  0
ENDBLK
  5
50
100
AcDbEntity
  8
0
100
AcDbBlockEnd
  0
BLOCK
  5
83
100
AcDbEntity
  8
0
100
AcDbBlockBegin
  2
DIRECT
 70
           2
 10
0.0
 20
0.0
 30
0.0
  3
DIRECT
  1

  0
ATTDEF
  5
84
100
AcDbEntity
  8
ASHADE
  6
Continuous
 62
           1
100
AcDbText
 10
0.0
 20
-0.1
 30
0.0
 40
0.2
  1

  7
ASHADE
 72
           1
 11
0.0
 21
-0.1
 31
0.0
100
AcDbAttributeDefinition
  3
Light Name
  2
SNAME
 70
           0
  0
ATTDEF
  5
85
100
AcDbEntity
  8
ASHADE
  6
Continuous
 62
           7
100
AcDbText
 10
0.0
 20
0.28
 30
0.0
 40
0.01
  1

100
AcDbAttributeDefinition
  3

  2
GNAME
 70
           1
  0
ATTDEF
  5
86
100
AcDbEntity
  8
ASHADE
  6
Continuous
 62
           7
100
AcDbText
 10
0.0
 20
0.265
 30
0.0
 40
0.01
  1

100
AcDbAttributeDefinition
  3
Look-at X
  2
LAX
 70
           1
  0
ATTDEF
  5
87
100
AcDbEntity
  8
ASHADE
  6
Continuous
 62
           7
100
AcDbText
 10
0.0
 20
0.25
 30
0.0
 40
0.01
  1

100
AcDbAttributeDefinition
  3
Look-at Y
  2
LAY
 70
           1
  0
ATTDEF
  5
88
100
AcDbEntity
  8
ASHADE
  6
Continuous
 62
           7
100
AcDbText
 10
0.0
 20
0.235
 30
0.0
 40
0.01
  1

100
AcDbAttributeDefinition
  3
Look-at Z
  2
LAZ
 70
           1
  0
ATTDEF
  5
89
100
AcDbEntity
  8
ASHADE
  6
Continuous
 62
           7
100
AcDbText
 10
0.0
 20
0.22
 30
0.0
 40
0.01
  1
1
100
AcDbAttributeDefinition
  3
Light Intensity
  2
INTENSITY
 70
           1
  0
ATTDEF
  5
8A
100
AcDbEntity
  8
ASHADE
  6
Continuous
 62
           7
100
AcDbText
 10
0.0
 20
0.205
 30
0.0
 40
0.01
  1
1,1,1
100
AcDbAttributeDefinition
  3
Light Color (RGB)
  2
COLOR
 70
           1
  0
ATTDEF
  5
8B
100
AcDbEntity
  8
ASHADE
  6
Continuous
 62
           7
100
AcDbText
 10
0.0
 20
0.19
 30
0.0
 40
0.01
  1
0
100
AcDbAttributeDefinition
  3
Depth Map Size
  2
CONEA
 70
           1
  0
ATTDEF
  5
8C
100
AcDbEntity
  8
ASHADE
  6
Continuous
 62
           7
100
AcDbText
 10
0.0
 20
0.175
 30
0.0
 40
0.01
  1
-1
100
AcDbAttributeDefinition
  3
*not used*
  2
CONED
 70
           1
  0
ATTDEF
  5
8D
100
AcDbEntity
  8
ASHADE
  6
Continuous
 62
           7
100
AcDbText
 10
0.0
 20
0.16
 30
0.0
 40
0.01
  1
-1
100
AcDbAttributeDefinition
  3
*not used*
  2
BEAMD
 70
           1
  0
ARC
  5
8E
100
AcDbEntity
  8
ASHADE
  6
Continuous
 62
           7
100
AcDbCircle
 10
0.0
 20
0.0
 30
0.0
 40
0.3
100
AcDbArc
 50
205.679289
 51
334.320711
  0
ARC
  5
8F
100
AcDbEntity
  8
ASHADE
  6
Continuous
 62
           7
100
AcDbCircle
 10
0.0
 20
0.0
 30
0.0
 40
0.3
100
AcDbArc
 50
25.679289
 51
154.320711
  0
LINE
  5
90
100
AcDbEntity
  8
ASHADE
  6
Continuous
 62
           7
100
AcDbLine
 10
0.21
 20
0.214243
 30
0.0
 11
0.21
 21
0.5
 31
0.0
  0
LINE
  5
91
100
AcDbEntity
  8
ASHADE
  6
Continuous
 62
           7
100
AcDbLine
 10
0.11
 20
0.279106
 30
0.0
 11
0.11
 21
0.5
 31
0.0
  0
LINE
  5
92
100
AcDbEntity
  8
ASHADE
  6
Continuous
 62
           7
100
AcDbLine
 10
0.0
 20
0.3
 30
0.0
 11
0.0
 21
0.5
 31
0.0
  0
LINE
  5
93
100
AcDbEntity
  8
ASHADE
  6
Continuous
 62
           7
100
AcDbLine
 10
-0.11
 20
0.279106
 30
0.0
 11
-0.11
 21
0.5
 31
0.0
  0
LINE
  5
94
100
AcDbEntity
  8
ASHADE
  6
Continuous
 62
           7
100
AcDbLine
 10
-0.21
 20
0.214243
 30
0.0
 11
-0.21
 21
0.5
 31
0.0
  0
ENDBLK
  5
95
100
AcDbEntity
  8
0
100
AcDbBlockEnd
  0
BLOCK
  5
BB
100
AcDbEntity
  8
0
100
AcDbBlockBegin
  2
SH_SPOT
 70
           2
 10
0.0
 20
0.0
 30
0.0
  3
SH_SPOT
  1

  0
ATTDEF
  5
BC
100
AcDbEntity
  8
ASHADE
  6
Continuous
 62
           1
100
AcDbText
 10
0.0
 20
-0.1
 30
0.0
 40
0.2
  1

  7
ASHADE
 72
           1
 11
0.0
 21
-0.1
 31
0.0
100
AcDbAttributeDefinition
  3
Light Name
  2
SNAME
 70
           0
  0
ATTDEF
  5
BD
100
AcDbEntity
  8
ASHADE
  6
Continuous
 62
           7
100
AcDbText
 10
0.0
 20
-0.15
 30
0.0
 40
0.01
  1

100
AcDbAttributeDefinition
  3

  2
GNAME
 70
           1
  0
ATTDEF
  5
BE
100
AcDbEntity
  8
ASHADE
  6
Continuous
 62
           7
100
AcDbText
 10
0.0
 20
-0.165
 30
0.0
 40
0.01
  1

100
AcDbAttributeDefinition
  3
Look-at X
  2
LAX
 70
           1
  0
ATTDEF
  5
BF
100
AcDbEntity
  8
ASHADE
  6
Continuous
 62
           7
100
AcDbText
 10
0.0
 20
-0.18
 30
0.0
 40
0.01
  1

100
AcDbAttributeDefinition
  3
Look-at Y
  2
LAY
 70
           1
  0
ATTDEF
  5
C0
100
AcDbEntity
  8
ASHADE
  6
Continuous
 62
           7
100
AcDbText
 10
0.0
 20
-0.195
 30
0.0
 40
0.01
  1

100
AcDbAttributeDefinition
  3
Look-at Z
  2
LAZ
 70
           1
  0
ATTDEF
  5
C1
100
AcDbEntity
  8
ASHADE
  6
Continuous
 62
           7
100
AcDbText
 10
0.0
 20
-0.21
 30
0.0
 40
0.01
  1
1
100
AcDbAttributeDefinition
  3
Light Intensity
  2
INTENSITY
 70
           1
  0
ATTDEF
  5
C2
100
AcDbEntity
  8
ASHADE
  6
Continuous
 62
           7
100
AcDbText
 10
0.0
 20
-0.225
 30
0.0
 40
0.01
  1
1,1,1
100
AcDbAttributeDefinition
  3
Light Color (RGB)
  2
COLOR
 70
           1
  0
ATTDEF
  5
C3
100
AcDbEntity
  8
ASHADE
  6
Continuous
 62
           7
100
AcDbText
 10
0.0
 20
-0.24
 30
0.0
 40
0.01
  1
0
100
AcDbAttributeDefinition
  3
Depth Map Size
  2
ZSIZE
 70
           1
  0
ATTDEF
  5
C4
100
AcDbEntity
  8
ASHADE
  6
Continuous
 62
           7
100
AcDbText
 10
0.0
 20
-0.255
 30
0.0
 40
0.01
  1
-1
100
AcDbAttributeDefinition
  3
*not used*
  2
BIASMIN
 70
           1
  0
ATTDEF
  5
C5
100
AcDbEntity
  8
ASHADE
  6
Continuous
 62
           7
100
AcDbText
 10
0.0
 20
-0.27
 30
0.0
 40
0.01
  1
-1
100
AcDbAttributeDefinition
  3
*not used*
  2
BIASMAX
 70
           1
  0
ATTDEF
  5
C6
100
AcDbEntity
  8
ASHADE
  6
Continuous
 62
           7
100
AcDbText
 10
0.0
 20
-0.285
 30
0.0
 40
0.01
  1
10.0
100
AcDbAttributeDefinition
  3
Cone Angle
  2
CONEAN
 70
           1
  0
ATTDEF
  5
C7
100
AcDbEntity
  8
ASHADE
  6
Continuous
 62
           7
100
AcDbText
 10
0.0
 20
-0.3
 30
0.0
 40
0.01
  1
0.0
100
AcDbAttributeDefinition
  3
Cone Delta
  2
CONEDE
 70
           1
  0
ATTDEF
  5
C8
100
AcDbEntity
  8
ASHADE
  6
Continuous
 62
           7
100
AcDbText
 10
0.0
 20
-0.315
 30
0.0
 40
0.01
  1
0.0
100
AcDbAttributeDefinition
  3
Beam Distribution
  2
BIAMDI
 70
           1
  0
LINE
  5
C9
100
AcDbEntity
  8
ASHADE
  6
Continuous
 62
           7
100
AcDbLine
 10
-0.25
 20
-0.13
 30
0.0
 11
-0.25
 21
-0.34
 31
0.0
  0
LINE
  5
CA
100
AcDbEntity
  8
ASHADE
  6
Continuous
 62
           7
100
AcDbLine
 10
-0.25
 20
-0.34
 30
0.0
 11
0.25
 21
-0.34
 31
0.0
  0
LINE
  5
CB
100
AcDbEntity
  8
ASHADE
  6
Continuous
 62
           7
100
AcDbLine
 10
0.25
 20
-0.34
 30
0.0
 11
0.25
 21
-0.13
 31
0.0
  0
LINE
  5
CC
100
AcDbEntity
  8
ASHADE
  6
Continuous
 62
           7
100
AcDbLine
 10
0.25
 20
0.13
 30
0.0
 11
0.25
 21
0.26
 31
0.0
  0
LINE
  5
CD
100
AcDbEntity
  8
ASHADE
  6
Continuous
 62
           7
100
AcDbLine
 10
0.25
 20
0.26
 30
0.0
 11
-0.25
 21
0.26
 31
0.0
  0
LINE
  5
CE
100
AcDbEntity
  8
ASHADE
  6
Continuous
 62
           7
100
AcDbLine
 10
-0.25
 20
0.26
 30
0.0
 11
-0.25
 21
0.13
 31
0.0
  0
LINE
  5
CF
100
AcDbEntity
  8
ASHADE
  6
Continuous
 62
           7
100
AcDbLine
 10
-0.21
 20
0.26
 30
0.0
 11
-0.301304
 21
0.46
 31
0.0
  0
LINE
  5
D0
100
AcDbEntity
  8
ASHADE
  6
Continuous
 62
           7
100
AcDbLine
 10
-0.104545
 20
0.26
 30
0.0
 11
-0.15
 21
0.46
 31
0.0
  0
LINE
  5
D1
100
AcDbEntity
  8
ASHADE
  6
Continuous
 62
           7
100
AcDbLine
 10
0.0
 20
0.26
 30
0.0
 11
0.0
 21
0.46
 31
0.0
  0
LINE
  5
D2
100
AcDbEntity
  8
ASHADE
  6
Continuous
 62
           7
100
AcDbLine
 10
0.104545
 20
0.26
 30
0.0
 11
0.15
 21
0.46
 31
0.0
  0
LINE
  5
D3
100
AcDbEntity
  8
ASHADE
  6
Continuous
 62
           7
100
AcDbLine
 10
0.21
 20
0.26
 30
0.0
 11
0.301304
 21
0.46
 31
0.0
  0
LINE
  5
D4
100
AcDbEntity
  8
ASHADE
  6
Continuous
 62
           7
100
AcDbLine
 10
-0.29
 20
-0.18
 30
0.0
 11
-0.29
 21
-0.22
 31
0.0
  0
LINE
  5
D5
100
AcDbEntity
  8
ASHADE
  6
Continuous
 62
           7
100
AcDbLine
 10
0.29
 20
-0.18
 30
0.0
 11
0.29
 21
-0.22
 31
0.0
  0
LINE
  5
D6
100
AcDbEntity
  8
ASHADE
  6
Continuous
 62
           7
100
AcDbLine
 10
0.29
 20
0.22
 30
0.0
 11
0.29
 21
0.18
 31
0.0
  0
LINE
  5
D7
100
AcDbEntity
  8
ASHADE
  6
Continuous
 62
           7
100
AcDbLine
 10
-0.29
 20
0.22
 30
0.0
 11
-0.29
 21
0.18
 31
0.0
  0
LINE
  5
D8
100
AcDbEntity
  8
ASHADE
  6
Continuous
 62
           7
100
AcDbLine
 10
-0.29
 20
-0.22
 30
0.0
 11
-0.25
 21
-0.22
 31
0.0
  0
LINE
  5
D9
100
AcDbEntity
  8
ASHADE
  6
Continuous
 62
           7
100
AcDbLine
 10
-0.25
 20
-0.18
 30
0.0
 11
-0.29
 21
-0.18
 31
0.0
  0
LINE
  5
DA
100
AcDbEntity
  8
ASHADE
  6
Continuous
 62
           7
100
AcDbLine
 10
0.29
 20
-0.22
 30
0.0
 11
0.25
 21
-0.22
 31
0.0
  0
LINE
  5
DB
100
AcDbEntity
  8
ASHADE
  6
Continuous
 62
           7
100
AcDbLine
 10
0.25
 20
-0.18
 30
0.0
 11
0.29
 21
-0.18
 31
0.0
  0
LINE
  5
DC
100
AcDbEntity
  8
ASHADE
  6
Continuous
 62
           7
100
AcDbLine
 10
0.29
 20
0.18
 30
0.0
 11
0.25
 21
0.18
 31
0.0
  0
LINE
  5
DD
100
AcDbEntity
  8
ASHADE
  6
Continuous
 62
           7
100
AcDbLine
 10
0.25
 20
0.22
 30
0.0
 11
0.29
 21
0.22
 31
0.0
  0
LINE
  5
DE
100
AcDbEntity
  8
ASHADE
  6
Continuous
 62
           7
100
AcDbLine
 10
-0.29
 20
0.18
 30
0.0
 11
-0.25
 21
0.18
 31
0.0
  0
LINE
  5
DF
100
AcDbEntity
  8
ASHADE
  6
Continuous
 62
           7
100
AcDbLine
 10
-0.25
 20
0.22
 30
0.0
 11
-0.29
 21
0.22
 31
0.0
  0
ATTDEF
  5
E0
100
AcDbEntity
  8
ASHADE
  6
Continuous
 62
           7
100
AcDbText
 10
0.0
 20
-0.33
 30
0.0
 40
0.01
  1
0,0,0
100
AcDbAttributeDefinition
  3
Look-from XYZ
  2
LFXYZ
 70
           1
  0
ENDBLK
  5
E1
100
AcDbEntity
  8
0
100
AcDbBlockEnd
  0
BLOCK
  5
16D
100
AcDbEntity
  8
0
100
AcDbBlockBegin
  2
*D3
 70
           1
 10
0.0
 20
0.0
 30
0.0
  3
*D3
  1

  0
MTEXT
  5
16E
100
AcDbEntity
  8
0
  6
Continuous
 62
           7
100
AcDbMText
 10
1.749159636103
 20
3.385759313576
 30
0.0
 40
0.15
 41
0.0
 71
           5
 72
           1
  1
\A1;O.D. 5.795"{}
 73
           1
 44
1.0
1001
TCAD
1000
TCW_REFPOINT
1002
{
1010
1.749159636103
1020
3.385759313576
1030
0.0
1002
}
1000
TCW_ATTRIBUTE
1002
{
1000
O.D. 5.795"
1002
}
  0
LWPOLYLINE
  5
16F
100
AcDbEntity
  8
0
370
           0
  6
Continuous
 62
           7
100
AcDbPolyline
 90
        3
 70
           0
 10
1.055062144244
 20
2.962746845713
 40
0.0
 41
0.0
 10
1.138930359207
 20
3.198259313576
 40
0.0
 41
0.0
 10
2.296888912999
 20
3.198259313576
 40
0.0
 41
0.0
1001
TCAD
1000
TCW_ATTRIBUTE
1002
{
1000
O.D. 5.795"
1002
}
  0
LINE
  5
170
100
AcDbEntity
  8
0
370
           0
  6
Continuous
 62
           7
100
AcDbLine
 10
-0.97119392928
 20
-2.727234377851
 30
0.0
 11
-0.97119392928
 21
-2.727234377851
 31
0.0
1001
TCAD
1000
TCW_ATTRIBUTE
1002
{
1000
O.D. 5.795"
1002
}
  0
LWPOLYLINE
  5
173
100
AcDbEntity
  8
0
370
           0
  6
Continuous
 62
           7
100
AcDbPolyline
 90
        4
 70
           0
 10
0.97119392928
 20
2.727234377851
 40
0.0
 41
0.0
 10
1.085678765066
 20
2.951843977768
 40
0.0
 41
0.0
 10
1.024445523421
 20
2.973649713659
 40
0.0
 41
0.0
 10
0.97119392928
 20
2.727234377851
 40
0.0
 41
0.0
1001
TCAD
1000
TCW_ATTRIBUTE
1002
{
1000
O.D. 5.795"
1002
}
  0
HATCH
  5
171
100
AcDbEntity
  8
0
  6
Continuous
 62
           7
100
AcDbHatch
 10
0.0
 20
0.0
 30
0.0
210
0.0
220
0.0
230
1.0
  2
SOLID
 70
           1
 71
           1
 91
        1
 92
        3
 72
           0
 73
           1
 93
        3
 10
0.9711939292798363
 20
2.7272343778505719
 10
1.0856787650657096
 20
2.9518439777680325
 10
1.0244455234213961
 20
2.9736497136585984
 97
        1
330
172
 75
           0
 76
           0
 98
        0
1001
TCAD
1000
TCW_ATTRIBUTE
1002
{
1000
O.D. 5.795"
1002
}
  0
LWPOLYLINE
  5
174
100
AcDbEntity
  8
0
370
           0
  6
Continuous
 62
           7
100
AcDbPolyline
 90
        2
 70
           0
 10
-0.125
 20
0.0
 10
0.125
 20
0.0
1001
TCAD
1000
TCW_ATTRIBUTE
1002
{
1000
O.D. 5.795"
1002
}
  0
LWPOLYLINE
  5
175
100
AcDbEntity
  8
0
370
           0
  6
Continuous
 62
           7
100
AcDbPolyline
 90
        2
 70
           0
 10
0.0
 20
-0.125
 40
0.0
 41
0.0
 10
0.0
 20
0.125
 40
0.0
 41
0.0
1001
TCAD
1000
TCW_ATTRIBUTE
1002
{
1000
O.D. 5.795"
1002
}
  0
ENDBLK
  5
176
100
AcDbEntity
  8
0
100
AcDbBlockEnd
  0
BLOCK
  5
179
100
AcDbEntity
  8
0
100
AcDbBlockBegin
  2
*D4
 70
           1
 10
0.0
 20
0.0
 30
0.0
  3
*D4
  1

  0
MTEXT
  5
17A
100
AcDbEntity
  8
0
  6
Continuous
 62
           7
100
AcDbMText
 10
1.214734386977
 20
3.906774931517
 30
0.0
 40
0.15
 41
0.0
 71
           5
 72
           1
  1
\A1;I.D. 5.295"{}
 73
           1
 44
1.0
1001
TCAD
1000
TCW_REFPOINT
1002
{
1010
1.214734386977
1020
3.906774931517
1030
0.0
1002
}
1000
TCW_ATTRIBUTE
1002
{
1000
I.D. 5.295"
1002
}
  0
LWPOLYLINE
  5
17B
100
AcDbEntity
  8
0
370
           0
  6
Continuous
 62
           7
100
AcDbPolyline
 90
        3
 70
           0
 10
0.497224320564
 20
2.85198053553
 40
0.0
 41
0.0
 10
0.648431476924
 20
3.719274931517
 40
0.0
 41
0.0
 10
1.71853729703
 20
3.719274931517
 40
0.0
 41
0.0
1001
TCAD
1000
TCW_ATTRIBUTE
1002
{
1000
I.D. 5.295"
1002
}
  0
LINE
  5
17C
100
AcDbEntity
  8
0
370
           0
  6
Continuous
 62
           7
100
AcDbLine
 10
-0.454286123624
 20
-2.60569551519
 30
0.0
 11
-0.454286123624
 21
-2.60569551519
 31
0.0
1001
TCAD
1000
TCW_ATTRIBUTE
1002
{
1000
I.D. 5.295"
1002
}
  0
LWPOLYLINE
  5
17F
100
AcDbEntity
  8
0
370
           0
  6
Continuous
 62
           7
100
AcDbPolyline
 90
        4
 70
           0
 10
0.454286123624
 20
2.60569551519
 40
0.0
 41
0.0
 10
0.529241373208
 20
2.846398569927
 40
0.0
 41
0.0
 10
0.465207267919
 20
2.857562501132
 40
0.0
 41
0.0
 10
0.454286123624
 20
2.60569551519
 40
0.0
 41
0.0
1001
TCAD
1000
TCW_ATTRIBUTE
1002
{
1000
I.D. 5.295"
1002
}
  0
HATCH
  5
17D
100
AcDbEntity
  8
0
  6
Continuous
 62
           7
100
AcDbHatch
 10
0.0
 20
0.0
 30
0.0
210
0.0
220
0.0
230
1.0
  2
SOLID
 70
           1
 71
           1
 91
        1
 92
        3
 72
           0
 73
           1
 93
        3
 10
0.45428612362368
 20
2.6056955151903223
 10
0.5292413732076519
 20
2.8463985699274912
 10
0.4652072679194209
 20
2.8575625011318535
 97
        1
330
17E
 75
           0
 76
           0
 98
        0
1001
TCAD
1000
TCW_ATTRIBUTE
1002
{
1000
I.D. 5.295"
1002
}
  0
LWPOLYLINE
  5
180
100
AcDbEntity
  8
0
370
           0
  6
Continuous
 62
           7
100
AcDbPolyline
 90
        2
 70
           0
 10
-0.125
 20
0.0
 10
0.125
 20
0.0
1001
TCAD
1000
TCW_ATTRIBUTE
1002
{
1000
I.D. 5.295"
1002
}
  0
LWPOLYLINE
  5
181
100
AcDbEntity
  8
0
370
           0
  6
Continuous
 62
           7
100
AcDbPolyline
 90
        2
 70
           0
 10
0.0
 20
-0.125
 40
0.0
 41
0.0
 10
0.0
 20
0.125
 40
0.0
 41
0.0
1001
TCAD
1000
TCW_ATTRIBUTE
1002
{
1000
I.D. 5.295"
1002
}
  0
ENDBLK
  5
182
100
AcDbEntity
  8
0
100
AcDbBlockEnd
  0
BLOCK
  5
185
100
AcDbEntity
  8
0
100
AcDbBlockBegin
  2
*D5
 70
           1
 10
0.0
 20
0.0
 30
0.0
  3
*D5
  1

  0
MTEXT
  5
186
100
AcDbEntity
  8
0
  6
Continuous
 62
           7
100
AcDbMText
 10
-2.20165154601
 20
3.717245731721
 30
0.0
 40
0.15
 41
0.0
 71
           5
 72
           1
  1
\A1;(4) 4/40 clearance holes on a\P5.060" diameter bolt circle\P4-hole pattern as shown{}
 73
           1
 44
1.0
1001
TCAD
1000
TCW_REFPOINT
1002
{
1010
-2.20165154601
1020
3.717245731721
1030
0.0
1002
}
1000
TCW_ATTRIBUTE
1002
{
1000
(4) 4/40 clearance holes on a^M^J5.060" diameter bolt circle^M^J4-hole pattern as shown
1002
}
  0
LWPOLYLINE
  5
187
100
AcDbEntity
  8
0
370
           0
  6
Continuous
 62
           7
100
AcDbPolyline
 90
        3
 70
           0
 10
-0.230989418381
 20
2.736945951825
 40
0.0
 41
0.0
 10
-0.838556307915
 20
3.280745731721
 40
0.0
 41
0.0
 10
-3.502246784106
 20
3.280745731721
 40
0.0
 41
0.0
1001
TCAD
1000
TCW_ATTRIBUTE
1002
{
1000
(4) 4/40 clearance holes on a^M^J5.060" diameter bolt circle^M^J4-hole pattern as shown
1002
}
  0
LINE
  5
188
100
AcDbEntity
  8
0
370
           0
  6
Continuous
 62
           7
100
AcDbLine
 10
0.044707629364
 20
2.490184654486
 30
0.0
 11
0.044707629364
 21
2.490184654486
 31
0.0
1001
TCAD
1000
TCW_ATTRIBUTE
1002
{
1000
(4) 4/40 clearance holes on a^M^J5.060" diameter bolt circle^M^J4-hole pattern as shown
1002
}
  0
LWPOLYLINE
  5
18B
100
AcDbEntity
  8
0
370
           0
  6
Continuous
 62
           7
100
AcDbPolyline
 90
        4
 70
           0
 10
-0.044707629364
 20
2.570215345514
 40
0.0
 41
0.0
 10
-0.209314439561
 20
2.761162584397
 40
0.0
 41
0.0
 10
-0.252664397201
 20
2.712729319253
 40
0.0
 41
0.0
 10
-0.044707629364
 20
2.570215345514
 40
0.0
 41
0.0
1001
TCAD
1000
TCW_ATTRIBUTE
1002
{
1000
(4) 4/40 clearance holes on a^M^J5.060" diameter bolt circle^M^J4-hole pattern as shown
1002
}
  0
HATCH
  5
189
100
AcDbEntity
  8
0
  6
Continuous
 62
           7
100
AcDbHatch
 10
0.0
 20
0.0
 30
0.0
210
0.0
220
0.0
230
1.0
  2
SOLID
 70
           1
 71
           1
 91
        1
 92
        3
 72
           0
 73
           1
 93
        3
 10
-0.0447076293640784
 20
2.570215345514494
 10
-0.2093144395607172
 20
2.7611625843970913
 10
-0.2526643972014183
 20
2.7127293192526745
 97
        1
330
18A
 75
           0
 76
           0
 98
        0
1001
TCAD
1000
TCW_ATTRIBUTE
1002
{
1000
(4) 4/40 clearance holes on a^M^J5.060" diameter bolt circle^M^J4-hole pattern as shown
1002
}
  0
LWPOLYLINE
  5
18C
100
AcDbEntity
  8
0
370
           0
  6
Continuous
 62
           7
100
AcDbPolyline
 90
        2
 70
           0
 10
-0.125
 20
2.5302
 10
0.125
 20
2.5302
1001
TCAD
1000
TCW_ATTRIBUTE
1002
{
1000
(4) 4/40 clearance holes on a^M^J5.060" diameter bolt circle^M^J4-hole pattern as shown
1002
}
  0
LWPOLYLINE
  5
18D
100
AcDbEntity
  8
0
370
           0
  6
Continuous
 62
           7
100
AcDbPolyline
 90
        2
 70
           0
 10
0.0
 20
2.4052
 40
0.0
 41
0.0
 10
0.0
 20
2.6552
 40
0.0
 41
0.0
1001
TCAD
1000
TCW_ATTRIBUTE
1002
{
1000
(4) 4/40 clearance holes on a^M^J5.060" diameter bolt circle^M^J4-hole pattern as shown
1002
}
  0
ENDBLK
  5
18E
100
AcDbEntity
  8
0
100
AcDbBlockEnd
  0
BLOCK
  5
191
100
AcDbEntity
  8
0
100
AcDbBlockBegin
  2
*D6
 70
           1
 10
0.0
 20
0.0
 30
0.0
  3
*D6
  1

  0
MTEXT
  5
192
100
AcDbEntity
  8
0
  6
Continuous
 62
           7
100
AcDbMText
 10
4.577970991477
 20
2.158233400518
 30
0.0
 40
0.15
 41
0.0
 71
           5
 72
           1
  1
\A1;(8) 4/40 clearance holes on a\P4.200" diameter bolt circle.\P12-hole pattern as shown{}
 73
           1
 44
1.0
1001
TCAD
1000
TCW_REFPOINT
1002
{
1010
4.577970991477
1020
2.158233400518
1030
0.0
1002
}
1000
TCW_ATTRIBUTE
1002
{
1000
(8) 4/40 clearance holes on a^M^J4.200" diameter bolt circle.^M^J12-hole pattern as shown
1002
}
  0
LWPOLYLINE
  5
193
100
AcDbEntity
  8
0
370
           0
  6
Continuous
 62
           7
100
AcDbPolyline
 90
        3
 70
           0
 10
2.071617785084
 20
1.10945921625
 40
0.0
 41
0.0
 10
3.214875753382
 20
1.721733400518
 40
0.0
 41
0.0
 10
5.878566229572
 20
1.721733400518
 40
0.0
 41
0.0
1001
TCAD
1000
TCW_ATTRIBUTE
1002
{
1000
(8) 4/40 clearance holes on a^M^J4.200" diameter bolt circle.^M^J12-hole pattern as shown
1002
}
  0
LINE
  5
194
100
AcDbEntity
  8
0
370
           0
  6
Continuous
 62
           7
100
AcDbLine
 10
-1.851232914331
 20
-0.991431640053
 30
0.0
 11
-1.851232914331
 21
-0.991431640053
 31
0.0
1001
TCAD
1000
TCW_ATTRIBUTE
1002
{
1000
(8) 4/40 clearance holes on a^M^J4.200" diameter bolt circle.^M^J12-hole pattern as shown
1002
}
  0
LWPOLYLINE
  5
197
100
AcDbEntity
  8
0
370
           0
  6
Continuous
 62
           7
100
AcDbPolyline
 90
        4
 70
           0
 10
1.851232914331
 20
0.991431640053
 40
0.0
 41
0.0
 10
2.08696136999
 20
1.080809183052
 40
0.0
 41
0.0
 10
2.056274200179
 20
1.138109249448
 40
0.0
 41
0.0
 10
1.851232914331
 20
0.991431640053
 40
0.0
 41
0.0
1001
TCAD
1000
TCW_ATTRIBUTE
1002
{
1000
(8) 4/40 clearance holes on a^M^J4.200" diameter bolt circle.^M^J12-hole pattern as shown
1002
}
  0
HATCH
  5
195
100
AcDbEntity
  8
0
  6
Continuous
 62
           7
100
AcDbHatch
 10
0.0
 20
0.0
 30
0.0
210
0.0
220
0.0
230
1.0
  2
SOLID
 70
           1
 71
           1
 91
        1
 92
        3
 72
           0
 73
           1
 93
        3
 10
1.8512329143307125
 20
0.9914316400532151
 10
2.0869613699899543
 20
1.0808091830520512
 10
2.0562742001787835
 20
1.1381092494480018
 97
        1
330
196
 75
           0
 76
           0
 98
        0
1001
TCAD
1000
TCW_ATTRIBUTE
1002
{
1000
(8) 4/40 clearance holes on a^M^J4.200" diameter bolt circle.^M^J12-hole pattern as shown
1002
}
  0
LWPOLYLINE
  5
198
100
AcDbEntity
  8
0
370
           0
  6
Continuous
 62
           7
100
AcDbPolyline
 90
        2
 70
           0
 10
-0.125
 20
0.0
 10
0.125
 20
0.0
1001
TCAD
1000
TCW_ATTRIBUTE
1002
{
1000
(8) 4/40 clearance holes on a^M^J4.200" diameter bolt circle.^M^J12-hole pattern as shown
1002
}
  0
LWPOLYLINE
  5
199
100
AcDbEntity
  8
0
370
           0
  6
Continuous
 62
           7
100
AcDbPolyline
 90
        2
 70
           0
 10
0.0
 20
-0.125
 40
0.0
 41
0.0
 10
0.0
 20
0.125
 40
0.0
 41
0.0
1001
TCAD
1000
TCW_ATTRIBUTE
1002
{
1000
(8) 4/40 clearance holes on a^M^J4.200" diameter bolt circle.^M^J12-hole pattern as shown
1002
}
  0
ENDBLK
  5
19A
100
AcDbEntity
  8
0
100
AcDbBlockEnd
  0
BLOCK
  5
19D
100
AcDbEntity
  8
0
100
AcDbBlockBegin
  2
*D7
 70
           1
 10
0.0
 20
0.0
 30
0.0
  3
*D7
  1

  0
MTEXT
  5
19E
100
AcDbEntity
  8
0
  6
Continuous
 62
           7
100
AcDbMText
 10
4.615306717906
 20
-1.071019042628
 30
0.0
 40
0.15
 41
0.0
 71
           5
 72
           1
  1
\A1;(8) 4/40 clearance holes on a \P1.600" diameter bolt  circle.\P12-hole pattern as shown\P{}
 73
           1
 44
1.0
1001
TCAD
1000
TCW_REFPOINT
1002
{
1010
4.615306717906
1020
-1.071019042628
1030
0.0
1002
}
1000
TCW_ATTRIBUTE
1002
{
1000
(8) 4/40 clearance holes on a ^M^J1.600" diameter bolt  circle.^M^J12-hole pattern as shown^M^J
1002
}
  0
LWPOLYLINE
  5
19F
100
AcDbEntity
  8
0
370
           0
  6
Continuous
 62
           7
100
AcDbPolyline
 90
        3
 70
           0
 10
0.951154086914
 20
-0.444753755406
 40
0.0
 41
0.0
 10
3.223992784926
 20
-1.507519042628
 40
0.0
 41
0.0
 10
5.944120650887
 20
-1.507519042628
 40
0.0
 41
0.0
1001
TCAD
1000
TCW_ATTRIBUTE
1002
{
1000
(8) 4/40 clearance holes on a ^M^J1.600" diameter bolt  circle.^M^J12-hole pattern as shown^M^J
1002
}
  0
LINE
  5
1A0
100
AcDbEntity
  8
0
370
           0
  6
Continuous
 62
           7
100
AcDbLine
 10
-0.724688828125
 20
0.338860004119
 30
0.0
 11
-0.724688828125
 21
0.338860004119
 31
0.0
1001
TCAD
1000
TCW_ATTRIBUTE
1002
{
1000
(8) 4/40 clearance holes on a ^M^J1.600" diameter bolt  circle.^M^J12-hole pattern as shown^M^J
1002
}
  0
LWPOLYLINE
  5
1A3
100
AcDbEntity
  8
0
370
           0
  6
Continuous
 62
           7
100
AcDbPolyline
 90
        4
 70
           0
 10
0.724688828125
 20
-0.338860004119
 40
0.0
 41
0.0
 10
0.937387899246
 20
-0.474194239048
 40
0.0
 41
0.0
 10
0.964920274581
 20
-0.415313271763
 40
0.0
 41
0.0
 10
0.724688828125
 20
-0.338860004119
 40
0.0
 41
0.0
1001
TCAD
1000
TCW_ATTRIBUTE
1002
{
1000
(8) 4/40 clearance holes on a ^M^J1.600" diameter bolt  circle.^M^J12-hole pattern as shown^M^J
1002
}
  0
HATCH
  5
1A1
100
AcDbEntity
  8
0
  6
Continuous
 62
           7
100
AcDbHatch
 10
0.0
 20
0.0
 30
0.0
210
0.0
220
0.0
230
1.0
  2
SOLID
 70
           1
 71
           1
 91
        1
 92
        3
 72
           0
 73
           1
 93
        3
 10
0.7246888281247236
 20
-0.3388600041185363
 10
0.9373878992463844
 20
-0.4741942390481455
 10
0.9649202745810155
 20
-0.4153132717630116
 97
        1
330
1A2
 75
           0
 76
           0
 98
        0
1001
TCAD
1000
TCW_ATTRIBUTE
1002
{
1000
(8) 4/40 clearance holes on a ^M^J1.600" diameter bolt  circle.^M^J12-hole pattern as shown^M^J
1002
}
  0
LWPOLYLINE
  5
1A4
100
AcDbEntity
  8
0
370
           0
  6
Continuous
 62
           7
100
AcDbPolyline
 90
        2
 70
           0
 10
-0.125
 20
-0.0
 10
0.125
 20
-0.0
1001
TCAD
1000
TCW_ATTRIBUTE
1002
{
1000
(8) 4/40 clearance holes on a ^M^J1.600" diameter bolt  circle.^M^J12-hole pattern as shown^M^J
1002
}
  0
LWPOLYLINE
  5
1A5
100
AcDbEntity
  8
0
370
           0
  6
Continuous
 62
           7
100
AcDbPolyline
 90
        2
 70
           0
 10
0.0
 20
-0.125
 40
0.0
 41
0.0
 10
0.0
 20
0.125
 40
0.0
 41
0.0
1001
TCAD
1000
TCW_ATTRIBUTE
1002
{
1000
(8) 4/40 clearance holes on a ^M^J1.600" diameter bolt  circle.^M^J12-hole pattern as shown^M^J
1002
}
  0
ENDBLK
  5
1A6
100
AcDbEntity
  8
0
100
AcDbBlockEnd
  0
BLOCK
  5
1A9
100
AcDbEntity
  8
0
100
AcDbBlockBegin
  2
*D8
 70
           1
 10
0.0
 20
0.0
 30
0.0
  3
*D8
  1

  0
MTEXT
  5
1AA
100
AcDbEntity
  8
0
  6
Continuous
 62
           7
100
AcDbMText
 10
4.126099627482
 20
0.98983333048
 30
0.0
 40
0.15
 41
0.0
 71
           5
 72
           1
  1
\A1;0.197" diameter\Pthrough hole{}
 73
           1
 44
1.0
1001
TCAD
1000
TCW_REFPOINT
1002
{
1010
4.126099627482
1020
0.98983333048
1030
0.0
1002
}
1000
TCW_ATTRIBUTE
1002
{
1000
0.197" diameter^M^Jthrough hole
1002
}
  0
LWPOLYLINE
  5
1AB
100
AcDbEntity
  8
0
370
           0
  6
Continuous
 62
           7
100
AcDbPolyline
 90
        3
 70
           0
 10
0.341487732946
 20
0.069307508594
 40
0.0
 41
0.0
 10
3.339779080745
 20
0.67783333048
 40
0.0
 41
0.0
 10
4.849920174219
 20
0.67783333048
 40
0.0
 41
0.0
1001
TCAD
1000
TCW_ATTRIBUTE
1002
{
1000
0.197" diameter^M^Jthrough hole
1002
}
  0
LINE
  5
1AC
100
AcDbEntity
  8
0
370
           0
  6
Continuous
 62
           7
100
AcDbLine
 10
-0.096482902306
 20
-0.019581932045
 30
0.0
 11
-0.096482902306
 21
-0.019581932045
 31
0.0
1001
TCAD
1000
TCW_ATTRIBUTE
1002
{
1000
0.197" diameter^M^Jthrough hole
1002
}
  0
LWPOLYLINE
  5
1AF
100
AcDbEntity
  8
0
370
           0
  6
Continuous
 62
           7
100
AcDbPolyline
 90
        4
 70
           0
 10
0.096482902306
 20
0.019581932045
 40
0.0
 41
0.0
 10
0.347952057897
 20
0.037456880611
 40
0.0
 41
0.0
 10
0.335023407994
 20
0.101158136577
 40
0.0
 41
0.0
 10
0.096482902306
 20
0.019581932045
 40
0.0
 41
0.0
1001
TCAD
1000
TCW_ATTRIBUTE
1002
{
1000
0.197" diameter^M^Jthrough hole
1002
}
  0
HATCH
  5
1AD
100
AcDbEntity
  8
0
  6
Continuous
 62
           7
100
AcDbHatch
 10
0.0
 20
0.0
 30
0.0
210
0.0
220
0.0
230
1.0
  2
SOLID
 70
           1
 71
           1
 91
        1
 92
        3
 72
           0
 73
           1
 93
        3
 10
0.0964829023059775
 20
0.0195819320450054
 10
0.3479520578972121
 20
0.0374568806108468
 10
0.335023407994466
 20
0.1011581365772108
 97
        1
330
1AE
 75
           0
 76
           0
 98
        0
1001
TCAD
1000
TCW_ATTRIBUTE
1002
{
1000
0.197" diameter^M^Jthrough hole
1002
}
  0
LWPOLYLINE
  5
1B0
100
AcDbEntity
  8
0
370
           0
  6
Continuous
 62
           7
100
AcDbPolyline
 90
        2
 70
           0
 10
-0.125
 20
0.0
 10
0.125
 20
0.0
1001
TCAD
1000
TCW_ATTRIBUTE
1002
{
1000
0.197" diameter^M^Jthrough hole
1002
}
  0
LWPOLYLINE
  5
1B1
100
AcDbEntity
  8
0
370
           0
  6
Continuous
 62
           7
100
AcDbPolyline
 90
        2
 70
           0
 10
0.0
 20
-0.125
 40
0.0
 41
0.0
 10
0.0
 20
0.125
 40
0.0
 41
0.0
1001
TCAD
1000
TCW_ATTRIBUTE
1002
{
1000
0.197" diameter^M^Jthrough hole
1002
}
  0
ENDBLK
  5
1B2
100
AcDbEntity
  8
0
100
AcDbBlockEnd
  0
BLOCK
  5
1B5
100
AcDbEntity
  8
0
100
AcDbBlockBegin
  2
*D9
 70
           1
 10
0.0
 20
0.0
 30
0.0
  3
*D9
  1

  0
LINE
  5
1B6
100
AcDbEntity
  8
0
370
           0
  6
Continuous
 62
           7
100
AcDbLine
 10
7.75
 20
-2.7075
 30
0.0
 11
7.75
 21
-3.49330510535
 31
0.0
1001
TCAD
1000
TCW_ATTRIBUTE
1002
{
1000
<0.250>
1002
}
  0
LINE
  5
1B7
100
AcDbEntity
  8
0
370
           0
  6
Continuous
 62
           7
100
AcDbLine
 10
8.0
 20
-2.7075
 30
0.0
 11
8.0
 21
-3.49330510535
 31
0.0
1001
TCAD
1000
TCW_ATTRIBUTE
1002
{
1000
<0.250>
1002
}
  0
LWPOLYLINE
  5
1B8
100
AcDbEntity
  8
0
370
           0
  6
Continuous
 62
           7
100
AcDbPolyline
 90
        3
 70
           0
 10
6.337411816578
 20
-3.36830510535
 10
7.25
 20
-3.36830510535
 10
7.5
 20
-3.36830510535
1001
TCAD
1000
TCW_ATTRIBUTE
1002
{
1000
<0.250>
1002
}
  0
LWPOLYLINE
  5
1B9
100
AcDbEntity
  8
0
370
           0
  6
Continuous
 62
           7
100
AcDbPolyline
 90
        2
 70
           0
 10
8.5
 20
-3.36830510535
 10
8.25
 20
-3.36830510535
1001
TCAD
1000
TCW_ATTRIBUTE
1002
{
1000
<0.250>
1002
}
  0
LWPOLYLINE
  5
1BA
100
AcDbEntity
  8
0
370
           0
  6
Continuous
 62
           7
100
AcDbPolyline
 90
        2
 70
           0
 10
8.0
 20
-3.36830510535
 40
0.0
 41
0.0
 10
7.75
 20
-3.36830510535
 40
0.0
 41
0.0
1001
TCAD
1000
TCW_ATTRIBUTE
1002
{
1000
<0.250>
1002
}
  0
LWPOLYLINE
  5
1BD
100
AcDbEntity
  8
0
370
           0
  6
Continuous
 62
           7
100
AcDbPolyline
 90
        4
 70
           0
 10
8.0
 20
-3.36830510535
 40
0.0
 41
0.0
 10
8.25
 20
-3.40080510535
 40
0.0
 41
0.0
 10
8.25
 20
-3.33580510535
 40
0.0
 41
0.0
 10
8.0
 20
-3.36830510535
 40
0.0
 41
0.0
1001
TCAD
1000
TCW_ATTRIBUTE
1002
{
1000
<0.250>
1002
}
  0
HATCH
  5
1BB
100
AcDbEntity
  8
0
  6
Continuous
 62
           7
100
AcDbHatch
 10
0.0
 20
0.0
 30
0.0
210
0.0
220
0.0
230
1.0
  2
SOLID
 70
           1
 71
           1
 91
        1
 92
        3
 72
           0
 73
           1
 93
        3
 10
7.9999999999999973
 20
-3.3683051053502098
 10
8.2499999999999964
 20
-3.4008051053502104
 10
8.2499999999999964
 20
-3.33580510535021
 97
        1
330
1BC
 75
           0
 76
           0
 98
        0
1001
TCAD
1000
TCW_ATTRIBUTE
1002
{
1000
<0.250>
1002
}
  0
LWPOLYLINE
  5
1C0
100
AcDbEntity
  8
0
370
           0
  6
Continuous
 62
           7
100
AcDbPolyline
 90
        4
 70
           0
 10
7.75
 20
-3.36830510535
 40
0.0
 41
0.0
 10
7.5
 20
-3.33580510535
 40
0.0
 41
0.0
 10
7.5
 20
-3.40080510535
 40
0.0
 41
0.0
 10
7.75
 20
-3.36830510535
 40
0.0
 41
0.0
1001
TCAD
1000
TCW_ATTRIBUTE
1002
{
1000
<0.250>
1002
}
  0
HATCH
  5
1BE
100
AcDbEntity
  8
0
  6
Continuous
 62
           7
100
AcDbHatch
 10
0.0
 20
0.0
 30
0.0
210
0.0
220
0.0
230
1.0
  2
SOLID
 70
           1
 71
           1
 91
        1
 92
        3
 72
           0
 73
           1
 93
        3
 10
7.7499999999999991
 20
-3.3683051053502093
 10
7.4999999999999991
 20
-3.3358051053502087
 10
7.4999999999999991
 20
-3.4008051053502091
 97
        1
330
1BF
 75
           0
 76
           0
 98
        0
1001
TCAD
1000
TCW_ATTRIBUTE
1002
{
1000
<0.250>
1002
}
  0
MTEXT
  5
1C1
100
AcDbEntity
  8
0
  6
Continuous
 62
           7
100
AcDbMText
 10
6.637455908289
 20
-3.18080510535
 30
0.0
 40
0.15
 41
0.0
 71
           5
 72
           1
  1
\A1;0.250{}"
 73
           1
 44
1.0
1001
TCAD
1000
TCW_REFPOINT
1002
{
1010
6.637455908289
1020
-3.18080510535
1030
0.0
1002
}
1000
TCW_ATTRIBUTE
1002
{
1000
<0.250>
1002
}
  0
ENDBLK
  5
1C2
100
AcDbEntity
  8
0
100
AcDbBlockEnd
  0
BLOCK
  5
1C5
100
AcDbEntity
  8
0
100
AcDbBlockBegin
  2
*D10
 70
           1
 10
0.0
 20
0.0
 30
0.0
  3
*D10
  1

  0
LINE
  5
1C6
100
AcDbEntity
  8
0
370
           0
  6
Continuous
 62
           7
100
AcDbLine
 10
6.5689
 20
2.9575
 30
0.0
 11
6.5689
 21
3.435831934749
 31
0.0
1001
TCAD
1000
TCW_ATTRIBUTE
1002
{
1000
<1.431>
1002
}
  0
LINE
  5
1C7
100
AcDbEntity
  8
0
370
           0
  6
Continuous
 62
           7
100
AcDbLine
 10
8.0
 20
2.9575
 30
0.0
 11
8.0
 21
3.435831934749
 31
0.0
1001
TCAD
1000
TCW_ATTRIBUTE
1002
{
1000
<1.431>
1002
}
  0
LWPOLYLINE
  5
1C8
100
AcDbEntity
  8
0
370
           0
  6
Continuous
 62
           7
100
AcDbPolyline
 90
        4
 70
           0
 10
6.8189
 20
3.310831934749
 10
6.8189
 20
3.310831934749
 10
6.8189
 20
3.310831934749
 10
7.28445
 20
3.310831934749
1001
TCAD
1000
TCW_ATTRIBUTE
1002
{
1000
<1.431>
1002
}
  0
LWPOLYLINE
  5
1C9
100
AcDbEntity
  8
0
370
           0
  6
Continuous
 62
           7
100
AcDbPolyline
 90
        4
 70
           0
 10
7.75
 20
3.310831934749
 10
7.75
 20
3.310831934749
 10
7.75
 20
3.310831934749
 10
7.28445
 20
3.310831934749
1001
TCAD
1000
TCW_ATTRIBUTE
1002
{
1000
<1.431>
1002
}
  0
LWPOLYLINE
  5
1CC
100
AcDbEntity
  8
0
370
           0
  6
Continuous
 62
           7
100
AcDbPolyline
 90
        4
 70
           0
 10
6.5689
 20
3.310831934749
 40
0.0
 41
0.0
 10
6.8189
 20
3.278331934749
 40
0.0
 41
0.0
 10
6.8189
 20
3.343331934749
 40
0.0
 41
0.0
 10
6.5689
 20
3.310831934749
 40
0.0
 41
0.0
1001
TCAD
1000
TCW_ATTRIBUTE
1002
{
1000
<1.431>
1002
}
  0
HATCH
  5
1CA
100
AcDbEntity
  8
0
  6
Continuous
 62
           7
100
AcDbHatch
 10
0.0
 20
0.0
 30
0.0
210
0.0
220
0.0
230
1.0
  2
SOLID
 70
           1
 71
           1
 91
        1
 92
        3
 72
           0
 73
           1
 93
        3
 10
6.5688999999999993
 20
3.3108319347488737
 10
6.8188999999999993
 20
3.2783319347488735
 10
6.8188999999999993
 20
3.3433319347488739
 97
        1
330
1CB
 75
           0
 76
           0
 98
        0
1001
TCAD
1000
TCW_ATTRIBUTE
1002
{
1000
<1.431>
1002
}
  0
LWPOLYLINE
  5
1CF
100
AcDbEntity
  8
0
370
           0
  6
Continuous
 62
           7
100
AcDbPolyline
 90
        4
 70
           0
 10
8.0
 20
3.310831934749
 40
0.0
 41
0.0
 10
7.75
 20
3.343331934749
 40
0.0
 41
0.0
 10
7.75
 20
3.278331934749
 40
0.0
 41
0.0
 10
8.0
 20
3.310831934749
 40
0.0
 41
0.0
1001
TCAD
1000
TCW_ATTRIBUTE
1002
{
1000
<1.431>
1002
}
  0
HATCH
  5
1CD
100
AcDbEntity
  8
0
  6
Continuous
 62
           7
100
AcDbHatch
 10
0.0
 20
0.0
 30
0.0
210
0.0
220
0.0
230
1.0
  2
SOLID
 70
           1
 71
           1
 91
        1
 92
        3
 72
           0
 73
           1
 93
        3
 10
7.9999999999999991
 20
3.3108319347488742
 10
7.7499999999999991
 20
3.3433319347488744
 10
7.7499999999999991
 20
3.278331934748874
 97
        1
330
1CE
 75
           0
 76
           0
 98
        0
1001
TCAD
1000
TCW_ATTRIBUTE
1002
{
1000
<1.431>
1002
}
  0
MTEXT
  5
1D0
100
AcDbEntity
  8
0
  6
Continuous
 62
           7
100
AcDbMText
 10
7.28445
 20
3.498331934749
 30
0.0
 40
0.15
 41
0.0
 71
           5
 72
           1
  1
\A1;1.431{}"
 73
           1
 44
1.0
1001
TCAD
1000
TCW_REFPOINT
1002
{
1010
7.28445
1020
3.498331934749
1030
0.0
1002
}
1000
TCW_ATTRIBUTE
1002
{
1000
<1.431>
1002
}
  0
ENDBLK
  5
1D1
100
AcDbEntity
  8
0
100
AcDbBlockEnd
  0
BLOCK
  5
1DF
100
AcDbEntity
  8
0
100
AcDbBlockBegin
  2
*D11
 70
           1
 10
0.0
 20
0.0
 30
0.0
  3
*D11
  1

  0
LINE
  5
1E0
100
AcDbEntity
  8
0
370
           0
  6
Continuous
 62
           7
100
AcDbLine
 10
-3.031715623558
 20
1.750558990071
 30
0.0
 11
-2.862081151247
 21
1.653237412792
 31
0.0
1001
TCAD
1000
TCW_ATTRIBUTE
1002
{
1000
<30°>
1002
}
  0
LINE
  5
1E1
100
AcDbEntity
  8
0
370
           0
  6
Continuous
 62
           7
100
AcDbLine
 10
-2.955187348741
 20
0.002753259482
 30
0.0
 11
-3.551911573846
 21
0.002753259482
 31
0.0
1001
TCAD
1000
TCW_ATTRIBUTE
1002
{
1000
<30°>
1002
}
  0
ARC
  5
1E2
100
AcDbEntity
  8
0
370
           0
  6
Continuous
 62
           7
100
AcDbCircle
 10
0.014762979643
 20
0.002753259482
 30
0.0
 40
3.441674553489
100
AcDbArc
 50
167.221658630172
 51
175.837172961798
1001
TCAD
1000
TCW_ATTRIBUTE
1002
{
1000
<30°>
1002
}
  0
ARC
  5
1E3
100
AcDbEntity
  8
0
370
           0
  6
Continuous
 62
           7
100
AcDbCircle
 10
0.014762979643
 20
0.002753259482
 30
0.0
 40
3.441674553489
100
AcDbArc
 50
154.319354210792
 51
162.913271840572
1001
TCAD
1000
TCW_ATTRIBUTE
1002
{
1000
<30°>
1002
}
  0
LWPOLYLINE
  5
1E6
100
AcDbEntity
  8
0
370
           0
  6
Continuous
 62
           7
100
AcDbPolyline
 90
        4
 70
           0
 10
-2.9705046672
 20
1.715441441507
 40
0.0
 41
0.0
 10
-3.115713774144
 20
1.509357562321
 40
0.0
 41
0.0
 10
-3.058195948986
 20
1.479080511786
 40
0.0
 41
0.0
 10
-2.9705046672
 20
1.715441441507
 40
0.0
 41
0.0
1001
TCAD
1000
TCW_ATTRIBUTE
1002
{
1000
<30°>
1002
}
  0
HATCH
  5
1E4
100
AcDbEntity
  8
0
  6
Continuous
 62
           7
100
AcDbHatch
 10
0.0
 20
0.0
 30
0.0
210
0.0
220
0.0
230
1.0
  2
SOLID
 70
           1
 71
           1
 91
        1
 92
        3
 72
           0
 73
           1
 93
        3
 10
-2.9705046671998425
 20
1.7154414415069101
 10
-3.1157137741440537
 20
1.5093575623206315
 10
-3.0581959489860764
 20
1.4790805117856736
 97
        1
330
1E5
 75
           0
 76
           0
 98
        0
1001
TCAD
1000
TCW_ATTRIBUTE
1002
{
1000
<30°>
1002
}
  0
LWPOLYLINE
  5
1E9
100
AcDbEntity
  8
0
370
           0
  6
Continuous
 62
           7
100
AcDbPolyline
 90
        4
 70
           0
 10
-3.426911573846
 20
0.002753259482
 40
0.0
 41
0.0
 10
-3.385353134088
 20
0.251407931839
 40
0.0
 41
0.0
 10
-3.450310248923
 20
0.253768701248
 40
0.0
 41
0.0
 10
-3.426911573846
 20
0.002753259482
 40
0.0
 41
0.0
1001
TCAD
1000
TCW_ATTRIBUTE
1002
{
1000
<30°>
1002
}
  0
HATCH
  5
1E7
100
AcDbEntity
  8
0
  6
Continuous
 62
           7
100
AcDbHatch
 10
0.0
 20
0.0
 30
0.0
210
0.0
220
0.0
230
1.0
  2
SOLID
 70
           1
 71
           1
 91
        1
 92
        3
 72
           0
 73
           1
 93
        3
 10
-3.4269115738459806
 20
0.0027532594823667
 10
-3.3853531340875391
 20
0.2514079318391194
 10
-3.4503102489234041
 20
0.2537687012476517
 97
        1
330
1E8
 75
           0
 76
           0
 98
        0
1001
TCAD
1000
TCW_ATTRIBUTE
1002
{
1000
<30°>
1002
}
  0
MTEXT
  5
1EA
100
AcDbEntity
  8
0
  6
Continuous
 62
           7
100
AcDbMText
 10
-3.310853010488
 20
0.88898235984
 30
0.0
 40
0.15
 41
0.0
 71
           5
 72
           1
  1
\A1;30%%d{}
 73
           1
 44
1.0
1001
TCAD
1000
TCW_REFPOINT
1002
{
1010
-3.310853010488
1020
0.88898235984
1030
0.0
1002
}
1000
TCW_ATTRIBUTE
1002
{
1000
<30°>
1002
}
  0
ENDBLK
  5
1EB
100
AcDbEntity
  8
0
100
AcDbBlockEnd
  0
BLOCK
  5
1EE
100
AcDbEntity
  8
0
100
AcDbBlockBegin
  2
*D12
 70
           1
 10
0.0
 20
0.0
 30
0.0
  3
*D12
  1

  0
LINE
  5
1EF
100
AcDbEntity
  8
0
370
           0
  6
Continuous
 62
           7
100
AcDbLine
 10
-2.955187348741
 20
0.002753259482
 30
0.0
 11
-3.561196367911
 21
0.002753259482
 31
0.0
1001
TCAD
1000
TCW_ATTRIBUTE
1002
{
1000
<30°>
1002
}
  0
LINE
  5
1F0
100
AcDbEntity
  8
0
370
           0
  6
Continuous
 62
           7
100
AcDbLine
 10
-2.56053935183
 20
-1.48117523737
 30
0.0
 11
-3.082009799067
 21
-1.782792290476
 31
0.0
1001
TCAD
1000
TCW_ATTRIBUTE
1002
{
1000
<30°>
1002
}
  0
ARC
  5
1F1
100
AcDbEntity
  8
0
370
           0
  6
Continuous
 62
           7
100
AcDbCircle
 10
0.005047868631
 20
0.002753259482
 30
0.0
 40
3.441244236542
100
AcDbArc
 50
-162.811149573681
 51
-154.118379134649
1001
TCAD
1000
TCW_ATTRIBUTE
1002
{
1000
<30°>
1002
}
  0
ARC
  5
1F2
100
AcDbEntity
  8
0
370
           0
  6
Continuous
 62
           7
100
AcDbCircle
 10
0.005047868631
 20
0.002753259482
 30
0.0
 40
3.441244236542
100
AcDbArc
 50
-175.836652184004
 51
-167.122106368524
1001
TCAD
1000
TCW_ATTRIBUTE
1002
{
1000
<30°>
1002
}
  0
LWPOLYLINE
  5
1F5
100
AcDbEntity
  8
0
370
           0
  6
Continuous
 62
           7
100
AcDbPolyline
 90
        4
 70
           0
 10
-3.436196367911
 20
0.002753259482
 40
0.0
 41
0.0
 10
-3.459593902212
 20
-0.248262288619
 40
0.0
 41
0.0
 10
-3.394636798106
 20
-0.245901224004
 40
0.0
 41
0.0
 10
-3.436196367911
 20
0.002753259482
 40
0.0
 41
0.0
1001
TCAD
1000
TCW_ATTRIBUTE
1002
{
1000
<30°>
1002
}
  0
HATCH
  5
1F3
100
AcDbEntity
  8
0
  6
Continuous
 62
           7
100
AcDbHatch
 10
0.0
 20
0.0
 30
0.0
210
0.0
220
0.0
230
1.0
  2
SOLID
 70
           1
 71
           1
 91
        1
 92
        3
 72
           0
 73
           1
 93
        3
 10
-3.4361963679109957
 20
0.0027532594823666
 10
-3.459593902212458
 20
-0.2482622886189649
 10
-3.3946367981061196
 20
-0.2459012240035212
 97
        1
330
1F4
 75
           0
 76
           0
 98
        0
1001
TCAD
1000
TCW_ATTRIBUTE
1002
{
1000
<30°>
1002
}
  0
LWPOLYLINE
  5
1F8
100
AcDbEntity
  8
0
370
           0
  6
Continuous
 62
           7
100
AcDbPolyline
 90
        4
 70
           0
 10
-2.973805710153
 20
-1.720207347062
 40
0.0
 41
0.0
 10
-3.06232660129
 20
-1.484155865744
 40
0.0
 41
0.0
 10
-3.1197377322
 20
-1.514634744458
 40
0.0
 41
0.0
 10
-2.973805710153
 20
-1.720207347062
 40
0.0
 41
0.0
1001
TCAD
1000
TCW_ATTRIBUTE
1002
{
1000
<30°>
1002
}
  0
HATCH
  5
1F6
100
AcDbEntity
  8
0
  6
Continuous
 62
           7
100
AcDbHatch
 10
0.0
 20
0.0
 30
0.0
210
0.0
220
0.0
230
1.0
  2
SOLID
 70
           1
 71
           1
 91
        1
 92
        3
 72
           0
 73
           1
 93
        3
 10
-2.9738057101525062
 20
-1.7202073470616861
 10
-3.0623266012900761
 20
-1.4841558657441343
 10
-3.1197377321998152
 20
-1.5146347444581687
 97
        1
330
1F7
 75
           0
 76
           0
 98
        0
1001
TCAD
1000
TCW_ATTRIBUTE
1002
{
1000
<30°>
1002
}
  0
MTEXT
  5
1F9
100
AcDbEntity
  8
0
  6
Continuous
 62
           7
100
AcDbMText
 10
-3.318589040316
 20
-0.88921063722
 30
0.0
 40
0.15
 41
0.0
 71
           5
 72
           1
  1
\A1;30%%d{}
 73
           1
 44
1.0
1001
TCAD
1000
TCW_REFPOINT
1002
{
1010
-3.318589040316
1020
-0.88921063722
1030
0.0
1002
}
1000
TCW_ATTRIBUTE
1002
{
1000
<30°>
1002
}
  0
ENDBLK
  5
1FA
100
AcDbEntity
  8
0
100
AcDbBlockEnd
  0
ENDSEC
  0
SECTION
  2
ENTITIES
  0
VIEWPORT
  5
202
100
AcDbEntity
 67
           1
  8
0
100
AcDbViewport
 10
5.49999982865
 20
4.2500002235
 30
0.0
 40
12.4151968421
 41
9.4723353684
 68
           1
 69
           1
 12
5.49999982865
 22
4.2500002235
 13
0.0
 23
0.0
 14
0.5
 24
0.5
 15
0.5
 25
0.5
 16
0.0
 26
0.0
 36
1.0
 17
0.0
 27
0.0
 37
0.0
 42
50.0
 43
0.0
 44
0.0
 45
9.4723353684
 50
0.0
 51
0.0
 72
         100
 90
    32800
340
0
  1

281
           0
 71
           0
 74
           1
110
0.0
120
0.0
130
0.0
111
1.0
121
0.0
131
0.0
112
0.0
122
1.0
132
0.0
345
0
346
0
 79
           0
146
0.0
  0
VIEWPORT
  5
203
100
AcDbEntity
 67
           1
  8
0
  6
Continuous
100
AcDbViewport
 10
5.5
 20
4.25
 30
0.0
 40
11.0
 41
8.5
 68
           2
 69
           2
 12
0.0
 22
0.0
 13
0.0
 23
0.0
 14
0.5
 24
0.5
 15
0.5
 25
0.5
 16
0.0
 26
0.0
 36
1.0
 17
5.500000033528
 27
4.250000104308
 37
-1.0
 42
97.532499545905
 43
0.0
 44
0.0
 45
8.5
 50
0.0
 51
0.0
 72
         100
341
30
 90
    32800
340
0
  1

281
           0
 71
           0
 74
           1
110
0.0
120
0.0
130
0.0
111
1.0
121
0.0
131
0.0
112
0.0
122
1.0
132
0.0
345
0
346
0
 79
           0
146
0.0
  0
INSERT
  5
52
100
AcDbEntity
  8
0
 60
           1
100
AcDbBlockReference
 66
           1
  2
OVERHEAD
 10
-11.0
 20
-8.5
 30
0.0
1001
AVE_RENDER
1002
{
1070
           0
1000
LIGHT_0
1011
-10.0
1021
-8.5
1031
0.0
1041
100.0
1010
0.109803921569
1020
0.109803921569
1030
0.109803921569
1002
{
1070
           0
1070
           0
1040
0.0
1040
0.0
1040
3.0
1002
}
1002
{
1070
           9
1070
          21
1070
          15
1070
           0
1040
37.62
1040
122.37
1002
}
1002
}
1001
TCAD
1000
TCW_LIGTH
1002
{
1070
           0
1002
}
  0
ATTRIB
  5
53
100
AcDbEntity
  8
ASHADE
  6
Continuous
 62
           1
100
AcDbText
 10
-11.0
 20
-8.5
 30
0.0
 40
0.2
  1
LIGHT_0
  7
ASHADE
 72
           1
 11
-11.0
 21
-8.6
 31
0.0
100
AcDbAttribute
  2
SNAME
 70
           0
  0
ATTRIB
  5
54
100
AcDbEntity
  8
ASHADE
  6
Continuous
 62
           7
100
AcDbText
 10
-11.0
 20
-8.5
 30
0.0
 40
0.01
  1

100
AcDbAttribute
  2
GNAME
 70
           1
  0
ATTRIB
  5
55
100
AcDbEntity
  8
ASHADE
  6
Continuous
 62
           7
100
AcDbText
 10
-11.0
 20
-8.5
 30
0.0
 40
0.01
  1

100
AcDbAttribute
  2
LAX
 70
           1
  0
ATTRIB
  5
56
100
AcDbEntity
  8
ASHADE
  6
Continuous
 62
           7
100
AcDbText
 10
-11.0
 20
-8.5
 30
0.0
 40
0.01
  1

100
AcDbAttribute
  2
LAY
 70
           1
  0
ATTRIB
  5
57
100
AcDbEntity
  8
ASHADE
  6
Continuous
 62
           7
100
AcDbText
 10
-11.0
 20
-8.5
 30
0.0
 40
0.01
  1

100
AcDbAttribute
  2
LAZ
 70
           1
  0
ATTRIB
  5
58
100
AcDbEntity
  8
ASHADE
  6
Continuous
 62
           7
100
AcDbText
 10
-11.0
 20
-8.5
 30
0.0
 40
0.01
  1
1
100
AcDbAttribute
  2
INTENSITY
 70
           1
  0
ATTRIB
  5
59
100
AcDbEntity
  8
ASHADE
  6
Continuous
 62
           7
100
AcDbText
 10
-11.0
 20
-8.5
 30
0.0
 40
0.01
  1
1,1,1
100
AcDbAttribute
  2
COLOR
 70
           1
  0
ATTRIB
  5
5A
100
AcDbEntity
  8
ASHADE
  6
Continuous
 62
           7
100
AcDbText
 10
-11.0
 20
-8.5
 30
0.0
 40
0.01
  1
0
100
AcDbAttribute
  2
CONEA
 70
           1
  0
ATTRIB
  5
5B
100
AcDbEntity
  8
ASHADE
  6
Continuous
 62
           7
100
AcDbText
 10
-11.0
 20
-8.5
 30
0.0
 40
0.01
  1
-1
100
AcDbAttribute
  2
CONED
 70
           1
  0
ATTRIB
  5
5C
100
AcDbEntity
  8
ASHADE
  6
Continuous
 62
           7
100
AcDbText
 10
-11.0
 20
-8.5
 30
0.0
 40
0.01
  1
-1
100
AcDbAttribute
  2
BEAMD
 70
           1
  0
SEQEND
  5
5D
100
AcDbEntity
  8
0
  0
INSERT
  5
5E
100
AcDbEntity
  8
0
 60
           1
100
AcDbBlockReference
 66
           1
  2
OVERHEAD
 10
22.0
 20
19.5
 30
0.0
1001
AVE_RENDER
1002
{
1070
           0
1000
LIGHT_1
1011
23.0
1021
19.5
1031
0.0
1041
100.0
1010
0.109803921569
1020
0.109803921569
1030
0.109803921569
1002
{
1070
           0
1070
           0
1040
0.0
1040
0.0
1040
3.0
1002
}
1002
{
1070
           9
1070
          21
1070
          15
1070
           0
1040
37.62
1040
122.37
1002
}
1002
}
1001
TCAD
1000
TCW_LIGTH
1002
{
1070
           0
1002
}
  0
ATTRIB
  5
5F
100
AcDbEntity
  8
ASHADE
  6
Continuous
 62
           1
100
AcDbText
 10
22.0
 20
19.5
 30
0.0
 40
0.2
  1
LIGHT_1
  7
ASHADE
 72
           1
 11
22.0
 21
19.4
 31
0.0
100
AcDbAttribute
  2
SNAME
 70
           0
  0
ATTRIB
  5
60
100
AcDbEntity
  8
ASHADE
  6
Continuous
 62
           7
100
AcDbText
 10
22.0
 20
19.5
 30
0.0
 40
0.01
  1

100
AcDbAttribute
  2
GNAME
 70
           1
  0
ATTRIB
  5
61
100
AcDbEntity
  8
ASHADE
  6
Continuous
 62
           7
100
AcDbText
 10
22.0
 20
19.5
 30
0.0
 40
0.01
  1

100
AcDbAttribute
  2
LAX
 70
           1
  0
ATTRIB
  5
62
100
AcDbEntity
  8
ASHADE
  6
Continuous
 62
           7
100
AcDbText
 10
22.0
 20
19.5
 30
0.0
 40
0.01
  1

100
AcDbAttribute
  2
LAY
 70
           1
  0
ATTRIB
  5
63
100
AcDbEntity
  8
ASHADE
  6
Continuous
 62
           7
100
AcDbText
 10
22.0
 20
19.5
 30
0.0
 40
0.01
  1

100
AcDbAttribute
  2
LAZ
 70
           1
  0
ATTRIB
  5
64
100
AcDbEntity
  8
ASHADE
  6
Continuous
 62
           7
100
AcDbText
 10
22.0
 20
19.5
 30
0.0
 40
0.01
  1
1
100
AcDbAttribute
  2
INTENSITY
 70
           1
  0
ATTRIB
  5
65
100
AcDbEntity
  8
ASHADE
  6
Continuous
 62
           7
100
AcDbText
 10
22.0
 20
19.5
 30
0.0
 40
0.01
  1
1,1,1
100
AcDbAttribute
  2
COLOR
 70
           1
  0
ATTRIB
  5
66
100
AcDbEntity
  8
ASHADE
  6
Continuous
 62
           7
100
AcDbText
 10
22.0
 20
19.5
 30
0.0
 40
0.01
  1
0
100
AcDbAttribute
  2
CONEA
 70
           1
  0
ATTRIB
  5
67
100
AcDbEntity
  8
ASHADE
  6
Continuous
 62
           7
100
AcDbText
 10
22.0
 20
19.5
 30
0.0
 40
0.01
  1
-1
100
AcDbAttribute
  2
CONED
 70
           1
  0
ATTRIB
  5
68
100
AcDbEntity
  8
ASHADE
  6
Continuous
 62
           7
100
AcDbText
 10
22.0
 20
19.5
 30
0.0
 40
0.01
  1
-1
100
AcDbAttribute
  2
BEAMD
 70
           1
  0
SEQEND
  5
69
100
AcDbEntity
  8
0
  0
INSERT
  5
6A
100
AcDbEntity
  8
0
 60
           1
100
AcDbBlockReference
 66
           1
  2
OVERHEAD
 10
22.0
 20
-8.5
 30
0.0
1001
AVE_RENDER
1002
{
1070
           0
1000
LIGHT_2
1011
23.0
1021
-8.5
1031
0.0
1041
100.0
1010
0.109803921569
1020
0.109803921569
1030
0.109803921569
1002
{
1070
           0
1070
           0
1040
0.0
1040
0.0
1040
3.0
1002
}
1002
{
1070
           9
1070
          21
1070
          15
1070
           0
1040
37.62
1040
122.37
1002
}
1002
}
1001
TCAD
1000
TCW_LIGTH
1002
{
1070
           0
1002
}
  0
ATTRIB
  5
6B
100
AcDbEntity
  8
ASHADE
  6
Continuous
 62
           1
100
AcDbText
 10
22.0
 20
-8.5
 30
0.0
 40
0.2
  1
LIGHT_2
  7
ASHADE
 72
           1
 11
22.0
 21
-8.6
 31
0.0
100
AcDbAttribute
  2
SNAME
 70
           0
  0
ATTRIB
  5
6C
100
AcDbEntity
  8
ASHADE
  6
Continuous
 62
           7
100
AcDbText
 10
22.0
 20
-8.5
 30
0.0
 40
0.01
  1

100
AcDbAttribute
  2
GNAME
 70
           1
  0
ATTRIB
  5
6D
100
AcDbEntity
  8
ASHADE
  6
Continuous
 62
           7
100
AcDbText
 10
22.0
 20
-8.5
 30
0.0
 40
0.01
  1

100
AcDbAttribute
  2
LAX
 70
           1
  0
ATTRIB
  5
6E
100
AcDbEntity
  8
ASHADE
  6
Continuous
 62
           7
100
AcDbText
 10
22.0
 20
-8.5
 30
0.0
 40
0.01
  1

100
AcDbAttribute
  2
LAY
 70
           1
  0
ATTRIB
  5
6F
100
AcDbEntity
  8
ASHADE
  6
Continuous
 62
           7
100
AcDbText
 10
22.0
 20
-8.5
 30
0.0
 40
0.01
  1

100
AcDbAttribute
  2
LAZ
 70
           1
  0
ATTRIB
  5
70
100
AcDbEntity
  8
ASHADE
  6
Continuous
 62
           7
100
AcDbText
 10
22.0
 20
-8.5
 30
0.0
 40
0.01
  1
1
100
AcDbAttribute
  2
INTENSITY
 70
           1
  0
ATTRIB
  5
71
100
AcDbEntity
  8
ASHADE
  6
Continuous
 62
           7
100
AcDbText
 10
22.0
 20
-8.5
 30
0.0
 40
0.01
  1
1,1,1
100
AcDbAttribute
  2
COLOR
 70
           1
  0
ATTRIB
  5
72
100
AcDbEntity
  8
ASHADE
  6
Continuous
 62
           7
100
AcDbText
 10
22.0
 20
-8.5
 30
0.0
 40
0.01
  1
0
100
AcDbAttribute
  2
CONEA
 70
           1
  0
ATTRIB
  5
73
100
AcDbEntity
  8
ASHADE
  6
Continuous
 62
           7
100
AcDbText
 10
22.0
 20
-8.5
 30
0.0
 40
0.01
  1
-1
100
AcDbAttribute
  2
CONED
 70
           1
  0
ATTRIB
  5
74
100
AcDbEntity
  8
ASHADE
  6
Continuous
 62
           7
100
AcDbText
 10
22.0
 20
-8.5
 30
0.0
 40
0.01
  1
-1
100
AcDbAttribute
  2
BEAMD
 70
           1
  0
SEQEND
  5
75
100
AcDbEntity
  8
0
  0
INSERT
  5
76
100
AcDbEntity
  8
0
 60
           1
100
AcDbBlockReference
 66
           1
  2
OVERHEAD
 10
-11.0
 20
17.0
 30
35.0
1001
AVE_RENDER
1002
{
1070
           0
1000
LIGHT_3
1011
-10.0
1021
17.0
1031
35.0
1041
100.0
1010
0.501960784314
1020
0.501960784314
1030
0.501960784314
1002
{
1070
           0
1070
           0
1040
0.0
1040
0.0
1040
3.0
1002
}
1002
{
1070
           9
1070
          21
1070
          15
1070
           0
1040
37.62
1040
122.37
1002
}
1002
}
1001
TCAD
1000
TCW_LIGTH
1002
{
1070
           1
1002
}
  0
ATTRIB
  5
77
100
AcDbEntity
  8
ASHADE
  6
Continuous
 62
           1
100
AcDbText
 10
-11.0
 20
17.0
 30
35.0
 40
0.2
  1
LIGHT_3
  7
ASHADE
 72
           1
 11
-11.0
 21
16.9
 31
35.0
100
AcDbAttribute
  2
SNAME
 70
           0
  0
ATTRIB
  5
78
100
AcDbEntity
  8
ASHADE
  6
Continuous
 62
           7
100
AcDbText
 10
-11.0
 20
17.0
 30
35.0
 40
0.01
  1

100
AcDbAttribute
  2
GNAME
 70
           1
  0
ATTRIB
  5
79
100
AcDbEntity
  8
ASHADE
  6
Continuous
 62
           7
100
AcDbText
 10
-11.0
 20
17.0
 30
35.0
 40
0.01
  1

100
AcDbAttribute
  2
LAX
 70
           1
  0
ATTRIB
  5
7A
100
AcDbEntity
  8
ASHADE
  6
Continuous
 62
           7
100
AcDbText
 10
-11.0
 20
17.0
 30
35.0
 40
0.01
  1

100
AcDbAttribute
  2
LAY
 70
           1
  0
ATTRIB
  5
7B
100
AcDbEntity
  8
ASHADE
  6
Continuous
 62
           7
100
AcDbText
 10
-11.0
 20
17.0
 30
35.0
 40
0.01
  1

100
AcDbAttribute
  2
LAZ
 70
           1
  0
ATTRIB
  5
7C
100
AcDbEntity
  8
ASHADE
  6
Continuous
 62
           7
100
AcDbText
 10
-11.0
 20
17.0
 30
35.0
 40
0.01
  1
1
100
AcDbAttribute
  2
INTENSITY
 70
           1
  0
ATTRIB
  5
7D
100
AcDbEntity
  8
ASHADE
  6
Continuous
 62
           7
100
AcDbText
 10
-11.0
 20
17.0
 30
35.0
 40
0.01
  1
1,1,1
100
AcDbAttribute
  2
COLOR
 70
           1
  0
ATTRIB
  5
7E
100
AcDbEntity
  8
ASHADE
  6
Continuous
 62
           7
100
AcDbText
 10
-11.0
 20
17.0
 30
35.0
 40
0.01
  1
0
100
AcDbAttribute
  2
CONEA
 70
           1
  0
ATTRIB
  5
7F
100
AcDbEntity
  8
ASHADE
  6
Continuous
 62
           7
100
AcDbText
 10
-11.0
 20
17.0
 30
35.0
 40
0.01
  1
-1
100
AcDbAttribute
  2
CONED
 70
           1
  0
ATTRIB
  5
80
100
AcDbEntity
  8
ASHADE
  6
Continuous
 62
           7
100
AcDbText
 10
-11.0
 20
17.0
 30
35.0
 40
0.01
  1
-1
100
AcDbAttribute
  2
BEAMD
 70
           1
  0
SEQEND
  5
81
100
AcDbEntity
  8
0
  0
INSERT
  5
96
100
AcDbEntity
  8
0
 60
           1
100
AcDbBlockReference
 66
           1
  2
DIRECT
 10
93.5
 20
38.25
 30
0.0
 50
-52.305759533311
1001
AVE_RENDER
1002
{
1070
           0
1000
LIGHT_4
1011
99.0
1021
42.5
1031
0.0
1041
100.0
1010
0.501960784314
1020
0.501960784314
1030
0.501960784314
1002
{
1070
           0
1070
           0
1040
0.0
1040
0.0
1040
3.0
1002
}
1002
{
1070
           9
1070
          21
1070
          15
1070
           0
1040
37.62
1040
122.37
1002
}
1002
}
1001
TCAD
1000
TCW_LIGTH
1002
{
1070
           1
1002
}
  0
ATTRIB
  5
97
100
AcDbEntity
  8
ASHADE
  6
Continuous
 62
           1
100
AcDbText
 10
93.5
 20
38.25
 30
0.0
 40
0.2
  1
LIGHT_4
 50
-52.305759533311
  7
ASHADE
 72
           1
 11
93.420871499861
 21
38.188855249892
 31
0.0
100
AcDbAttribute
  2
SNAME
 70
           0
  0
ATTRIB
  5
98
100
AcDbEntity
  8
ASHADE
  6
Continuous
 62
           7
100
AcDbText
 10
93.5
 20
38.25
 30
0.0
 40
0.01
  1

 50
-52.305759533311
100
AcDbAttribute
  2
GNAME
 70
           1
  0
ATTRIB
  5
99
100
AcDbEntity
  8
ASHADE
  6
Continuous
 62
           7
100
AcDbText
 10
93.5
 20
38.25
 30
0.0
 40
0.01
  1

 50
-52.305759533311
100
AcDbAttribute
  2
LAX
 70
           1
  0
ATTRIB
  5
9A
100
AcDbEntity
  8
ASHADE
  6
Continuous
 62
           7
100
AcDbText
 10
93.5
 20
38.25
 30
0.0
 40
0.01
  1

 50
-52.305759533311
100
AcDbAttribute
  2
LAY
 70
           1
  0
ATTRIB
  5
9B
100
AcDbEntity
  8
ASHADE
  6
Continuous
 62
           7
100
AcDbText
 10
93.5
 20
38.25
 30
0.0
 40
0.01
  1

 50
-52.305759533311
100
AcDbAttribute
  2
LAZ
 70
           1
  0
ATTRIB
  5
9C
100
AcDbEntity
  8
ASHADE
  6
Continuous
 62
           7
100
AcDbText
 10
93.5
 20
38.25
 30
0.0
 40
0.01
  1
1
 50
-52.305759533311
100
AcDbAttribute
  2
INTENSITY
 70
           1
  0
ATTRIB
  5
9D
100
AcDbEntity
  8
ASHADE
  6
Continuous
 62
           7
100
AcDbText
 10
93.5
 20
38.25
 30
0.0
 40
0.01
  1
1,1,1
 50
-52.305759533311
100
AcDbAttribute
  2
COLOR
 70
           1
  0
ATTRIB
  5
9E
100
AcDbEntity
  8
ASHADE
  6
Continuous
 62
           7
100
AcDbText
 10
93.5
 20
38.25
 30
0.0
 40
0.01
  1
0
 50
-52.305759533311
100
AcDbAttribute
  2
CONEA
 70
           1
  0
ATTRIB
  5
9F
100
AcDbEntity
  8
ASHADE
  6
Continuous
 62
           7
100
AcDbText
 10
93.5
 20
38.25
 30
0.0
 40
0.01
  1
-1
 50
-52.305759533311
100
AcDbAttribute
  2
CONED
 70
           1
  0
ATTRIB
  5
A0
100
AcDbEntity
  8
ASHADE
  6
Continuous
 62
           7
100
AcDbText
 10
93.5
 20
38.25
 30
0.0
 40
0.01
  1
-1
 50
-52.305759533311
100
AcDbAttribute
  2
BEAMD
 70
           1
  0
SEQEND
  5
A1
100
AcDbEntity
  8
0
  0
INSERT
  5
A2
100
AcDbEntity
  8
0
 60
           1
100
AcDbBlockReference
 66
           1
  2
OVERHEAD
 10
0.0
 20
0.0
 30
0.0
1001
AVE_RENDER
1002
{
1070
           0
1000
LIGHT_5
1011
1.0
1021
0.0
1031
0.0
1041
100.0
1010
0.501960784314
1020
0.501960784314
1030
0.501960784314
1002
{
1070
           0
1070
           0
1040
0.0
1040
0.0
1040
3.0
1002
}
1002
{
1070
           9
1070
          21
1070
          15
1070
           0
1040
37.62
1040
122.37
1002
}
1002
}
1001
TCAD
1000
TCW_LIGTH
1002
{
1070
           0
1002
}
  0
ATTRIB
  5
A3
100
AcDbEntity
  8
ASHADE
  6
Continuous
 62
           1
100
AcDbText
 10
0.0
 20
0.0
 30
0.0
 40
0.2
  1
LIGHT_5
  7
ASHADE
 72
           1
 11
0.0
 21
-0.1
 31
0.0
100
AcDbAttribute
  2
SNAME
 70
           0
  0
ATTRIB
  5
A4
100
AcDbEntity
  8
ASHADE
  6
Continuous
 62
           7
100
AcDbText
 10
0.0
 20
0.0
 30
0.0
 40
0.01
  1

100
AcDbAttribute
  2
GNAME
 70
           1
  0
ATTRIB
  5
A5
100
AcDbEntity
  8
ASHADE
  6
Continuous
 62
           7
100
AcDbText
 10
0.0
 20
0.0
 30
0.0
 40
0.01
  1

100
AcDbAttribute
  2
LAX
 70
           1
  0
ATTRIB
  5
A6
100
AcDbEntity
  8
ASHADE
  6
Continuous
 62
           7
100
AcDbText
 10
0.0
 20
0.0
 30
0.0
 40
0.01
  1

100
AcDbAttribute
  2
LAY
 70
           1
  0
ATTRIB
  5
A7
100
AcDbEntity
  8
ASHADE
  6
Continuous
 62
           7
100
AcDbText
 10
0.0
 20
0.0
 30
0.0
 40
0.01
  1

100
AcDbAttribute
  2
LAZ
 70
           1
  0
ATTRIB
  5
A8
100
AcDbEntity
  8
ASHADE
  6
Continuous
 62
           7
100
AcDbText
 10
0.0
 20
0.0
 30
0.0
 40
0.01
  1
1
100
AcDbAttribute
  2
INTENSITY
 70
           1
  0
ATTRIB
  5
A9
100
AcDbEntity
  8
ASHADE
  6
Continuous
 62
           7
100
AcDbText
 10
0.0
 20
0.0
 30
0.0
 40
0.01
  1
1,1,1
100
AcDbAttribute
  2
COLOR
 70
           1
  0
ATTRIB
  5
AA
100
AcDbEntity
  8
ASHADE
  6
Continuous
 62
           7
100
AcDbText
 10
0.0
 20
0.0
 30
0.0
 40
0.01
  1
0
100
AcDbAttribute
  2
CONEA
 70
           1
  0
ATTRIB
  5
AB
100
AcDbEntity
  8
ASHADE
  6
Continuous
 62
           7
100
AcDbText
 10
0.0
 20
0.0
 30
0.0
 40
0.01
  1
-1
100
AcDbAttribute
  2
CONED
 70
           1
  0
ATTRIB
  5
AC
100
AcDbEntity
  8
ASHADE
  6
Continuous
 62
           7
100
AcDbText
 10
0.0
 20
0.0
 30
0.0
 40
0.01
  1
-1
100
AcDbAttribute
  2
BEAMD
 70
           1
  0
SEQEND
  5
AD
100
AcDbEntity
  8
0
  0
INSERT
  5
AE
100
AcDbEntity
  8
0
 60
           1
100
AcDbBlockReference
 66
           1
  2
OVERHEAD
 10
0.0
 20
0.0
 30
0.0
1001
AVE_RENDER
1002
{
1070
           0
1000
LIGHT_6
1011
1.0
1021
0.0
1031
0.0
1041
100.0
1010
0.752941176471
1020
0.752941176471
1030
0.752941176471
1002
{
1070
           0
1070
           0
1040
0.0
1040
0.0
1040
3.0
1002
}
1002
{
1070
           9
1070
          21
1070
          15
1070
           0
1040
37.62
1040
122.37
1002
}
1002
}
1001
TCAD
1000
TCW_LIGTH
1002
{
1070
           1
1002
}
  0
ATTRIB
  5
AF
100
AcDbEntity
  8
ASHADE
  6
Continuous
 62
           1
100
AcDbText
 10
0.0
 20
0.0
 30
0.0
 40
0.2
  1
LIGHT_6
  7
ASHADE
 72
           1
 11
0.0
 21
-0.1
 31
0.0
100
AcDbAttribute
  2
SNAME
 70
           0
  0
ATTRIB
  5
B0
100
AcDbEntity
  8
ASHADE
  6
Continuous
 62
           7
100
AcDbText
 10
0.0
 20
0.0
 30
0.0
 40
0.01
  1

100
AcDbAttribute
  2
GNAME
 70
           1
  0
ATTRIB
  5
B1
100
AcDbEntity
  8
ASHADE
  6
Continuous
 62
           7
100
AcDbText
 10
0.0
 20
0.0
 30
0.0
 40
0.01
  1

100
AcDbAttribute
  2
LAX
 70
           1
  0
ATTRIB
  5
B2
100
AcDbEntity
  8
ASHADE
  6
Continuous
 62
           7
100
AcDbText
 10
0.0
 20
0.0
 30
0.0
 40
0.01
  1

100
AcDbAttribute
  2
LAY
 70
           1
  0
ATTRIB
  5
B3
100
AcDbEntity
  8
ASHADE
  6
Continuous
 62
           7
100
AcDbText
 10
0.0
 20
0.0
 30
0.0
 40
0.01
  1

100
AcDbAttribute
  2
LAZ
 70
           1
  0
ATTRIB
  5
B4
100
AcDbEntity
  8
ASHADE
  6
Continuous
 62
           7
100
AcDbText
 10
0.0
 20
0.0
 30
0.0
 40
0.01
  1
1
100
AcDbAttribute
  2
INTENSITY
 70
           1
  0
ATTRIB
  5
B5
100
AcDbEntity
  8
ASHADE
  6
Continuous
 62
           7
100
AcDbText
 10
0.0
 20
0.0
 30
0.0
 40
0.01
  1
1,1,1
100
AcDbAttribute
  2
COLOR
 70
           1
  0
ATTRIB
  5
B6
100
AcDbEntity
  8
ASHADE
  6
Continuous
 62
           7
100
AcDbText
 10
0.0
 20
0.0
 30
0.0
 40
0.01
  1
0
100
AcDbAttribute
  2
CONEA
 70
           1
  0
ATTRIB
  5
B7
100
AcDbEntity
  8
ASHADE
  6
Continuous
 62
           7
100
AcDbText
 10
0.0
 20
0.0
 30
0.0
 40
0.01
  1
-1
100
AcDbAttribute
  2
CONED
 70
           1
  0
ATTRIB
  5
B8
100
AcDbEntity
  8
ASHADE
  6
Continuous
 62
           7
100
AcDbText
 10
0.0
 20
0.0
 30
0.0
 40
0.01
  1
-1
100
AcDbAttribute
  2
BEAMD
 70
           1
  0
SEQEND
  5
B9
100
AcDbEntity
  8
0
  0
INSERT
  5
E2
100
AcDbEntity
  8
0
 60
           1
100
AcDbBlockReference
 66
           1
  2
SH_SPOT
 10
-5.5
 20
0.0
 30
4.25
210
0.0
220
1.0
230
0.0
1001
AVE_RENDER
1002
{
1070
           0
1000
LIGHT_7
1011
5.5
1021
4.25
1031
1.0
1041
100.0
1010
0.501960784314
1020
0.501960784314
1030
0.501960784314
1002
{
1070
           1
1070
           0
1040
0.0
1040
0.0
1040
3.0
1002
}
1002
{
1070
           9
1070
          21
1070
          15
1070
           0
1040
37.62
1040
122.37
1002
}
1002
}
1001
TCAD
1000
TCW_LIGTH
1002
{
1070
           0
1002
}
  0
ATTRIB
  5
E3
100
AcDbEntity
  8
ASHADE
  6
Continuous
 62
           1
100
AcDbText
 10
-5.5
 20
0.0
 30
4.25
 40
0.2
  1
LIGHT_7
  7
ASHADE
 72
           1
 11
-5.5
 21
-0.1
 31
4.25
210
0.0
220
1.0
230
0.0
100
AcDbAttribute
  2
SNAME
 70
           0
  0
ATTRIB
  5
E4
100
AcDbEntity
  8
ASHADE
  6
Continuous
 62
           7
100
AcDbText
 10
-5.5
 20
0.0
 30
4.25
 40
0.01
  1

210
0.0
220
1.0
230
0.0
100
AcDbAttribute
  2
GNAME
 70
           1
  0
ATTRIB
  5
E5
100
AcDbEntity
  8
ASHADE
  6
Continuous
 62
           7
100
AcDbText
 10
-5.5
 20
0.0
 30
4.25
 40
0.01
  1

210
0.0
220
1.0
230
0.0
100
AcDbAttribute
  2
LAX
 70
           1
  0
ATTRIB
  5
E6
100
AcDbEntity
  8
ASHADE
  6
Continuous
 62
           7
100
AcDbText
 10
-5.5
 20
0.0
 30
4.25
 40
0.01
  1

210
0.0
220
1.0
230
0.0
100
AcDbAttribute
  2
LAY
 70
           1
  0
ATTRIB
  5
E7
100
AcDbEntity
  8
ASHADE
  6
Continuous
 62
           7
100
AcDbText
 10
-5.5
 20
0.0
 30
4.25
 40
0.01
  1

210
0.0
220
1.0
230
0.0
100
AcDbAttribute
  2
LAZ
 70
           1
  0
ATTRIB
  5
E8
100
AcDbEntity
  8
ASHADE
  6
Continuous
 62
           7
100
AcDbText
 10
-5.5
 20
0.0
 30
4.25
 40
0.01
  1
1
210
0.0
220
1.0
230
0.0
100
AcDbAttribute
  2
INTENSITY
 70
           1
  0
ATTRIB
  5
E9
100
AcDbEntity
  8
ASHADE
  6
Continuous
 62
           7
100
AcDbText
 10
-5.5
 20
0.0
 30
4.25
 40
0.01
  1
1,1,1
210
0.0
220
1.0
230
0.0
100
AcDbAttribute
  2
COLOR
 70
           1
  0
ATTRIB
  5
EA
100
AcDbEntity
  8
ASHADE
  6
Continuous
 62
           7
100
AcDbText
 10
-5.5
 20
0.0
 30
4.25
 40
0.01
  1
0
210
0.0
220
1.0
230
0.0
100
AcDbAttribute
  2
ZSIZE
 70
           1
  0
ATTRIB
  5
EB
100
AcDbEntity
  8
ASHADE
  6
Continuous
 62
           7
100
AcDbText
 10
-5.5
 20
0.0
 30
4.25
 40
0.01
  1
-1
210
0.0
220
1.0
230
0.0
100
AcDbAttribute
  2
BIASMIN
 70
           1
  0
ATTRIB
  5
EC
100
AcDbEntity
  8
ASHADE
  6
Continuous
 62
           7
100
AcDbText
 10
-5.5
 20
0.0
 30
4.25
 40
0.01
  1
-1
210
0.0
220
1.0
230
0.0
100
AcDbAttribute
  2
BIASMAX
 70
           1
  0
ATTRIB
  5
ED
100
AcDbEntity
  8
ASHADE
  6
Continuous
 62
           7
100
AcDbText
 10
-5.5
 20
0.0
 30
4.25
 40
0.01
  1
10.0
210
0.0
220
1.0
230
0.0
100
AcDbAttribute
  2
CONEAN
 70
           1
  0
ATTRIB
  5
EE
100
AcDbEntity
  8
ASHADE
  6
Continuous
 62
           7
100
AcDbText
 10
-5.5
 20
0.0
 30
4.25
 40
0.01
  1
0.0
210
0.0
220
1.0
230
0.0
100
AcDbAttribute
  2
CONEDE
 70
           1
  0
ATTRIB
  5
EF
100
AcDbEntity
  8
ASHADE
  6
Continuous
 62
           7
100
AcDbText
 10
-5.5
 20
0.0
 30
4.25
 40
0.01
  1
0.0
210
0.0
220
1.0
230
0.0
100
AcDbAttribute
  2
BEAMDI
 70
           1
  0
ATTRIB
  5
F0
100
AcDbEntity
  8
ASHADE
  6
Continuous
 62
           7
100
AcDbText
 10
-5.5
 20
0.0
 30
4.25
 40
0.01
  1
0,0,0
210
0.0
220
1.0
230
0.0
100
AcDbAttribute
  2
LFXYZ
 70
           1
  0
SEQEND
  5
F1
100
AcDbEntity
  8
0
  0
CIRCLE
  5
F2
100
AcDbEntity
  8
0
370
           0
  6
Continuous
 62
           7
100
AcDbCircle
 10
0.0
 20
0.0
 30
0.0
 40
2.645
1001
TCAD
1000
TCW_CUSTOM_DATA
1002
{
1000
#$AUX@_ToolInfo Properties
1070
           8
1000
Insert^JCircle^JCenterAndPoint@Circle CenterAndPoint
1002
}
  0
CIRCLE
  5
F3
100
AcDbEntity
  8
0
370
           0
  6
Continuous
 62
           7
100
AcDbCircle
 10
0.0
 20
0.0
 30
0.0
 40
2.895
1001
TCAD
1000
TCW_CUSTOM_DATA
1002
{
1000
#$AUX@_ToolInfo Properties
1070
           8
1000
Insert^JCircle^JCenterAndPoint@Circle CenterAndPoint
1002
}
  0
CIRCLE
  5
F4
100
AcDbEntity
  8
0
370
           0
  6
Continuous
 62
           7
100
AcDbCircle
 10
0.0
 20
0.0
 30
0.0
 40
0.09845
1001
TCAD
1000
TCW_CUSTOM_DATA
1002
{
1000
#$AUX@_ToolInfo Properties
1070
           8
1000
Insert^JCircle^JCenterAndPoint@Circle CenterAndPoint
1002
}
  0
CIRCLE
  5
F5
100
AcDbEntity
  8
$CONSTRUCTION
370
           0
100
AcDbCircle
 10
0.0
 20
0.0
 30
0.0
 40
2.5302
1001
TCAD
1000
TCW_CUSTOM_DATA
1002
{
1000
#$AUX@_ToolInfo Properties
1070
           8
1000
Insert^JConstruction^JCenterAndPointCircle@Construction CenterAndPointCircle
1002
}
  0
CIRCLE
  5
F6
100
AcDbEntity
  8
$CONSTRUCTION
370
           0
100
AcDbCircle
 10
0.0
 20
0.0
 30
0.0
 40
2.1
1001
TCAD
1000
TCW_CUSTOM_DATA
1002
{
1000
#$AUX@_ToolInfo Properties
1070
           8
1000
Insert^JConstruction^JCenterAndPointCircle@Construction CenterAndPointCircle
1002
}
  0
CIRCLE
  5
F7
100
AcDbEntity
  8
$CONSTRUCTION
370
           0
100
AcDbCircle
 10
0.0
 20
0.0
 30
0.0
 40
0.8
1001
TCAD
1000
TCW_CUSTOM_DATA
1002
{
1000
#$AUX@_ToolInfo Properties
1070
           8
1000
Insert^JConstruction^JCenterAndPointCircle@Construction CenterAndPointCircle
1002
}
  0
XLINE
  5
F8
100
AcDbEntity
  8
$CONSTRUCTION
100
AcDbXline
 10
-3.2420162829
 20
-1.871778973649
 30
0.0
 11
0.8660254037844387
 21
0.4999999999999999
 31
0.0
1001
TCAD
1000
TCW_CUSTOM_DATA
1002
{
1000
#$AUX@_ToolInfo Properties
1070
           8
1000
Insert^JConstruction^JAngularLine@Construction AngularLine
1002
}
  0
XLINE
  5
F9
100
AcDbEntity
  8
$CONSTRUCTION
100
AcDbXline
 10
-1.657019181397
 20
-2.870041411296
 30
0.0
 11
0.5000000000000001
 21
0.8660254037844386
 31
0.0
1001
TCAD
1000
TCW_CUSTOM_DATA
1002
{
1000
#$AUX@_ToolInfo Properties
1070
           8
1000
Insert^JConstruction^JAngularLine@Construction AngularLine
1002
}
  0
XLINE
  5
FA
100
AcDbEntity
  8
$CONSTRUCTION
100
AcDbXline
 10
1.657019181397
 20
-2.870041411296
 30
0.0
 11
-0.4999999999999998
 21
0.8660254037844387
 31
0.0
1001
TCAD
1000
TCW_CUSTOM_DATA
1002
{
1000
#$AUX@_ToolInfo Properties
1070
           8
1000
Insert^JConstruction^JAngularLine@Construction AngularLine
1002
}
  0
XLINE
  5
FB
100
AcDbEntity
  8
$CONSTRUCTION
100
AcDbXline
 10
-3.2420162829
 20
1.871778973649
 30
0.0
 11
0.8660254037844387
 21
-0.4999999999999999
 31
0.0
1001
TCAD
1000
TCW_CUSTOM_DATA
1002
{
1000
#$AUX@_ToolInfo Properties
1070
           8
1000
Insert^JConstruction^JAngularLine@Construction AngularLine
1002
}
  0
CIRCLE
  5
FC
100
AcDbEntity
  8
0
370
           0
  6
Continuous
 62
           7
100
AcDbCircle
 10
0.4
 20
0.692820323028
 30
0.0
 40
0.06
1001
TCAD
1000
TCW_CUSTOM_DATA
1002
{
1000
#$AUX@_ToolInfo Properties
1070
           8
1000
Insert^JCircle^JCenterAndPoint@Circle CenterAndPoint
1002
}
  0
CIRCLE
  5
FD
100
AcDbEntity
  8
0
370
           0
  6
Continuous
 62
           7
100
AcDbCircle
 10
0.692820323028
 20
0.4
 30
0.0
 40
0.06
1001
TCAD
1000
TCW_CUSTOM_DATA
1002
{
1000
#$AUX@_ToolInfo Properties
1070
           8
1000
Insert^JCircle^JCenterAndPoint@Circle CenterAndPoint
1002
}
  0
CIRCLE
  5
FE
100
AcDbEntity
  8
0
370
           0
  6
Continuous
 62
           7
100
AcDbCircle
 10
1.05
 20
1.818653347947
 30
0.0
 40
0.06
1001
TCAD
1000
TCW_CUSTOM_DATA
1002
{
1000
#$AUX@_ToolInfo Properties
1070
           8
1000
Insert^JCircle^JCenterAndPoint@Circle CenterAndPoint
1002
}
  0
CIRCLE
  5
FF
100
AcDbEntity
  8
0
370
           0
  6
Continuous
 62
           7
100
AcDbCircle
 10
1.818653347947
 20
1.05
 30
0.0
 40
0.06
1001
TCAD
1000
TCW_CUSTOM_DATA
1002
{
1000
#$AUX@_ToolInfo Properties
1070
           8
1000
Insert^JCircle^JCenterAndPoint@Circle CenterAndPoint
1002
}
  0
CIRCLE
  5
100
100
AcDbEntity
  8
0
370
           0
  6
Continuous
 62
           7
100
AcDbCircle
 10
-1.05
 20
1.818653347947
 30
0.0
 40
0.06
1001
TCAD
1000
TCW_CUSTOM_DATA
1002
{
1000
#$AUX@_ToolInfo Properties
1070
           8
1000
Insert^JCircle^JCenterAndPoint@Circle CenterAndPoint
1002
}
  0
CIRCLE
  5
101
100
AcDbEntity
  8
0
370
           0
  6
Continuous
 62
           7
100
AcDbCircle
 10
-1.818653347947
 20
1.05
 30
0.0
 40
0.06
1001
TCAD
1000
TCW_CUSTOM_DATA
1002
{
1000
#$AUX@_ToolInfo Properties
1070
           8
1000
Insert^JCircle^JCenterAndPoint@Circle CenterAndPoint
1002
}
  0
CIRCLE
  5
102
100
AcDbEntity
  8
0
370
           0
  6
Continuous
 62
           7
100
AcDbCircle
 10
-0.4
 20
0.692820323028
 30
0.0
 40
0.06
1001
TCAD
1000
TCW_CUSTOM_DATA
1002
{
1000
#$AUX@_ToolInfo Properties
1070
           8
1000
Insert^JCircle^JCenterAndPoint@Circle CenterAndPoint
1002
}
  0
CIRCLE
  5
103
100
AcDbEntity
  8
0
370
           0
  6
Continuous
 62
           7
100
AcDbCircle
 10
-0.692820323028
 20
0.4
 30
0.0
 40
0.06
1001
TCAD
1000
TCW_CUSTOM_DATA
1002
{
1000
#$AUX@_ToolInfo Properties
1070
           8
1000
Insert^JCircle^JCenterAndPoint@Circle CenterAndPoint
1002
}
  0
CIRCLE
  5
104
100
AcDbEntity
  8
0
370
           0
  6
Continuous
 62
           7
100
AcDbCircle
 10
-1.818653347947
 20
-1.05
 30
0.0
 40
0.06
1001
TCAD
1000
TCW_CUSTOM_DATA
1002
{
1000
#$AUX@_ToolInfo Properties
1070
           8
1000
Insert^JCircle^JCenterAndPoint@Circle CenterAndPoint
1002
}
  0
CIRCLE
  5
105
100
AcDbEntity
  8
0
370
           0
  6
Continuous
 62
           7
100
AcDbCircle
 10
-0.692820323028
 20
-0.4
 30
0.0
 40
0.06
1001
TCAD
1000
TCW_CUSTOM_DATA
1002
{
1000
#$AUX@_ToolInfo Properties
1070
           8
1000
Insert^JCircle^JCenterAndPoint@Circle CenterAndPoint
1002
}
  0
CIRCLE
  5
106
100
AcDbEntity
  8
0
370
           0
  6
Continuous
 62
           7
100
AcDbCircle
 10
-0.4
 20
-0.692820323028
 30
0.0
 40
0.06
1001
TCAD
1000
TCW_CUSTOM_DATA
1002
{
1000
#$AUX@_ToolInfo Properties
1070
           8
1000
Insert^JCircle^JCenterAndPoint@Circle CenterAndPoint
1002
}
  0
CIRCLE
  5
107
100
AcDbEntity
  8
0
370
           0
  6
Continuous
 62
           7
100
AcDbCircle
 10
-1.05
 20
-1.818653347947
 30
0.0
 40
0.06
1001
TCAD
1000
TCW_CUSTOM_DATA
1002
{
1000
#$AUX@_ToolInfo Properties
1070
           8
1000
Insert^JCircle^JCenterAndPoint@Circle CenterAndPoint
1002
}
  0
CIRCLE
  5
108
100
AcDbEntity
  8
0
370
           0
  6
Continuous
 62
           7
100
AcDbCircle
 10
1.05
 20
-1.818653347947
 30
0.0
 40
0.06
1001
TCAD
1000
TCW_CUSTOM_DATA
1002
{
1000
#$AUX@_ToolInfo Properties
1070
           8
1000
Insert^JCircle^JCenterAndPoint@Circle CenterAndPoint
1002
}
  0
CIRCLE
  5
109
100
AcDbEntity
  8
0
370
           0
  6
Continuous
 62
           7
100
AcDbCircle
 10
0.4
 20
-0.692820323028
 30
0.0
 40
0.06
1001
TCAD
1000
TCW_CUSTOM_DATA
1002
{
1000
#$AUX@_ToolInfo Properties
1070
           8
1000
Insert^JCircle^JCenterAndPoint@Circle CenterAndPoint
1002
}
  0
CIRCLE
  5
10A
100
AcDbEntity
  8
0
370
           0
  6
Continuous
 62
           7
100
AcDbCircle
 10
0.692820323028
 20
-0.4
 30
0.0
 40
0.06
1001
TCAD
1000
TCW_CUSTOM_DATA
1002
{
1000
#$AUX@_ToolInfo Properties
1070
           8
1000
Insert^JCircle^JCenterAndPoint@Circle CenterAndPoint
1002
}
  0
CIRCLE
  5
10B
100
AcDbEntity
  8
0
370
           0
  6
Continuous
 62
           7
100
AcDbCircle
 10
1.818653347947
 20
-1.05
 30
0.0
 40
0.06
1001
TCAD
1000
TCW_CUSTOM_DATA
1002
{
1000
#$AUX@_ToolInfo Properties
1070
           8
1000
Insert^JCircle^JCenterAndPoint@Circle CenterAndPoint
1002
}
  0
XLINE
  5
10C
100
AcDbEntity
  8
$CONSTRUCTION
100
AcDbXline
 10
-3.2420162829
 20
0.0
 30
0.0
 11
1.0
 21
0.0
 31
0.0
1001
TCAD
1000
TCW_CUSTOM_DATA
1002
{
1000
#$AUX@_ToolInfo Properties
1070
           8
1000
Insert^JConstruction^JAngularLine@Construction AngularLine
1002
}
  0
XLINE
  5
10D
100
AcDbEntity
  8
$CONSTRUCTION
100
AcDbXline
 10
-0.0
 20
-2.870041411296
 30
0.0
 11
0.0000000000000001
 21
1.0
 31
0.0
1001
TCAD
1000
TCW_CUSTOM_DATA
1002
{
1000
#$AUX@_ToolInfo Properties
1070
           8
1000
Insert^JConstruction^JAngularLine@Construction AngularLine
1002
}
  0
CIRCLE
  5
10E
100
AcDbEntity
  8
0
370
           0
  6
Continuous
 62
           7
100
AcDbCircle
 10
0.0
 20
2.5302
 30
0.0
 40
0.06
1001
TCAD
1000
TCW_CUSTOM_DATA
1002
{
1000
#$AUX@_ToolInfo Properties
1070
           8
1000
Insert^JCircle^JCenterAndPoint@Circle CenterAndPoint
1002
}
  0
CIRCLE
  5
10F
100
AcDbEntity
  8
0
370
           0
  6
Continuous
 62
           7
100
AcDbCircle
 10
-0.0
 20
-2.5302
 30
0.0
 40
0.06
1001
TCAD
1000
TCW_CUSTOM_DATA
1002
{
1000
#$AUX@_ToolInfo Properties
1070
           8
1000
Insert^JCircle^JCenterAndPoint@Circle CenterAndPoint
1002
}
  0
CIRCLE
  5
110
100
AcDbEntity
  8
0
370
           0
  6
Continuous
 62
           7
100
AcDbCircle
 10
2.5302
 20
0.0
 30
0.0
 40
0.06
1001
TCAD
1000
TCW_CUSTOM_DATA
1002
{
1000
#$AUX@_ToolInfo Properties
1070
           8
1000
Insert^JCircle^JCenterAndPoint@Circle CenterAndPoint
1002
}
  0
CIRCLE
  5
111
100
AcDbEntity
  8
0
370
           0
  6
Continuous
 62
           7
100
AcDbCircle
 10
-2.5302
 20
0.0
 30
0.0
 40
0.06
1001
TCAD
1000
TCW_CUSTOM_DATA
1002
{
1000
#$AUX@_ToolInfo Properties
1070
           8
1000
Insert^JCircle^JCenterAndPoint@Circle CenterAndPoint
1002
}
  0
XLINE
  5
112
100
AcDbEntity
  8
$CONSTRUCTION
100
AcDbXline
 10
-1.62100814145
 20
2.895
 30
0.0
 11
1.0
 21
0.0
 31
0.0
1001
TCAD
1000
TCW_CUSTOM_DATA
1002
{
1000
#$AUX@_ToolInfo Properties
1070
           8
1000
Insert^JConstruction^JHorizontalLine@Construction HorizontalLine
1002
}
  0
XLINE
  5
113
100
AcDbEntity
  8
$CONSTRUCTION
100
AcDbXline
 10
-1.62100814145
 20
-2.895
 30
0.0
 11
1.0
 21
0.0
 31
0.0
1001
TCAD
1000
TCW_CUSTOM_DATA
1002
{
1000
#$AUX@_ToolInfo Properties
1070
           8
1000
Insert^JConstruction^JHorizontalLine@Construction HorizontalLine
1002
}
  0
XLINE
  5
114
100
AcDbEntity
  8
$CONSTRUCTION
100
AcDbXline
 10
8.0
 20
-2.870041411296
 30
0.0
 11
0.0
 21
1.0
 31
0.0
1001
TCAD
1000
TCW_CUSTOM_DATA
1002
{
1000
#$AUX@_ToolInfo Properties
1070
           8
1000
Insert^JConstruction^JVerticalLine@Construction VerticalLine
1002
}
  0
XLINE
  5
115
100
AcDbEntity
  8
$CONSTRUCTION
100
AcDbXline
 10
6.5689
 20
-5.740082822592
 30
0.0
 11
0.0
 21
1.0
 31
0.0
1001
TCAD
1000
TCW_CUSTOM_DATA
1002
{
1000
#$AUX@_ToolInfo Properties
1070
           8
1000
Insert^JConstruction^JVerticalLine@Construction VerticalLine
1002
}
  0
LWPOLYLINE
  5
116
100
AcDbEntity
  8
0
370
           0
  6
Continuous
 62
           7
100
AcDbPolyline
 90
        4
 70
           1
 10
6.5689
 20
2.895
 10
8.0
 20
2.895
 10
8.0
 20
-2.895
 10
6.5689
 20
-2.895
1001
TCAD
1000
TCW_CUSTOM_DATA
1002
{
1000
#$AUX@_ToolInfo Properties
1070
           8
1000
Insert^JLine^JRectangle@Line Rectangle
1002
}
  0
XLINE
  5
117
100
AcDbEntity
  8
$CONSTRUCTION
100
AcDbXline
 10
-1.62100814145
 20
2.645
 30
0.0
 11
1.0
 21
0.0
 31
0.0
1001
TCAD
1000
TCW_CUSTOM_DATA
1002
{
1000
#$AUX@_ToolInfo Properties
1070
           8
1000
Insert^JConstruction^JHorizontalLine@Construction HorizontalLine
1002
}
  0
XLINE
  5
118
100
AcDbEntity
  8
$CONSTRUCTION
100
AcDbXline
 10
-1.62100814145
 20
-2.645
 30
0.0
 11
1.0
 21
0.0
 31
0.0
1001
TCAD
1000
TCW_CUSTOM_DATA
1002
{
1000
#$AUX@_ToolInfo Properties
1070
           8
1000
Insert^JConstruction^JHorizontalLine@Construction HorizontalLine
1002
}
  0
XLINE
  5
119
100
AcDbEntity
  8
$CONSTRUCTION
100
AcDbXline
 10
7.75
 20
-5.740082822592
 30
0.0
 11
0.0
 21
1.0
 31
0.0
1001
TCAD
1000
TCW_CUSTOM_DATA
1002
{
1000
#$AUX@_ToolInfo Properties
1070
           8
1000
Insert^JConstruction^JVerticalLine@Construction VerticalLine
1002
}
  0
LINE
  5
11A
100
AcDbEntity
  8
0
370
           0
  6
DASHED
 62
           7
 48
0.300000011921
100
AcDbLine
 10
6.5689
 20
2.645
 30
0.0
 11
7.75
 21
2.645
 31
0.0
1001
TCAD
1000
TCW_CUSTOM_DATA
1002
{
1000
#$AUX@_ToolInfo Properties
1070
           8
1000
Insert^JLine^JSingle@Line Single
1002
}
  0
LINE
  5
11B
100
AcDbEntity
  8
0
370
           0
  6
DASHED
 62
           7
 48
0.300000011921
100
AcDbLine
 10
7.75
 20
2.645
 30
0.0
 11
7.75
 21
-2.645
 31
0.0
1001
TCAD
1000
TCW_CUSTOM_DATA
1002
{
1000
#$AUX@_ToolInfo Properties
1070
           8
1000
Insert^JLine^JSingle@Line Single
1002
}
  0
LINE
  5
11C
100
AcDbEntity
  8
0
370
           0
  6
DASHED
 62
           7
 48
0.300000011921
100
AcDbLine
 10
7.75
 20
-2.645
 30
0.0
 11
6.5689
 21
-2.645
 31
0.0
1001
TCAD
1000
TCW_CUSTOM_DATA
1002
{
1000
#$AUX@_ToolInfo Properties
1070
           8
1000
Insert^JLine^JSingle@Line Single
1002
}
  0
LINE
  5
11D
100
AcDbEntity
  8
0
370
           0
  6
DASHED
 62
           7
 48
0.300000011921
100
AcDbLine
 10
7.75
 20
2.5902
 30
0.0
 11
8.0
 21
2.5902
 31
0.0
1001
TCAD
1000
TCW_CUSTOM_DATA
1002
{
1000
#$AUX@_ToolInfo Properties
1070
           8
1000
Insert^JLine^JSingle@Line Single
1002
}
  0
LINE
  5
11E
100
AcDbEntity
  8
0
370
           0
  6
DASHED
 62
           7
 48
0.300000011921
100
AcDbLine
 10
8.0
 20
2.4702
 30
0.0
 11
7.75
 21
2.4702
 31
0.0
1001
TCAD
1000
TCW_CUSTOM_DATA
1002
{
1000
#$AUX@_ToolInfo Properties
1070
           8
1000
Insert^JLine^JSingle@Line Single
1002
}
  0
LINE
  5
11F
100
AcDbEntity
  8
0
370
           0
  6
DASHED
 62
           7
 48
0.300000011921
100
AcDbLine
 10
7.75
 20
1.878640612892
 30
0.0
 11
8.0
 21
1.878640612892
 31
0.0
1001
TCAD
1000
TCW_CUSTOM_DATA
1002
{
1000
#$AUX@_ToolInfo Properties
1070
           8
1000
Insert^JLine^JSingle@Line Single
1002
}
  0
LINE
  5
120
100
AcDbEntity
  8
0
370
           0
  6
DASHED
 62
           7
 48
0.300000011921
100
AcDbLine
 10
8.0
 20
1.758691414175
 30
0.0
 11
7.75
 21
1.758691414175
 31
0.0
1001
TCAD
1000
TCW_CUSTOM_DATA
1002
{
1000
#$AUX@_ToolInfo Properties
1070
           8
1000
Insert^JLine^JSingle@Line Single
1002
}
  0
LINE
  5
121
100
AcDbEntity
  8
0
370
           0
  6
DASHED
 62
           7
 48
0.300000011921
100
AcDbLine
 10
7.75
 20
1.109971048028
 30
0.0
 11
8.0
 21
1.109971048028
 31
0.0
1001
TCAD
1000
TCW_CUSTOM_DATA
1002
{
1000
#$AUX@_ToolInfo Properties
1070
           8
1000
Insert^JLine^JSingle@Line Single
1002
}
  0
LINE
  5
122
100
AcDbEntity
  8
0
370
           0
  6
DASHED
 62
           7
 48
0.300000011921
100
AcDbLine
 10
7.75
 20
0.990013447014
 30
0.0
 11
8.0
 21
0.990013447014
 31
0.0
1001
TCAD
1000
TCW_CUSTOM_DATA
1002
{
1000
#$AUX@_ToolInfo Properties
1070
           8
1000
Insert^JLine^JSingle@Line Single
1002
}
  0
LINE
  5
123
100
AcDbEntity
  8
0
370
           0
  6
DASHED
 62
           7
 48
0.300000011921
100
AcDbLine
 10
7.75
 20
0.752806644049
 30
0.0
 11
8.0
 21
0.752806644049
 31
0.0
1001
TCAD
1000
TCW_CUSTOM_DATA
1002
{
1000
#$AUX@_ToolInfo Properties
1070
           8
1000
Insert^JLine^JSingle@Line Single
1002
}
  0
LINE
  5
124
100
AcDbEntity
  8
0
370
           0
  6
DASHED
 62
           7
 48
0.300000011921
100
AcDbLine
 10
7.75
 20
0.632888565084
 30
0.0
 11
8.0
 21
0.632888565084
 31
0.0
1001
TCAD
1000
TCW_CUSTOM_DATA
1002
{
1000
#$AUX@_ToolInfo Properties
1070
           8
1000
Insert^JLine^JSingle@Line Single
1002
}
  0
LINE
  5
125
100
AcDbEntity
  8
0
370
           0
  6
DASHED
 62
           7
 48
0.300000011921
100
AcDbLine
 10
7.75
 20
0.459964169355
 30
0.0
 11
8.0
 21
0.459964169355
 31
0.0
1001
TCAD
1000
TCW_CUSTOM_DATA
1002
{
1000
#$AUX@_ToolInfo Properties
1070
           8
1000
Insert^JLine^JSingle@Line Single
1002
}
  0
LINE
  5
126
100
AcDbEntity
  8
0
370
           0
  6
DASHED
 62
           7
 48
0.300000011921
100
AcDbLine
 10
7.75
 20
0.340000942872
 30
0.0
 11
8.0
 21
0.340000942872
 31
0.0
1001
TCAD
1000
TCW_CUSTOM_DATA
1002
{
1000
#$AUX@_ToolInfo Properties
1070
           8
1000
Insert^JLine^JSingle@Line Single
1002
}
  0
LINE
  5
127
100
AcDbEntity
  8
0
370
           0
  6
DASHED
 62
           7
 48
0.300000011921
100
AcDbLine
 10
7.75
 20
0.09845
 30
0.0
 11
8.0
 21
0.09845
 31
0.0
1001
TCAD
1000
TCW_CUSTOM_DATA
1002
{
1000
#$AUX@_ToolInfo Properties
1070
           8
1000
Insert^JLine^JSingle@Line Single
1002
}
  0
LINE
  5
128
100
AcDbEntity
  8
0
370
           0
  6
DASHED
 62
           7
 48
0.300000011921
100
AcDbLine
 10
7.75
 20
-0.09845
 30
0.0
 11
8.0
 21
-0.09845
 31
0.0
1001
TCAD
1000
TCW_CUSTOM_DATA
1002
{
1000
#$AUX@_ToolInfo Properties
1070
           8
1000
Insert^JLine^JSingle@Line Single
1002
}
  0
LINE
  5
129
100
AcDbEntity
  8
0
370
           0
  6
DASHED
 62
           7
 48
0.300000011921
100
AcDbLine
 10
7.75
 20
0.059995782362
 30
0.0
 11
8.0
 21
0.059995782362
 31
0.0
1001
TCAD
1000
TCW_CUSTOM_DATA
1002
{
1000
#$AUX@_ToolInfo Properties
1070
           8
1000
Insert^JLine^JSingle@Line Single
1002
}
  0
LINE
  5
12A
100
AcDbEntity
  8
0
370
           0
  6
DASHED
 62
           7
 48
0.300000011921
100
AcDbLine
 10
8.0
 20
-0.059995782362
 30
0.0
 11
7.75
 21
-0.059995782362
 31
0.0
1001
TCAD
1000
TCW_CUSTOM_DATA
1002
{
1000
#$AUX@_ToolInfo Properties
1070
           8
1000
Insert^JLine^JSingle@Line Single
1002
}
  0
LINE
  5
12B
100
AcDbEntity
  8
0
370
           0
  6
DASHED
 62
           7
 48
0.300000011921
100
AcDbLine
 10
7.75
 20
-0.340042809552
 30
0.0
 11
8.0
 21
-0.340042809552
 31
0.0
1001
TCAD
1000
TCW_CUSTOM_DATA
1002
{
1000
#$AUX@_ToolInfo Properties
1070
           8
1000
Insert^JLine^JSingle@Line Single
1002
}
  0
LINE
  5
12C
100
AcDbEntity
  8
0
370
           0
  6
DASHED
 62
           7
 48
0.300000011921
100
AcDbLine
 10
8.0
 20
-0.459959352275
 30
0.0
 11
7.75
 21
-0.459959352275
 31
0.0
1001
TCAD
1000
TCW_CUSTOM_DATA
1002
{
1000
#$AUX@_ToolInfo Properties
1070
           8
1000
Insert^JLine^JSingle@Line Single
1002
}
  0
LINE
  5
12D
100
AcDbEntity
  8
0
370
           0
  6
DASHED
 62
           7
 48
0.300000011921
100
AcDbLine
 10
7.75
 20
-0.632823647689
 30
0.0
 11
8.0
 21
-0.632823647689
 31
0.0
1001
TCAD
1000
TCW_CUSTOM_DATA
1002
{
1000
#$AUX@_ToolInfo Properties
1070
           8
1000
Insert^JLine^JSingle@Line Single
1002
}
  0
LINE
  5
12E
100
AcDbEntity
  8
0
370
           0
  6
DASHED
 62
           7
 48
0.300000011921
100
AcDbLine
 10
8.0
 20
-0.752674599069
 30
0.0
 11
7.75
 21
-0.752674599069
 31
0.0
1001
TCAD
1000
TCW_CUSTOM_DATA
1002
{
1000
#$AUX@_ToolInfo Properties
1070
           8
1000
Insert^JLine^JSingle@Line Single
1002
}
  0
LINE
  5
12F
100
AcDbEntity
  8
0
370
           0
  6
DASHED
 62
           7
 48
0.300000011921
100
AcDbLine
 10
7.75
 20
-0.990000712746
 30
0.0
 11
8.0
 21
-0.990000712746
 31
0.0
1001
TCAD
1000
TCW_CUSTOM_DATA
1002
{
1000
#$AUX@_ToolInfo Properties
1070
           8
1000
Insert^JLine^JSingle@Line Single
1002
}
  0
LINE
  5
130
100
AcDbEntity
  8
0
370
           0
  6
DASHED
 62
           7
 48
0.300000011921
100
AcDbLine
 10
8.0
 20
-1.109963646791
 30
0.0
 11
7.75
 21
-1.109963646791
 31
0.0
1001
TCAD
1000
TCW_CUSTOM_DATA
1002
{
1000
#$AUX@_ToolInfo Properties
1070
           8
1000
Insert^JLine^JSingle@Line Single
1002
}
  0
LINE
  5
131
100
AcDbEntity
  8
0
370
           0
  6
DASHED
 62
           7
 48
0.300000011921
100
AcDbLine
 10
7.75
 20
-1.758886345862
 30
0.0
 11
8.0
 21
-1.758886345862
 31
0.0
1001
TCAD
1000
TCW_CUSTOM_DATA
1002
{
1000
#$AUX@_ToolInfo Properties
1070
           8
1000
Insert^JLine^JSingle@Line Single
1002
}
  0
LINE
  5
132
100
AcDbEntity
  8
0
370
           0
  6
DASHED
 62
           7
 48
0.300000011921
100
AcDbLine
 10
8.0
 20
-1.878623516647
 30
0.0
 11
7.75
 21
-1.878623516647
 31
0.0
1001
TCAD
1000
TCW_CUSTOM_DATA
1002
{
1000
#$AUX@_ToolInfo Properties
1070
           8
1000
Insert^JLine^JSingle@Line Single
1002
}
  0
LINE
  5
133
100
AcDbEntity
  8
0
370
           0
  6
DASHED
 62
           7
 48
0.300000011921
100
AcDbLine
 10
7.75
 20
-2.4702
 30
0.0
 11
8.0
 21
-2.4702
 31
0.0
1001
TCAD
1000
TCW_CUSTOM_DATA
1002
{
1000
#$AUX@_ToolInfo Properties
1070
           8
1000
Insert^JLine^JSingle@Line Single
1002
}
  0
LINE
  5
134
100
AcDbEntity
  8
0
370
           0
  6
DASHED
 62
           7
 48
0.300000011921
100
AcDbLine
 10
8.0
 20
-2.5902
 30
0.0
 11
7.75
 21
-2.5902
 31
0.0
1001
TCAD
1000
TCW_CUSTOM_DATA
1002
{
1000
#$AUX@_ToolInfo Properties
1070
           8
1000
Insert^JLine^JSingle@Line Single
1002
}
  0
XLINE
  5
135
100
AcDbEntity
  8
$CONSTRUCTION
100
AcDbXline
 10
-6.4840325658
 20
-8.0
 30
0.0
 11
1.0
 21
0.0
 31
0.0
1001
TCAD
1000
TCW_CUSTOM_DATA
1002
{
1000
#$AUX@_ToolInfo Properties
1070
           8
1000
Insert^JConstruction^JHorizontalLine@Construction HorizontalLine
1002
}
  0
XLINE
  5
136
100
AcDbEntity
  8
$CONSTRUCTION
100
AcDbXline
 10
-2.895
 20
-1.435020705648
 30
0.0
 11
0.0
 21
1.0
 31
0.0
1001
TCAD
1000
TCW_CUSTOM_DATA
1002
{
1000
#$AUX@_ToolInfo Properties
1070
           8
1000
Insert^JConstruction^JVerticalLine@Construction VerticalLine
1002
}
  0
XLINE
  5
137
100
AcDbEntity
  8
$CONSTRUCTION
100
AcDbXline
 10
-2.645
 20
-1.435020705648
 30
0.0
 11
0.0
 21
1.0
 31
0.0
1001
TCAD
1000
TCW_CUSTOM_DATA
1002
{
1000
#$AUX@_ToolInfo Properties
1070
           8
1000
Insert^JConstruction^JVerticalLine@Construction VerticalLine
1002
}
  0
XLINE
  5
138
100
AcDbEntity
  8
$CONSTRUCTION
100
AcDbXline
 10
2.895
 20
-1.435020705648
 30
0.0
 11
0.0
 21
1.0
 31
0.0
1001
TCAD
1000
TCW_CUSTOM_DATA
1002
{
1000
#$AUX@_ToolInfo Properties
1070
           8
1000
Insert^JConstruction^JVerticalLine@Construction VerticalLine
1002
}
  0
XLINE
  5
139
100
AcDbEntity
  8
$CONSTRUCTION
100
AcDbXline
 10
2.645
 20
-1.435020705648
 30
0.0
 11
0.0
 21
1.0
 31
0.0
1001
TCAD
1000
TCW_CUSTOM_DATA
1002
{
1000
#$AUX@_ToolInfo Properties
1070
           8
1000
Insert^JConstruction^JVerticalLine@Construction VerticalLine
1002
}
  0
XLINE
  5
13A
100
AcDbEntity
  8
$CONSTRUCTION
100
AcDbXline
 10
-6.4840325658
 20
-7.75
 30
0.0
 11
1.0
 21
0.0
 31
0.0
1001
TCAD
1000
TCW_CUSTOM_DATA
1002
{
1000
#$AUX@_ToolInfo Properties
1070
           8
1000
Insert^JConstruction^JHorizontalLine@Construction HorizontalLine
1002
}
  0
XLINE
  5
13B
100
AcDbEntity
  8
$CONSTRUCTION
100
AcDbXline
 10
-6.4840325658
 20
-6.5689
 30
0.0
 11
1.0
 21
0.0
 31
0.0
1001
TCAD
1000
TCW_CUSTOM_DATA
1002
{
1000
#$AUX@_ToolInfo Properties
1070
           8
1000
Insert^JConstruction^JHorizontalLine@Construction HorizontalLine
1002
}
  0
LWPOLYLINE
  5
13C
100
AcDbEntity
  8
0
370
           0
  6
Continuous
 62
           7
 48
0.300000011921
100
AcDbPolyline
 90
        4
 70
           1
 10
-2.895
 20
-6.5689
 10
2.895
 20
-6.5689
 10
2.895
 20
-8.0
 10
-2.895
 20
-8.0
1001
TCAD
1000
TCW_CUSTOM_DATA
1002
{
1000
#$AUX@_ToolInfo Properties
1070
           8
1000
Insert^JLine^JRectangle@Line Rectangle
1002
}
  0
LINE
  5
13D
100
AcDbEntity
  8
0
370
           0
  6
DASHED
 62
           7
 48
0.300000011921
100
AcDbLine
 10
-2.645
 20
-6.5689
 30
0.0
 11
-2.645
 21
-7.75
 31
0.0
1001
TCAD
1000
TCW_CUSTOM_DATA
1002
{
1000
#$AUX@_ToolInfo Properties
1070
           8
1000
Insert^JLine^JSingle@Line Single
1002
}
  0
LINE
  5
13E
100
AcDbEntity
  8
0
370
           0
  6
DASHED
 62
           7
 48
0.300000011921
100
AcDbLine
 10
-2.645
 20
-7.75
 30
0.0
 11
2.645
 21
-7.75
 31
0.0
1001
TCAD
1000
TCW_CUSTOM_DATA
1002
{
1000
#$AUX@_ToolInfo Properties
1070
           8
1000
Insert^JLine^JSingle@Line Single
1002
}
  0
LINE
  5
13F
100
AcDbEntity
  8
0
370
           0
  6
DASHED
 62
           7
 48
0.300000011921
100
AcDbLine
 10
2.645
 20
-7.75
 30
0.0
 11
2.645
 21
-6.5689
 31
0.0
1001
TCAD
1000
TCW_CUSTOM_DATA
1002
{
1000
#$AUX@_ToolInfo Properties
1070
           8
1000
Insert^JLine^JSingle@Line Single
1002
}
  0
LINE
  5
140
100
AcDbEntity
  8
0
370
           0
  6
DASHED
 62
           7
 48
0.300000011921
100
AcDbLine
 10
-2.5902
 20
-7.75
 30
0.0
 11
-2.5902
 21
-8.0
 31
0.0
1001
TCAD
1000
TCW_CUSTOM_DATA
1002
{
1000
#$AUX@_ToolInfo Properties
1070
           8
1000
Insert^JLine^JSingle@Line Single
1002
}
  0
LINE
  5
141
100
AcDbEntity
  8
0
370
           0
  6
DASHED
 62
           7
 48
0.300000011921
100
AcDbLine
 10
-2.4702
 20
-7.75
 30
0.0
 11
-2.4702
 21
-8.0
 31
0.0
1001
TCAD
1000
TCW_CUSTOM_DATA
1002
{
1000
#$AUX@_ToolInfo Properties
1070
           8
1000
Insert^JLine^JSingle@Line Single
1002
}
  0
LINE
  5
142
100
AcDbEntity
  8
0
370
           0
  6
DASHED
 62
           7
 48
0.300000011921
100
AcDbLine
 10
-1.878330612384
 20
-7.75
 30
0.0
 11
-1.878330612384
 21
-8.0
 31
0.0
1001
TCAD
1000
TCW_CUSTOM_DATA
1002
{
1000
#$AUX@_ToolInfo Properties
1070
           8
1000
Insert^JLine^JSingle@Line Single
1002
}
  0
LINE
  5
143
100
AcDbEntity
  8
0
370
           0
  6
DASHED
 62
           7
 48
0.300000011921
100
AcDbLine
 10
-1.758791225296
 20
-7.75
 30
0.0
 11
-1.758791225296
 21
-8.0
 31
0.0
1001
TCAD
1000
TCW_CUSTOM_DATA
1002
{
1000
#$AUX@_ToolInfo Properties
1070
           8
1000
Insert^JLine^JSingle@Line Single
1002
}
  0
LINE
  5
144
100
AcDbEntity
  8
0
370
           0
  6
DASHED
 62
           7
 48
0.300000011921
100
AcDbLine
 10
-1.109667807812
 20
-7.75
 30
0.0
 11
-1.109667807812
 21
-8.0
 31
0.0
1001
TCAD
1000
TCW_CUSTOM_DATA
1002
{
1000
#$AUX@_ToolInfo Properties
1070
           8
1000
Insert^JLine^JSingle@Line Single
1002
}
  0
LINE
  5
145
100
AcDbEntity
  8
0
370
           0
  6
DASHED
 62
           7
 48
0.300000011921
100
AcDbLine
 10
-0.990052783247
 20
-7.75
 30
0.0
 11
-0.990052783247
 21
-8.0
 31
0.0
1001
TCAD
1000
TCW_CUSTOM_DATA
1002
{
1000
#$AUX@_ToolInfo Properties
1070
           8
1000
Insert^JLine^JSingle@Line Single
1002
}
  0
LINE
  5
146
100
AcDbEntity
  8
0
370
           0
  6
DASHED
 62
           7
 48
0.300000011921
100
AcDbLine
 10
-0.752815628985
 20
-7.75
 30
0.0
 11
-0.752815628985
 21
-8.0
 31
0.0
1001
TCAD
1000
TCW_CUSTOM_DATA
1002
{
1000
#$AUX@_ToolInfo Properties
1070
           8
1000
Insert^JLine^JSingle@Line Single
1002
}
  0
LINE
  5
147
100
AcDbEntity
  8
0
370
           0
  6
DASHED
 62
           7
 48
0.300000011921
100
AcDbLine
 10
-0.632960458803
 20
-7.75
 30
0.0
 11
-0.632960458803
 21
-8.0
 31
0.0
1001
TCAD
1000
TCW_CUSTOM_DATA
1002
{
1000
#$AUX@_ToolInfo Properties
1070
           8
1000
Insert^JLine^JSingle@Line Single
1002
}
  0
LINE
  5
148
100
AcDbEntity
  8
0
370
           0
  6
DASHED
 62
           7
 48
0.300000011921
100
AcDbLine
 10
-0.459892672891
 20
-7.75
 30
0.0
 11
-0.459892672891
 21
-8.0
 31
0.0
1001
TCAD
1000
TCW_CUSTOM_DATA
1002
{
1000
#$AUX@_ToolInfo Properties
1070
           8
1000
Insert^JLine^JSingle@Line Single
1002
}
  0
LINE
  5
149
100
AcDbEntity
  8
0
370
           0
  6
DASHED
 62
           7
 48
0.300000011921
100
AcDbLine
 10
-0.340089094546
 20
-7.75
 30
0.0
 11
-0.340089094546
 21
-8.0
 31
0.0
1001
TCAD
1000
TCW_CUSTOM_DATA
1002
{
1000
#$AUX@_ToolInfo Properties
1070
           8
1000
Insert^JLine^JSingle@Line Single
1002
}
  0
LINE
  5
14A
100
AcDbEntity
  8
0
370
           0
  6
DASHED
 62
           7
 48
0.300000011921
100
AcDbLine
 10
-0.09845
 20
-7.75
 30
0.0
 11
-0.09845
 21
-8.0
 31
0.0
1001
TCAD
1000
TCW_CUSTOM_DATA
1002
{
1000
#$AUX@_ToolInfo Properties
1070
           8
1000
Insert^JLine^JSingle@Line Single
1002
}
  0
LINE
  5
14B
100
AcDbEntity
  8
0
370
           0
  6
DASHED
 62
           7
 48
0.300000011921
100
AcDbLine
 10
0.09845
 20
-7.75
 30
0.0
 11
0.09845
 21
-8.0
 31
0.0
1001
TCAD
1000
TCW_CUSTOM_DATA
1002
{
1000
#$AUX@_ToolInfo Properties
1070
           8
1000
Insert^JLine^JSingle@Line Single
1002
}
  0
LINE
  5
14C
100
AcDbEntity
  8
0
370
           0
  6
DASHED
 62
           7
 48
0.300000011921
100
AcDbLine
 10
-0.059995782362
 20
-7.75
 30
0.0
 11
-0.059995782362
 21
-8.0
 31
0.0
1001
TCAD
1000
TCW_CUSTOM_DATA
1002
{
1000
#$AUX@_ToolInfo Properties
1070
           8
1000
Insert^JLine^JSingle@Line Single
1002
}
  0
LINE
  5
14D
100
AcDbEntity
  8
0
370
           0
  6
DASHED
 62
           7
 48
0.300000011921
100
AcDbLine
 10
0.059995782362
 20
-7.75
 30
0.0
 11
0.059995782362
 21
-8.0
 31
0.0
1001
TCAD
1000
TCW_CUSTOM_DATA
1002
{
1000
#$AUX@_ToolInfo Properties
1070
           8
1000
Insert^JLine^JSingle@Line Single
1002
}
  0
LINE
  5
14E
100
AcDbEntity
  8
0
370
           0
  6
DASHED
 62
           7
 48
0.300000011921
100
AcDbLine
 10
0.340020404954
 20
-7.75
 30
0.0
 11
0.340020404954
 21
-8.0
 31
0.0
1001
TCAD
1000
TCW_CUSTOM_DATA
1002
{
1000
#$AUX@_ToolInfo Properties
1070
           8
1000
Insert^JLine^JSingle@Line Single
1002
}
  0
LINE
  5
14F
100
AcDbEntity
  8
0
370
           0
  6
DASHED
 62
           7
 48
0.300000011921
100
AcDbLine
 10
0.4599807345
 20
-7.75
 30
0.0
 11
0.4599807345
 21
-8.0
 31
0.0
1001
TCAD
1000
TCW_CUSTOM_DATA
1002
{
1000
#$AUX@_ToolInfo Properties
1070
           8
1000
Insert^JLine^JSingle@Line Single
1002
}
  0
LINE
  5
150
100
AcDbEntity
  8
0
370
           0
  6
DASHED
 62
           7
 48
0.300000011921
100
AcDbLine
 10
0.632822416152
 20
-7.75
 30
0.0
 11
0.632822416152
 21
-8.0
 31
0.0
1001
TCAD
1000
TCW_CUSTOM_DATA
1002
{
1000
#$AUX@_ToolInfo Properties
1070
           8
1000
Insert^JLine^JSingle@Line Single
1002
}
  0
LINE
  5
151
100
AcDbEntity
  8
0
370
           0
  6
DASHED
 62
           7
 48
0.300000011921
100
AcDbLine
 10
0.752818322246
 20
-7.75
 30
0.0
 11
0.752818322246
 21
-8.0
 31
0.0
1001
TCAD
1000
TCW_CUSTOM_DATA
1002
{
1000
#$AUX@_ToolInfo Properties
1070
           8
1000
Insert^JLine^JSingle@Line Single
1002
}
  0
LINE
  5
152
100
AcDbEntity
  8
0
370
           0
  6
DASHED
 62
           7
 48
0.300000011921
100
AcDbLine
 10
0.990030467629
 20
-7.75
 30
0.0
 11
0.990030467629
 21
-8.0
 31
0.0
1001
TCAD
1000
TCW_CUSTOM_DATA
1002
{
1000
#$AUX@_ToolInfo Properties
1070
           8
1000
Insert^JLine^JSingle@Line Single
1002
}
  0
LINE
  5
153
100
AcDbEntity
  8
0
370
           0
  6
DASHED
 62
           7
 48
0.300000011921
100
AcDbLine
 10
1.109923466692
 20
-7.75
 30
0.0
 11
1.109923466692
 21
-8.0
 31
0.0
1001
TCAD
1000
TCW_CUSTOM_DATA
1002
{
1000
#$AUX@_ToolInfo Properties
1070
           8
1000
Insert^JLine^JSingle@Line Single
1002
}
  0
LINE
  5
154
100
AcDbEntity
  8
0
370
           0
  6
DASHED
 62
           7
 48
0.300000011921
100
AcDbLine
 10
1.758688113199
 20
-7.75
 30
0.0
 11
1.758688113199
 21
-8.0
 31
0.0
1001
TCAD
1000
TCW_CUSTOM_DATA
1002
{
1000
#$AUX@_ToolInfo Properties
1070
           8
1000
Insert^JLine^JSingle@Line Single
1002
}
  0
LINE
  5
155
100
AcDbEntity
  8
0
370
           0
  6
DASHED
 62
           7
 48
0.300000011921
100
AcDbLine
 10
1.878580599536
 20
-7.75
 30
0.0
 11
1.878580599536
 21
-8.0
 31
0.0
1001
TCAD
1000
TCW_CUSTOM_DATA
1002
{
1000
#$AUX@_ToolInfo Properties
1070
           8
1000
Insert^JLine^JSingle@Line Single
1002
}
  0
LINE
  5
156
100
AcDbEntity
  8
0
370
           0
  6
DASHED
 62
           7
 48
0.300000011921
100
AcDbLine
 10
2.4702
 20
-7.75
 30
0.0
 11
2.4702
 21
-8.0
 31
0.0
1001
TCAD
1000
TCW_CUSTOM_DATA
1002
{
1000
#$AUX@_ToolInfo Properties
1070
           8
1000
Insert^JLine^JSingle@Line Single
1002
}
  0
LINE
  5
157
100
AcDbEntity
  8
0
370
           0
  6
DASHED
 62
           7
 48
0.300000011921
100
AcDbLine
 10
2.5902
 20
-7.75
 30
0.0
 11
2.5902
 21
-8.0
 31
0.0
1001
TCAD
1000
TCW_CUSTOM_DATA
1002
{
1000
#$AUX@_ToolInfo Properties
1070
           8
1000
Insert^JLine^JSingle@Line Single
1002
}
  0
LINE
  5
158
100
AcDbEntity
  8
0
370
           0
  6
DASHDOT
 62
           7
 48
0.300000011921
100
AcDbLine
 10
0.0
 20
2.895
 30
0.0
 11
6.5689
 21
2.895
 31
0.0
1001
TCAD
1000
TCW_CUSTOM_DATA
1002
{
1000
#$AUX@_ToolInfo Properties
1070
           8
1000
Insert^JLine^JSingle@Line Single
1002
}
  0
LINE
  5
159
100
AcDbEntity
  8
0
370
           0
  6
DASHDOT
 62
           7
 48
0.300000011921
100
AcDbLine
 10
-0.0
 20
-2.895
 30
0.0
 11
6.5689
 21
-2.895
 31
0.0
1001
TCAD
1000
TCW_CUSTOM_DATA
1002
{
1000
#$AUX@_ToolInfo Properties
1070
           8
1000
Insert^JLine^JSingle@Line Single
1002
}
  0
LINE
  5
15A
100
AcDbEntity
  8
0
370
           0
  6
DASHDOT
 62
           7
 48
0.300000011921
100
AcDbLine
 10
0.0
 20
0.0
 30
0.0
 11
8.5
 21
0.0
 31
0.0
1001
TCAD
1000
TCW_CUSTOM_DATA
1002
{
1000
#$AUX@_ToolInfo Properties
1070
           8
1000
Insert^JLine^JSingle@Line Single
1002
}
  0
LINE
  5
15B
100
AcDbEntity
  8
0
370
           0
  6
DASHDOT
 62
           7
 48
0.300000011921
100
AcDbLine
 10
-2.895
 20
0.0
 30
0.0
 11
-2.895
 21
-6.5689
 31
0.0
1001
TCAD
1000
TCW_CUSTOM_DATA
1002
{
1000
#$AUX@_ToolInfo Properties
1070
           8
1000
Insert^JLine^JSingle@Line Single
1002
}
  0
LINE
  5
15C
100
AcDbEntity
  8
0
370
           0
  6
DASHDOT
 62
           7
 48
0.300000011921
100
AcDbLine
 10
2.895
 20
-6.5689
 30
0.0
 11
2.895
 21
0.0
 31
0.0
1001
TCAD
1000
TCW_CUSTOM_DATA
1002
{
1000
#$AUX@_ToolInfo Properties
1070
           8
1000
Insert^JLine^JSingle@Line Single
1002
}
  0
LINE
  5
15D
100
AcDbEntity
  8
0
370
           0
  6
DASHDOT
 62
           7
 48
0.300000011921
100
AcDbLine
 10
0.0
 20
-0.0
 30
0.0
 11
-0.0
 21
-8.5
 31
0.0
1001
TCAD
1000
TCW_CUSTOM_DATA
1002
{
1000
#$AUX@_ToolInfo Properties
1070
           8
1000
Insert^JLine^JSingle@Line Single
1002
}
  0
CIRCLE
  5
15E
100
AcDbEntity
  8
0
370
           0
  6
DASHDOT
 62
           7
 48
0.300000011921
100
AcDbCircle
 10
0.0
 20
-0.0
 30
0.0
 40
0.8
1001
TCAD
1000
TCW_CUSTOM_DATA
1002
{
1000
#$AUX@_ToolInfo Properties
1070
           8
1000
Insert^JCircle^JCenterAndPoint@Circle CenterAndPoint
1002
}
  0
CIRCLE
  5
15F
100
AcDbEntity
  8
0
370
           0
  6
DASHDOT
 62
           7
 48
0.300000011921
100
AcDbCircle
 10
0.0
 20
0.0
 30
0.0
 40
2.1
1001
TCAD
1000
TCW_CUSTOM_DATA
1002
{
1000
#$AUX@_ToolInfo Properties
1070
           8
1000
Insert^JCircle^JCenterAndPoint@Circle CenterAndPoint
1002
}
  0
CIRCLE
  5
160
100
AcDbEntity
  8
0
370
           0
  6
DASHDOT
 62
           7
 48
0.300000011921
100
AcDbCircle
 10
0.0
 20
-0.0
 30
0.0
 40
2.5302
1001
TCAD
1000
TCW_CUSTOM_DATA
1002
{
1000
#$AUX@_ToolInfo Properties
1070
           8
1000
Insert^JCircle^JCenterAndPoint@Circle CenterAndPoint
1002
}
  0
LINE
  5
161
100
AcDbEntity
  8
0
370
           0
  6
Continuous
 62
           7
100
AcDbLine
 10
-1.490431763774
 20
2.580552448613
 30
0.0
 11
-1.781661004429
 21
3.085927381535
 31
0.0
1001
TCAD
1000
TCW_ATTRIBUTE
1002
{
1000
<30°>
1002
}
  0
LINE
  5
162
100
AcDbEntity
  8
0
370
           0
  6
Continuous
 62
           7
100
AcDbLine
 10
-2.59040470767
 20
1.497372984776
 30
0.0
 11
-3.085927381535
 21
1.781661004429
 31
0.0
1001
TCAD
1000
TCW_ATTRIBUTE
1002
{
1000
<30°>
1002
}
  0
ARC
  5
163
100
AcDbEntity
  8
0
370
           0
  6
Continuous
 62
           7
100
AcDbCircle
 10
0.0
 20
0.0
 30
0.0
 40
3.438322008857
100
AcDbArc
 50
137.874881403259
 51
145.833112197607
1001
TCAD
1000
TCW_ATTRIBUTE
1002
{
1000
<30°>
1002
}
  0
ARC
  5
164
100
AcDbEntity
  8
0
370
           0
  6
Continuous
 62
           7
100
AcDbCircle
 10
0.0
 20
0.0
 30
0.0
 40
3.438322008857
100
AcDbArc
 50
124.166887802393
 51
131.972857726249
1001
TCAD
1000
TCW_ATTRIBUTE
1002
{
1000
<30°>
1002
}
  0
LWPOLYLINE
  5
167
100
AcDbEntity
  8
0
370
           0
  6
Continuous
 62
           7
100
AcDbPolyline
 90
        4
 70
           0
 10
-1.719161004429
 20
2.977674206062
 40
0.0
 41
0.0
 10
-1.948242361623
 20
2.872422214223
 40
0.0
 41
0.0
 10
-1.913717366293
 20
2.817349310745
 40
0.0
 41
0.0
 10
-1.719161004429
 20
2.977674206062
 40
0.0
 41
0.0
1001
TCAD
1000
TCW_ATTRIBUTE
1002
{
1000
<30°>
1002
}
  0
HATCH
  5
165
100
AcDbEntity
  8
0
  6
Continuous
 62
           7
100
AcDbHatch
 10
0.0
 20
0.0
 30
0.0
210
0.0
220
0.0
230
1.0
  2
SOLID
 70
           1
 71
           1
 91
        1
 92
        3
 72
           0
 73
           1
 93
        3
 10
-1.7191610044287267
 20
2.9776742060616996
 10
-1.9482423616228608
 20
2.8724222142226208
 10
-1.9137173662926197
 20
2.8173493107450773
 97
        1
330
166
 75
           0
 76
           0
 98
        0
1001
TCAD
1000
TCW_ATTRIBUTE
1002
{
1000
<30°>
1002
}
  0
LWPOLYLINE
  5
16A
100
AcDbEntity
  8
0
370
           0
  6
Continuous
 62
           7
100
AcDbPolyline
 90
        4
 70
           0
 10
-2.977674206062
 20
1.719161004429
 40
0.0
 41
0.0
 10
-2.817349310745
 20
1.913717366293
 40
0.0
 41
0.0
 10
-2.872422214223
 20
1.948242361623
 40
0.0
 41
0.0
 10
-2.977674206062
 20
1.719161004429
 40
0.0
 41
0.0
1001
TCAD
1000
TCW_ATTRIBUTE
1002
{
1000
<30°>
1002
}
  0
HATCH
  5
168
100
AcDbEntity
  8
0
  6
Continuous
 62
           7
100
AcDbHatch
 10
0.0
 20
0.0
 30
0.0
210
0.0
220
0.0
230
1.0
  2
SOLID
 70
           1
 71
           1
 91
        1
 92
        3
 72
           0
 73
           1
 93
        3
 10
-2.9776742060616996
 20
1.7191610044287271
 10
-2.8173493107450769
 20
1.9137173662926199
 10
-2.8724222142226203
 20
1.948242361622861
 97
        1
330
169
 75
           0
 76
           0
 98
        0
1001
TCAD
1000
TCW_ATTRIBUTE
1002
{
1000
<30°>
1002
}
  0
MTEXT
  5
16B
100
AcDbEntity
  8
0
  6
Continuous
 62
           7
100
AcDbMText
 10
-2.431260808366
 20
2.431260808366
 30
0.0
 40
0.15
 41
0.0
 71
           5
 72
           1
  1
\A1;30°{}
 73
           1
 44
1.0
1001
TCAD
1000
TCW_REFPOINT
1002
{
1010
-2.431260808366
1020
2.431260808366
1030
0.0
1002
}
1000
TCW_ATTRIBUTE
1002
{
1000
<30°>
1002
}
1000
TCW40_TEXT
1002
{
1000
Times New Roman
1070
           0
1070
         514
1002
}
  0
DIMENSION
  5
177
100
AcDbEntity
  8
0
  6
Continuous
 62
           7
100
AcDbDimension
  2
*D3
 10
-0.97119392928
 20
-2.727234377851
 30
0.0
 11
1.749159636103
 21
3.385759313576
 31
0.0
 70
           3
 71
           5
 72
           1
 41
1.0
 42
0.0
  1
O.D. 5.795"
  3
STANDARD
100
AcDbDiametricDimension
 15
0.97119392928
 25
2.727234377851
 35
0.0
 40
0.5
1001
TCAD
1000
TCW_CUSTOM_DATA
1002
{
1000
#$AUX@_ToolInfo Properties
1070
           8
1000
Insert^JDimension^JDiameter@Dimension Diameter
1002
}
1001
ACAD
1000
DSTYLE
1002
{
1070
         172
1070
           0
1002
}
  0
DIMENSION
  5
183
100
AcDbEntity
  8
0
  6
Continuous
 62
           7
100
AcDbDimension
  2
*D4
 10
-0.454286123624
 20
-2.60569551519
 30
0.0
 11
1.214734386977
 21
3.906774931517
 31
0.0
 70
           3
 71
           5
 72
           1
 41
1.0
 42
0.0
  1
I.D. 5.295"
  3
STANDARD
100
AcDbDiametricDimension
 15
0.454286123624
 25
2.60569551519
 35
0.0
 40
1.130376722457
1001
TCAD
1000
TCW_CUSTOM_DATA
1002
{
1000
#$AUX@_ToolInfo Properties
1070
           8
1000
Insert^JDimension^JDiameter@Dimension Diameter
1002
}
1001
ACAD
1000
DSTYLE
1002
{
1070
         172
1070
           0
1002
}
  0
DIMENSION
  5
18F
100
AcDbEntity
  8
0
  6
Continuous
 62
           7
100
AcDbDimension
  2
*D5
 10
0.044707629364
 20
2.490184654486
 30
0.0
 11
-2.20165154601
 21
3.717245731721
 31
0.0
 70
           3
 71
           5
 72
           1
 41
1.0
 42
0.0
  1
(4) 4/40 clearance holes on a^M^J5.060" diameter bolt circle^M^J4-hole pattern as shown
  3
STANDARD
100
AcDbDiametricDimension
 15
-0.044707629364
 25
2.570215345514
 35
0.0
 40
1.065386856574
1001
TCAD
1000
TCW_CUSTOM_DATA
1002
{
1000
#$AUX@_ToolInfo Properties
1070
           8
1000
Insert^JDimension^JDiameter@Dimension Diameter
1002
}
1001
ACAD
1000
DSTYLE
1002
{
1002
}
  0
DIMENSION
  5
19B
100
AcDbEntity
  8
0
  6
Continuous
 62
           7
100
AcDbDimension
  2
*D6
 10
-1.851232914331
 20
-0.991431640053
 30
0.0
 11
4.577970991477
 21
2.158233400518
 31
0.0
 70
           3
 71
           5
 72
           1
 41
1.0
 42
0.0
  1
(8) 4/40 clearance holes on a^M^J4.200" diameter bolt circle.^M^J12-hole pattern as shown
  3
STANDARD
100
AcDbDiametricDimension
 15
1.851232914331
 25
0.991431640053
 35
0.0
 40
1.546887990073
1001
TCAD
1000
TCW_CUSTOM_DATA
1002
{
1000
#$AUX@_ToolInfo Properties
1070
           8
1000
Insert^JDimension^JDiameter@Dimension Diameter
1002
}
1001
ACAD
1000
DSTYLE
1002
{
1070
         172
1070
           0
1002
}
  0
DIMENSION
  5
1A7
100
AcDbEntity
  8
0
  6
Continuous
 62
           7
100
AcDbDimension
  2
*D7
 10
-0.724688828125
 20
0.338860004119
 30
0.0
 11
4.615306717906
 21
-1.071019042628
 31
0.0
 70
           3
 71
           5
 72
           1
 41
1.0
 42
0.0
  1
(8) 4/40 clearance holes on a ^M^J1.600" diameter bolt  circle.^M^J12-hole pattern as shown^M^J
  3
STANDARD
100
AcDbDiametricDimension
 15
0.724688828125
 25
-0.338860004119
 35
0.0
 40
2.75903682773
1001
TCAD
1000
TCW_CUSTOM_DATA
1002
{
1000
#$AUX@_ToolInfo Properties
1070
           8
1000
Insert^JDimension^JDiameter@Dimension Diameter
1002
}
1001
ACAD
1000
DSTYLE
1002
{
1070
         172
1070
           0
1002
}
  0
DIMENSION
  5
1B3
100
AcDbEntity
  8
0
  6
Continuous
 62
           7
100
AcDbDimension
  2
*D8
 10
-0.096482902306
 20
-0.019581932045
 30
0.0
 11
4.126099627482
 21
0.98983333048
 31
0.0
 70
           3
 71
           5
 72
           1
 41
1.0
 42
0.0
  1
0.197" diameter^M^Jthrough hole
  3
STANDARD
100
AcDbDiametricDimension
 15
0.096482902306
 25
0.019581932045
 35
0.0
 40
3.309420644859
1001
TCAD
1000
TCW_CUSTOM_DATA
1002
{
1000
#$AUX@_ToolInfo Properties
1070
           8
1000
Insert^JDimension^JDiameter@Dimension Diameter
1002
}
1001
ACAD
1000
DSTYLE
1002
{
1002
}
  0
DIMENSION
  5
1C3
100
AcDbEntity
  8
0
  6
Continuous
 62
           7
100
AcDbDimension
  2
*D9
 10
8.0
 20
-3.36830510535
 30
0.0
 11
6.637455908289
 21
-3.18080510535
 31
0.0
 70
           1
 71
           5
 72
           1
 41
1.0
 42
0.0
  1
<0.250>
  3
STANDARD
100
AcDbAlignedDimension
 13
7.75
 23
-2.645
 33
0.0
 14
8.0
 24
-2.645
 34
0.0
1001
TCAD
1000
TCW_CUSTOM_DATA
1002
{
1000
#$AUX@_ToolInfo Properties
1070
           8
1000
Insert^JDimension^JParallel@Dimension Parallel
1002
}
1001
ACAD
1000
DSTYLE
1002
{
1070
         271
1070
           3
1070
         280
1070
           1
1070
           3
1000
<>"
1070
          45
1040
0.00001
1070
         272
1070
           3
1070
          78
1070
           0
1002
}
  0
DIMENSION
  5
1D2
100
AcDbEntity
  8
0
  6
Continuous
 62
           7
100
AcDbDimension
  2
*D10
 10
8.0
 20
3.310831934749
 30
0.0
 11
7.28445
 21
3.498331934749
 31
0.0
 70
           1
 71
           5
 72
           1
 41
1.0
 42
0.0
  1
<1.431>
  3
STANDARD
100
AcDbAlignedDimension
 13
6.5689
 23
2.895
 33
0.0
 14
8.0
 24
2.895
 34
0.0
1001
TCAD
1000
TCW_CUSTOM_DATA
1002
{
1000
#$AUX@_ToolInfo Properties
1070
           8
1000
Insert^JDimension^JParallel@Dimension Parallel
1002
}
1001
ACAD
1000
DSTYLE
1002
{
1070
         271
1070
           3
1070
           3
1000
<>"
1070
          45
1040
0.00001
1070
         272
1070
           3
1002
}
  0
LINE
  5
1D3
100
AcDbEntity
  8
0
370
           0
  6
DASHDOT
 62
           7
 48
0.300000011921
100
AcDbLine
 10
-5.226981077009
 20
0.556938101445
 30
0.0
 11
-5.226981077009
 21
0.556938101445
 31
0.0
1001
TCAD
1000
TCW_CUSTOM_DATA
1002
{
1000
#$AUX@_ToolInfo Properties
1070
           8
1000
Insert^JLine^JSingle@Line Single
1002
}
  0
LINE
  5
1D4
100
AcDbEntity
  8
0
370
           0
  6
DASHDOT
 62
           7
 48
0.300000011921
100
AcDbLine
 10
-2.506437307372
 20
1.446992544598
 30
0.0
 11
-0.071382698748
 21
0.044736959631
 31
0.0
1001
TCAD
1000
TCW_CUSTOM_DATA
1002
{
1000
#$AUX@_ToolInfo Properties
1070
           8
1000
Insert^JLine^JSingle@Line Single
1002
}
  0
LINE
  5
1D5
100
AcDbEntity
  8
0
370
           0
  6
DASHDOT
 62
           7
 48
0.300000011921
100
AcDbLine
 10
-0.071382698748
 20
0.044736959631
 30
0.0
 11
-0.071382698748
 21
0.044736959631
 31
0.0
1001
TCAD
1000
TCW_CUSTOM_DATA
1002
{
1000
#$AUX@_ToolInfo Properties
1070
           8
1000
Insert^JLine^JSingle@Line Single
1002
}
  0
LINE
  5
1D6
100
AcDbEntity
  8
0
370
           0
  6
DASHDOT
 62
           7
 48
0.300000011921
100
AcDbLine
 10
-1.456844803655
 20
2.504981788345
 30
0.0
 11
-0.037795738629
 21
0.08672065978
 31
0.0
1001
TCAD
1000
TCW_CUSTOM_DATA
1002
{
1000
#$AUX@_ToolInfo Properties
1070
           8
1000
Insert^JLine^JSingle@Line Single
1002
}
  0
LINE
  5
1D7
100
AcDbEntity
  8
0
370
           0
  6
DASHDOT
 62
           7
 48
0.300000011921
100
AcDbLine
 10
-0.037795738629
 20
0.08672065978
 30
0.0
 11
-0.037795738629
 21
0.08672065978
 31
0.0
1001
TCAD
1000
TCW_CUSTOM_DATA
1002
{
1000
#$AUX@_ToolInfo Properties
1070
           8
1000
Insert^JLine^JSingle@Line Single
1002
}
  0
LINE
  5
1D8
100
AcDbEntity
  8
0
370
           0
  6
DASHDOT
 62
           7
 48
0.300000011921
100
AcDbLine
 10
-2.892687348741
 20
0.002753259482
 30
0.0
 11
-0.104969658867
 21
0.002753259482
 31
0.0
1001
TCAD
1000
TCW_CUSTOM_DATA
1002
{
1000
#$AUX@_ToolInfo Properties
1070
           8
1000
Insert^JLine^JSingle@Line Single
1002
}
  0
LINE
  5
1D9
100
AcDbEntity
  8
0
370
           0
  6
DASHDOT
 62
           7
 48
0.300000011921
100
AcDbLine
 10
-0.088176178807
 20
-0.005643480547
 30
0.0
 11
-0.071382698748
 21
-0.005643480547
 31
0.0
1001
TCAD
1000
TCW_CUSTOM_DATA
1002
{
1000
#$AUX@_ToolInfo Properties
1070
           8
1000
Insert^JLine^JSingle@Line Single
1002
}
  0
LINE
  5
1DA
100
AcDbEntity
  8
0
370
           0
  6
DASHDOT
 62
           7
 48
0.300000011921
100
AcDbLine
 10
-4.059834212875
 20
-1.508659945871
 30
0.0
 11
-4.059834212875
 21
-1.52545342593
 31
0.0
1001
TCAD
1000
TCW_CUSTOM_DATA
1002
{
1000
#$AUX@_ToolInfo Properties
1070
           8
1000
Insert^JLine^JSingle@Line Single
1002
}
  0
LINE
  5
1DB
100
AcDbEntity
  8
0
370
           0
  6
DASHDOT
 62
           7
 48
0.300000011921
100
AcDbLine
 10
-4.059834212875
 20
-1.52545342593
 30
0.0
 11
-4.059834212875
 21
-1.52545342593
 31
0.0
1001
TCAD
1000
TCW_CUSTOM_DATA
1002
{
1000
#$AUX@_ToolInfo Properties
1070
           8
1000
Insert^JLine^JSingle@Line Single
1002
}
  0
LINE
  5
1DC
100
AcDbEntity
  8
0
370
           0
  6
DASHDOT
 62
           7
 48
0.300000011921
100
AcDbLine
 10
-0.096572918837
 20
-0.056023920726
 30
0.0
 11
-2.506437307372
 21
-1.449882765663
 31
0.0
1001
TCAD
1000
TCW_CUSTOM_DATA
1002
{
1000
#$AUX@_ToolInfo Properties
1070
           8
1000
Insert^JLine^JSingle@Line Single
1002
}
  0
LINE
  5
1DD
100
AcDbEntity
  8
0
370
           0
  6
DASHDOT
 62
           7
 48
0.300000011921
100
AcDbLine
 10
-2.514834047402
 20
-1.449882765663
 30
0.0
 11
-2.514834047402
 21
-1.449882765663
 31
0.0
1001
TCAD
1000
TCW_CUSTOM_DATA
1002
{
1000
#$AUX@_ToolInfo Properties
1070
           8
1000
Insert^JLine^JSingle@Line Single
1002
}
  0
DIMENSION
  5
1EC
100
AcDbEntity
  8
0
  6
Continuous
 62
           7
100
AcDbDimension
  2
*D11
 10
-2.892687348741
 20
0.002753259482
 30
0.0
 11
-3.310853010488
 21
0.88898235984
 31
0.0
 70
           2
 71
           5
 72
           1
 41
1.0
 42
0.0
  1
<30%%d>
  3
STANDARD
100
AcDb2LineAngularDimension
 13
-2.59040470767
 23
1.497372984776
 33
0.0
 14
-3.085927381535
 24
1.781661004429
 34
0.0
 15
-0.104969658867
 25
0.002753259482
 35
0.0
 16
-3.418392637088
 26
0.244757894646
 36
0.0
1001
TCAD
1000
TCW_CUSTOM_DATA
1002
{
1000
#$AUX@_ToolInfo Properties
1070
           8
1000
Insert^JDimension^JAngular@Dimension Angular
1002
}
1001
ACAD
1000
DSTYLE
1002
{
1070
          45
1040
1.0
1002
}
1000
TCW_DSTYLE
1002
{
1070
           0
1002
}
  0
DIMENSION
  5
1FB
100
AcDbEntity
  8
0
  6
Continuous
 62
           7
100
AcDbDimension
  2
*D12
 10
-2.506437307372
 20
-1.449882765663
 30
0.0
 11
-3.318589040316
 21
-0.88921063722
 31
0.0
 70
           2
 71
           5
 72
           1
 41
1.0
 42
0.0
  1
<30%%d>
  3
STANDARD
100
AcDb2LineAngularDimension
 13
-0.104969658867
 23
0.002753259482
 33
0.0
 14
-2.892687348741
 24
0.002753259482
 34
0.0
 15
-0.096572918837
 25
-0.056023920726
 35
0.0
 16
-3.121918941381
 26
-1.433993226373
 36
0.0
1001
TCAD
1000
TCW_CUSTOM_DATA
1002
{
1000
#$AUX@_ToolInfo Properties
1070
           8
1000
Insert^JDimension^JAngular@Dimension Angular
1002
}
1001
ACAD
1000
DSTYLE
1002
{
1070
          45
1040
1.0
1002
}
1000
TCW_DSTYLE
1002
{
1070
           0
1002
}
  0
MTEXT
  5
1FC
100
AcDbEntity
  8
0
  6
Continuous
 62
           7
100
AcDbMText
 10
-3.821926278468
 20
2.442234205082
 30
0.0
 40
0.15
 41
0.733355379189
 71
           1
 72
           1
  1
{typical,\P4 places}
 73
           1
 44
1.0
1001
TCAD
1000
TCW_CUSTOM_DATA
1002
{
1000
#$AUX@_ToolInfo Properties
1070
           8
1000
Insert^JText@Text
1002
}
1000
TCW40_TEXT
1002
{
1000
Times New Roman
1070
           0
1070
         257
1002
}
  0
ARC
  5
1FD
100
AcDbEntity
  8
0
370
           0
  6
Continuous
 62
           7
100
AcDbCircle
 10
-2.471242783348
 20
-7.569533471237
 30
0.0
 40
0.173138958618
100
AcDbArc
 50
177.273689006094
 51
272.6025622025
1001
TCAD
1000
TCW_CUSTOM_DATA
1002
{
1000
#$AUX@_ToolInfo Properties
1070
           8
1000
Insert^JArc^JCenterAndPoint@Arc CenterAndPoint
1002
}
  0
MTEXT
  5
1FE
100
AcDbEntity
  8
0
  6
Continuous
 62
           7
100
AcDbMText
 10
-4.694795501154
 20
-5.798926677429
 30
0.0
 40
0.15
 41
1.617614638448
 71
           1
 72
           1
  1
{.040"R max,\Plocation as shown}
 73
           1
 44
1.0
1001
TCAD
1000
TCW_CUSTOM_DATA
1002
{
1000
#$AUX@_ToolInfo Properties
1070
           8
1000
Insert^JText@Text
1002
}
1000
TCW40_TEXT
1002
{
1000
Times New Roman
1070
           0
1070
         257
1002
}
  0
LEADER
  5
1FF
100
AcDbEntity
  8
0
370
           0
  6
Continuous
 62
           7
100
AcDbLeader
  3
STANDARD
 73
           3
 74
           0
 75
           0
 40
0.0
 76
           4
 10
-2.487820018907
 20
-7.467251345375
 30
0.0
 10
-1.759177668836
 20
-6.002823092782
 30
0.0
 10
-3.035661636465
 20
-5.994587712346
 30
0.0
 10
-3.285661636465
 20
-5.994587712346
 30
0.0
 77
           7
211
0.0001
221
0.0
231
0.0
1001
TCAD
1000
TCW_CUSTOM_DATA
1002
{
1000
#$AUX@_ToolInfo Properties
1070
           8
1000
Insert^JDimension^JLeader@Dimension Leader
1002
}
1001
ACAD
1000
DSTYLE
1002
{
1002
}
  0
MTEXT
  5
200
100
AcDbEntity
  8
0
  6
Continuous
 62
           7
100
AcDbMText
 10
3.507844209088
 20
-5.578285446935
 30
0.0
 40
0.15
 41
2.144400352734
 71
           1
 72
           1
  1
{all tolerances ±0.005"\Punless otherwise shown}
 73
           1
 44
1.0
1001
TCAD
1000
TCW_CUSTOM_DATA
1002
{
1000
#$AUX@_ToolInfo Properties
1070
           8
1000
Insert^JText@Text
1002
}
1000
TCW40_TEXT
1002
{
1000
Times New Roman
1070
           0
1070
         257
1002
}
  0
ENDSEC
  0
SECTION
  2
OBJECTS
  0
DICTIONARY
  5
19
100
AcDbDictionary
280
           0
281
           1
  3
ACAD_GROUP
350
1A
  3
ACAD_MLINESTYLE
350
1B
  3
ACAD_LAYOUT
350
1E
  3
ACAD_PLOTSETTINGS
350
22
  3
ACAD_PLOTSTYLENAME
350
1F
  0
DICTIONARY
  5
1A
102
{ACAD_REACTORS
330
19
102
}
100
AcDbDictionary
280
           0
281
           1
  0
DICTIONARY
  5
1B
102
{ACAD_REACTORS
330
19
102
}
100
AcDbDictionary
280
           0
281
           1
  3
Standard
350
1C
  0
MLINESTYLE
  5
1C
100
AcDbMlineStyle
  2
STANDARD
 70
           0
  3

 62
         256
 51
90.0
 52
90.0
 71
           3
 49
0.25
 62
           7
  6
ByLayer
 49
0.0
 62
           7
  6
ByLayer
 49
-0.25
 62
           7
  6
ByLayer
  0
ACDBDICTIONARYWDFLT
  5
1F
102
{ACAD_REACTORS
330
19
102
}
100
AcDbDictionary
281
           1
  3
Normal
350
1D
100
AcDbDictionaryWithDefault
340
1D
  0
ACDBPLACEHOLDER
  5
1D
102
{ACAD_REACTORS
330
1F
102
}
  0
LAYOUT
  5
21
102
{ACAD_REACTORS
330
1E
102
}
100
AcDbPlotSettings
  1

  2

  4

  6

 40
0.0
 41
0.0
 42
0.0
 43
0.0
 44
0.0
 45
0.0
 46
0.0
 47
0.0
 48
0.0
 49
0.0
140
0.0
141
0.0
142
1.0
143
1.0
 70
           0
 72
           0
 73
           0
 74
           0
  7

 75
           0
147
1.0
148
0.0
149
0.0
100
AcDbLayout
  1
Layout1
 70
           0
 71
           0
 10
0.0
 20
0.0
 11
0.0
 21
0.0
 12
0.0
 22
0.0
 32
0.0
 14
0.0
 24
0.0
 34
0.0
 15
0.0
 25
0.0
 35
0.0
146
0.0
 13
0.0
 23
0.0
 33
0.0
 16
0.0
 26
0.0
 36
0.0
 17
0.0
 27
0.0
 37
0.0
 76
           0
330
B
331
0
345
0
346
0
  0
DICTIONARY
  5
1E
102
{ACAD_REACTORS
330
19
102
}
100
AcDbDictionary
280
           0
281
           1
  3
Model
350
201
  3
Paper 1
350
204
  0
DICTIONARY
  5
22
102
{ACAD_REACTORS
330
19
102
}
100
AcDbDictionary
280
           0
281
           1
  0
LAYOUT
  5
201
100
AcDbPlotSettings
  1

  2

  4

  6

 40
0.0
 41
0.0
 42
0.0
 43
0.0
 44
0.0
 45
0.0
 46
0.0
 47
0.0
 48
0.0
 49
0.0
140
0.0
141
0.0
142
1.0
143
1.0
 70
           0
 72
           0
 73
           0
 74
           0
  7

 75
           0
147
1.0
148
0.0
149
0.0
100
AcDbLayout
  1
Model
 70
           0
 71
           0
 10
0.0
 20
0.0
 11
0.0
 21
0.0
 12
0.0
 22
0.0
 32
0.0
 14
0.0
 24
0.0
 34
0.0
 15
0.0
 25
0.0
 35
0.0
146
0.0
 13
0.0
 23
0.0
 33
0.0
 16
0.0
 26
0.0
 36
0.0
 17
0.0
 27
0.0
 37
0.0
 76
           0
330
A
331
0
345
0
346
0
  0
LAYOUT
  5
204
100
AcDbPlotSettings
  1

  2

  4

  6

 40
4.572
 41
4.61518
 42
4.23418
 43
4.572
 44
279.4
 45
215.9
 46
-4.572
 47
-4.61518
 48
0.0
 49
0.0
140
0.0
141
0.0
142
1.0
143
1.0
 70
           0
 72
           0
 73
           0
 74
           0
  7

 75
           0
147
1.0
148
0.0
149
0.0
100
AcDbLayout
  1
Paper 1
 70
           1
 71
           1
 10
0.0
 20
0.0
 11
279.4
 21
215.9
 12
0.0
 22
0.0
 32
0.0
 14
0.0
 24
0.0
 34
0.0
 15
0.0
 25
0.0
 35
0.0
146
0.0
 13
0.0
 23
0.0
 33
0.0
 16
0.0
 26
0.0
 36
0.0
 17
0.0
 27
0.0
 37
0.0
 76
           0
330
B
331
202
345
0
346
0
  0
ENDSEC
  0
EOF
