  0
SECTION
  2
HEADER
  9
$ACADVER
  1
AC1015
  9
$ACADMAINTVER
 70
           6
  9
$DWGCODEPAGE
  3
ANSI_1252
  9
$INSBASE
 10
0.0
 20
0.0
 30
0.0
  9
$EXTMIN
 10
0.898273629011
 20
0.634702714215
 30
0.0
  9
$EXTMAX
 10
13.37003968254
 20
10.5
 30
0.0
  9
$LIMMIN
 10
0.898273629
 20
0.6347027142
  9
$LIMMAX
 10
13.3700396825
 20
10.5
  9
$ORTHOMODE
 70
           0
  9
$REGENMODE
 70
           1
  9
$FILLMODE
 70
           1
  9
$QTEXTMODE
 70
           0
  9
$MIRRTEXT
 70
           1
  9
$LTSCALE
 40
1.0
  9
$ATTMODE
 70
           1
  9
$TEXTSIZE
 40
0.25
  9
$TRACEWID
 40
1.0
  9
$TEXTSTYLE
  7
STANDARD
  9
$CLAYER
  8
0
  9
$CELTYPE
  6
Continuous
  9
$CECOLOR
 62
           7
  9
$CELTSCALE
 40
1.0
  9
$DISPSILH
 70
           0
  9
$DIMSCALE
 40
1.0
  9
$DIMASZ
 40
0.25
  9
$DIMEXO
 40
0.0625
  9
$DIMDLI
 40
0.375
  9
$DIMRND
 40
0.01
  9
$DIMDLE
 40
0.0
  9
$DIMEXE
 40
0.125
  9
$DIMTP
 40
0.0
  9
$DIMTM
 40
0.0
  9
$DIMTXT
 40
0.15
  9
$DIMCEN
 40
0.09
  9
$DIMTSZ
 40
0.0
  9
$DIMTOL
 70
           0
  9
$DIMLIM
 70
           0
  9
$DIMTIH
 70
           1
  9
$DIMTOH
 70
           1
  9
$DIMSE1
 70
           0
  9
$DIMSE2
 70
           0
  9
$DIMTAD
 70
           1
  9
$DIMZIN
 70
           0
  9
$DIMBLK
  1

  9
$DIMASO
 70
           0
  9
$DIMSHO
 70
           1
  9
$DIMPOST
  1

  9
$DIMAPOST
  1

  9
$DIMALT
 70
           0
  9
$DIMALTD
 70
           2
  9
$DIMALTF
 40
1.0
  9
$DIMLFAC
 40
1.0
  9
$DIMTOFL
 70
           1
  9
$DIMTVP
 40
0.0
  9
$DIMTIX
 70
           0
  9
$DIMSOXD
 70
           0
  9
$DIMSAH
 70
           0
  9
$DIMBLK1
  1

  9
$DIMBLK2
  1

  9
$DIMSTYLE
  2
STANDARD
  9
$DIMCLRD
 70
           7
  9
$DIMCLRE
 70
           7
  9
$DIMCLRT
 70
           7
  9
$DIMTFAC
 40
1.0
  9
$DIMGAP
 40
0.0625
  9
$DIMJUST
 70
           0
  9
$DIMSD1
 70
           0
  9
$DIMSD2
 70
           0
  9
$DIMTOLJ
 70
           1
  9
$DIMTZIN
 70
           0
  9
$DIMALTZ
 70
           8
  9
$DIMALTTZ
 70
           0
  9
$DIMUPT
 70
           0
  9
$DIMDEC
 70
           2
  9
$DIMTDEC
 70
           2
  9
$DIMALTU
 70
           2
  9
$DIMALTTD
 70
           2
  9
$DIMTXSTY
  7
STANDARD
  9
$DIMAUNIT
 70
           0
  9
$DIMADEC
 70
           0
  9
$DIMALTRND
 40
0.0
  9
$DIMAZIN
 70
           0
  9
$DIMDSEP
 70
           0
  9
$DIMATFIT
 70
           0
  9
$DIMFRAC
 70
           0
  9
$DIMLDRBLK
  1

  9
$DIMLUNIT
 70
           2
  9
$DIMLWD
 70
           0
  9
$DIMLWE
 70
           0
  9
$DIMTMOVE
 70
           0
  9
$LUNITS
 70
           2
  9
$LUPREC
 70
           2
  9
$SKETCHINC
 40
1.0
  9
$FILLETRAD
 40
1.0
  9
$AUNITS
 70
           0
  9
$AUPREC
 70
           2
  9
$MENU
  1
acad
  9
$ELEVATION
 40
0.0
  9
$PELEVATION
 40
0.0
  9
$THICKNESS
 40
0.0
  9
$LIMCHECK
 70
           0
  9
$CHAMFERA
 40
0.0
  9
$CHAMFERB
 40
0.0
  9
$CHAMFERC
 40
0.0
  9
$CHAMFERD
 40
0.0
  9
$SKPOLY
 70
           0
  9
$TDCREATE
 40
0.000000000
  9
$TDUCREATE
 40
0.000000000
  9
$TDUPDATE
 40
2449702.667959363
  9
$TDUUPDATE
 40
0.000000000
  9
$TDINDWG
 40
0.0000000000
  9
$TDUSRTIMER
 40
0.0000000000
  9
$USRTIMER
 70
           1
  9
$ANGBASE
 50
0.0
  9
$ANGDIR
 70
           0
  9
$PDMODE
 70
           0
  9
$PDSIZE
 40
0.0
  9
$PLINEWID
 40
0.0
  9
$SPLFRAME
 70
           0
  9
$SPLINETYPE
 70
           5
  9
$SPLINESEGS
 70
          20
  9
$HANDSEED
  5
1C8
  9
$SURFTAB1
 70
           6
  9
$SURFTAB2
 70
           6
  9
$SURFTYPE
 70
           6
  9
$SURFU
 70
           6
  9
$SURFV
 70
           6
  9
$UCSBASE
  2

  9
$UCSNAME
  2

  9
$UCSORG
 10
0.0
 20
0.0
 30
0.0
  9
$UCSXDIR
 10
1.0
 20
0.0
 30
0.0
  9
$UCSYDIR
 10
0.0
 20
1.0
 30
0.0
  9
$UCSORTHOREF
  2

  9
$UCSORTHOVIEW
 70
           0
  9
$UCSORGTOP
 10
0.0
 20
0.0
 30
0.0
  9
$UCSORGBOTTOM
 10
0.0
 20
0.0
 30
0.0
  9
$UCSORGLEFT
 10
0.0
 20
0.0
 30
0.0
  9
$UCSORGRIGHT
 10
0.0
 20
0.0
 30
0.0
  9
$UCSORGFRONT
 10
0.0
 20
0.0
 30
0.0
  9
$UCSORGBACK
 10
0.0
 20
0.0
 30
0.0
  9
$PUCSBASE
  2

  9
$PUCSNAME
  2

  9
$PUCSORG
 10
0.0
 20
0.0
 30
0.0
  9
$PUCSXDIR
 10
1.0
 20
0.0
 30
0.0
  9
$PUCSYDIR
 10
0.0
 20
1.0
 30
0.0
  9
$PUCSORTHOREF
  2

  9
$PUCSORTHOVIEW
 70
           0
  9
$PUCSORGTOP
 10
0.0
 20
0.0
 30
0.0
  9
$PUCSORGBOTTOM
 10
0.0
 20
0.0
 30
0.0
  9
$PUCSORGLEFT
 10
0.0
 20
0.0
 30
0.0
  9
$PUCSORGRIGHT
 10
0.0
 20
0.0
 30
0.0
  9
$PUCSORGFRONT
 10
0.0
 20
0.0
 30
0.0
  9
$PUCSORGBACK
 10
0.0
 20
0.0
 30
0.0
  9
$USERI1
 70
           0
  9
$USERI2
 70
           0
  9
$USERI3
 70
           0
  9
$USERI4
 70
           0
  9
$USERI5
 70
           0
  9
$USERR1
 40
0.0
  9
$USERR2
 40
0.0
  9
$USERR3
 40
0.0
  9
$USERR4
 40
0.0
  9
$USERR5
 40
0.0
  9
$WORLDVIEW
 70
           1
  9
$SHADEDGE
 70
           3
  9
$SHADEDIF
 70
          70
  9
$TILEMODE
 70
           1
  9
$MAXACTVP
 70
          16
  9
$PINSBASE
 10
0.0
 20
0.0
 30
0.0
  9
$PLIMCHECK
 70
           0
  9
$PEXTMIN
 10
0.0
 20
0.0
 30
0.0
  9
$PEXTMAX
 10
0.0
 20
0.0
 30
0.0
  9
$PLIMMIN
 10
0.0
 20
0.0
  9
$PLIMMAX
 10
0.0
 20
0.0
  9
$UNITMODE
 70
           0
  9
$VISRETAIN
 70
           0
  9
$PLINEGEN
 70
           1
  9
$PSLTSCALE
 70
           1
  9
$TREEDEPTH
 70
        3020
  9
$CMLSTYLE
  2
STANDARD
  9
$CMLJUST
 70
           0
  9
$CMLSCALE
 40
1.0
  9
$PROXYGRAPHICS
 70
           0
  9
$MEASUREMENT
 70
           0
  9
$CELWEIGHT
370
           0
  9
$ENDCAPS
280
           0
  9
$JOINSTYLE
280
           0
  9
$LWDISPLAY
290
           0
  9
$INSUNITS
 70
           0
  9
$HYPERLINKBASE
  1

  9
$STYLESHEET
  1

  9
$XEDIT
290
           1
  9
$CEPSNTYPE
380
           0
  9
$PSTYLEMODE
290
           1
  9
$FINGERPRINTGUID
  2

  9
$VERSIONGUID
  2

  9
$EXTNAMES
290
           1
  9
$PSVPSCALE
 40
0.0
  0
ENDSEC
  0
SECTION
  2
CLASSES
  0
CLASS
  1
LWPOLYLINE
  2
AcDbPolyline
  3
AutoCAD 2000
 90
        0
280
           0
281
           1
  0
CLASS
  1
IMAGE
  2
AcDbRasterImage
  3
ISM
 90
    32895
280
           0
281
           1
  0
CLASS
  1
OLE2FRAME
  2
AcDbOle2Frame
  3
AutoCAD 2000
 90
    32768
280
           0
281
           1
  0
CLASS
  1
HATCH
  2
AcDbHatch
  3
AutoCAD 2000
 90
        0
280
           0
281
           1
  0
CLASS
  1
DICTIONARYVAR
  2
AcDbDictionaryVar
  3
AutoCAD 2000
 90
    32768
280
           0
281
           0
  0
CLASS
  1
RASTERVARIABLES
  2
AcDbRasterVariables
  3
ISM
 90
    32768
280
           0
281
           0
  0
CLASS
  1
IMAGEDEF
  2
AcDbRasterImageDef
  3
ISM
 90
    32768
280
           0
281
           0
  0
CLASS
  1
IMAGEDEF_REACTOR
  2
AcDbRasterImageDefReactor
  3
ISM
 90
    32769
280
           0
281
           0
  0
CLASS
  1
IDBUFFER
  2
AcDbIdBuffer
  3
AutoCAD 2000
 90
    32768
280
           0
281
           0
  0
CLASS
  1
SPATIAL_FILTER
  2
AcDbSpatialFilter
  3
AutoCAD 2000
 90
    32768
280
           0
281
           0
  0
CLASS
  1
XRECORD
  2
AcDbXrecord
  3
AutoCAD 2000
 90
    32768
280
           0
281
           0
  0
CLASS
  1
SORTENTSTABLE
  2
AcDbSortentsTable
  3
AutoCAD 2000
 90
    32768
280
           0
281
           0
  0
CLASS
  1
LAYER_INDEX
  2
AcDbLayerIndex
  3
AutoCAD 2000
 90
    32768
280
           0
281
           0
  0
CLASS
  1
SPATIAL_INDEX
  2
AcDbSpatialIndex
  3
AutoCAD 2000
 90
    32768
280
           0
281
           0
  0
CLASS
  1
OBJECT_PTR
  2
CAseDLPNTableRecord
  3
"ASE-LPNTableRecord"
 90
    32769
280
           0
281
           0
  0
CLASS
  1
LAYOUT
  2
AcDbLayout
  3
AutoCAD 2000
 90
        0
280
           0
281
           0
  0
CLASS
  1
PLOTSETTINGS
  2
AcDbPlotSettings
  3
AutoCAD 2000
 90
    32768
280
           0
281
           0
  0
CLASS
  1
ACDBDICTIONARYWDFLT
  2
AcDbDictionaryWithDefault
  3
AutoCAD 2000
 90
        0
280
           0
281
           0
  0
CLASS
  1
ACDBPLACEHOLDER
  2
AcDbPlaceHolder
  3
AutoCAD 2000
 90
        0
280
           0
281
           0
  0
ENDSEC
  0
SECTION
  2
TABLES
  0
TABLE
  2
VPORT
  5
7
100
AcDbSymbolTable
 70
           1
  0
VPORT
  5
15
100
AcDbSymbolTableRecord
100
AcDbViewportTableRecord
  2
*ACTIVE
 70
           0
 10
0.0
 20
0.0
 11
1.0
 21
1.0
 12
0.0
 22
0.0
 13
0.0
 23
0.0
 14
0.5
 24
0.5
 15
0.5
 25
0.5
 16
0.0
 26
0.0
 36
1.0
 17
7.134156655775
 27
5.567351357108
 37
0.0
 40
10.0626032315
 41
1.491228070175
 42
50.0
 43
0.0
 44
0.0
 50
0.0
 51
0.0
 71
           0
 72
         100
 73
           1
 74
           1
 75
           0
 76
           0
 77
           0
 78
           0
281
           0
 65
           0
110
0.0
120
0.0
130
0.0
111
1.0
121
0.0
131
0.0
112
0.0
122
1.0
132
0.0
345
0
346
0
 79
           0
146
0.0
  0
ENDTAB
  0
TABLE
  2
LTYPE
  5
4
100
AcDbSymbolTable
 70
          14
  0
LTYPE
  5
11
100
AcDbSymbolTableRecord
100
AcDbLinetypeTableRecord
  2
ByBlock
 70
          64
  3

 72
          65
 73
           0
 40
0.0
  0
LTYPE
  5
12
100
AcDbSymbolTableRecord
100
AcDbLinetypeTableRecord
  2
ByLayer
 70
          64
  3

 72
          65
 73
           0
 40
0.0
  0
LTYPE
  5
13
100
AcDbSymbolTableRecord
100
AcDbLinetypeTableRecord
  2
Continuous
 70
          64
  3
Solid line
 72
          65
 73
           0
 40
0.0
  0
LTYPE
  5
24
100
AcDbSymbolTableRecord
100
AcDbLinetypeTableRecord
  2
BORDER
 70
           0
  3
BORDER
 72
          65
 73
           6
 40
1.75
 49
0.5
 74
           0
 49
-0.25
 74
           0
 49
0.5
 74
           0
 49
-0.25
 74
           0
 49
0.0
 74
           0
 49
-0.25
 74
           0
  0
LTYPE
  5
25
100
AcDbSymbolTableRecord
100
AcDbLinetypeTableRecord
  2
CENTER
 70
           0
  3
CENTER
 72
          65
 73
           4
 40
2.0
 49
1.25
 74
           0
 49
-0.25
 74
           0
 49
0.25
 74
           0
 49
-0.25
 74
           0
  0
LTYPE
  5
26
100
AcDbSymbolTableRecord
100
AcDbLinetypeTableRecord
  2
DASHDOT
 70
           0
  3
DASHDOT
 72
          65
 73
           4
 40
1.0
 49
0.5
 74
           0
 49
-0.25
 74
           0
 49
0.0
 74
           0
 49
-0.25
 74
           0
  0
LTYPE
  5
27
100
AcDbSymbolTableRecord
100
AcDbLinetypeTableRecord
  2
DASHED
 70
           0
  3
DASHED
 72
          65
 73
           2
 40
0.75
 49
0.5
 74
           0
 49
-0.25
 74
           0
  0
LTYPE
  5
28
100
AcDbSymbolTableRecord
100
AcDbLinetypeTableRecord
  2
DIVIDE
 70
           0
  3
DIVIDE
 72
          65
 73
           6
 40
1.25
 49
0.5
 74
           0
 49
-0.25
 74
           0
 49
0.0
 74
           0
 49
-0.25
 74
           0
 49
0.0
 74
           0
 49
-0.25
 74
           0
  0
LTYPE
  5
29
100
AcDbSymbolTableRecord
100
AcDbLinetypeTableRecord
  2
DOT
 70
           0
  3
DOT
 72
          65
 73
           2
 40
0.25
 49
0.0
 74
           0
 49
-0.25
 74
           0
  0
LTYPE
  5
2A
100
AcDbSymbolTableRecord
100
AcDbLinetypeTableRecord
  2
HIDDEN
 70
           0
  3
HIDDEN
 72
          65
 73
           2
 40
0.375
 49
0.25
 74
           0
 49
-0.125
 74
           0
  0
LTYPE
  5
2B
100
AcDbSymbolTableRecord
100
AcDbLinetypeTableRecord
  2
PHANTOM
 70
           0
  3
PHANTOM
 72
          65
 73
           6
 40
2.5
 49
1.25
 74
           0
 49
-0.25
 74
           0
 49
0.25
 74
           0
 49
-0.25
 74
           0
 49
0.25
 74
           0
 49
-0.25
 74
           0
  0
LTYPE
  5
2C
100
AcDbSymbolTableRecord
100
AcDbLinetypeTableRecord
  2
$INVISIBLE
 70
           0
  3
$INVISIBLE
 72
          65
 73
           2
 40
200.0
 49
-100.0
 74
           0
 49
-100.0
 74
           0
  0
LTYPE
  5
2D
100
AcDbSymbolTableRecord
100
AcDbLinetypeTableRecord
  2
$CONSTRUCTION
 70
           0
  3
$CONSTRUCTION
 72
          65
 73
           4
 40
0.3
 49
0.2
 74
           0
 49
-0.05
 74
           0
 49
0.0
 74
           0
 49
-0.05
 74
           0
  0
LTYPE
  5
2E
100
AcDbSymbolTableRecord
100
AcDbLinetypeTableRecord
  2
$SNAPEXT
 70
           0
  3
$SNAPEXT
 72
          65
 73
           2
 40
0.04
 49
0.02
 74
           0
 49
-0.02
 74
           0
  0
ENDTAB
  0
TABLE
  2
LAYER
  5
2
100
AcDbSymbolTable
 70
           1
  0
LAYER
  5
14
100
AcDbSymbolTableRecord
100
AcDbLayerTableRecord
  2
0
 70
           0
 62
           7
  6
Continuous
290
           1
370
           0
390
0
1001
TCAD
1000
TCW_LAYER_ORDER
1002
{
1071
        0
1002
}
  0
ENDTAB
  0
TABLE
  2
STYLE
  5
3
100
AcDbSymbolTable
 70
           1
  0
STYLE
  5
17
100
AcDbSymbolTableRecord
100
AcDbTextStyleTableRecord
  2
STANDARD
 70
           0
 40
0.0
 41
1.0
 50
0.0
 71
           0
 42
0.15000000596
  3
TIMES.TTF
  4

1001
ACAD
1000
Times New Roman
1071
      290
  0
ENDTAB
  0
TABLE
  2
VIEW
  5
5
100
AcDbSymbolTable
 70
           1
  0
VIEW
  5
2F
100
AcDbSymbolTableRecord
100
AcDbViewTableRecord
  2
View_0
 70
           0
 40
8.267716535433
 10
5.846456692913
 20
4.133858267717
 41
11.692913385827
 11
0.0
 21
0.0
 31
1.0
 12
0.0
 22
0.0
 32
0.0
 42
45.247172312671
 43
0.0
 44
0.0
 50
0.0
 71
           0
281
           0
 72
           0
110
0.0
120
0.0
130
0.0
111
1.0
121
0.0
131
0.0
112
0.0
122
1.0
132
0.0
  0
ENDTAB
  0
TABLE
  2
UCS
  5
6
100
AcDbSymbolTable
 70
           0
  0
ENDTAB
  0
TABLE
  2
APPID
  5
8
100
AcDbSymbolTable
 70
           2
  0
APPID
  5
16
100
AcDbSymbolTableRecord
100
AcDbRegAppTableRecord
  2
ACAD
 70
           0
  0
APPID
  5
23
100
AcDbSymbolTableRecord
100
AcDbRegAppTableRecord
  2
TCAD
 70
           0
  0
ENDTAB
  0
TABLE
  2
DIMSTYLE
  5
9
100
AcDbSymbolTable
 70
           1
100
AcDbDimStyleTable
 71
           0
  0
DIMSTYLE
105
18
100
AcDbSymbolTableRecord
100
AcDbDimStyleTableRecord
  2
STANDARD
 70
           0
  3

  4

 40
1.0
 41
0.25
 42
0.0625
 43
0.375
 44
0.125
 45
0.01
 46
0.0
 47
0.0
 48
0.0
 71
           0
 72
           0
 73
           1
 74
           1
 75
           0
 76
           0
 77
           1
 78
           0
 79
           0
140
0.15
141
0.09
142
0.0
143
1.0
144
1.0
145
0.0
146
1.0
147
0.0625
148
0.01
170
           0
171
           2
172
           1
173
           0
174
           0
175
           0
176
           7
177
           7
178
           7
179
           0
271
           2
272
           2
273
           2
274
           2
275
           0
276
           0
277
           2
278
          46
279
           0
280
           0
281
           0
282
           0
283
           1
284
           0
285
           8
286
           0
288
           0
340
17
341
0
342
0
343
0
344
0
371
          -2
372
          -2
  0
ENDTAB
  0
TABLE
  2
BLOCK_RECORD
  5
1
100
AcDbSymbolTable
 70
          21
  0
BLOCK_RECORD
  5
A
100
AcDbSymbolTableRecord
100
AcDbBlockTableRecord
  2
*MODEL_SPACE
340
1C6
  0
BLOCK_RECORD
  5
B
100
AcDbSymbolTableRecord
100
AcDbBlockTableRecord
  2
*PAPER_SPACE
340
1C7
  0
BLOCK_RECORD
  5
7A
100
AcDbSymbolTableRecord
100
AcDbBlockTableRecord
  2
*D0
340
0
  0
BLOCK_RECORD
  5
89
100
AcDbSymbolTableRecord
100
AcDbBlockTableRecord
  2
*D1
340
0
  0
BLOCK_RECORD
  5
98
100
AcDbSymbolTableRecord
100
AcDbBlockTableRecord
  2
*D2
340
0
  0
BLOCK_RECORD
  5
A7
100
AcDbSymbolTableRecord
100
AcDbBlockTableRecord
  2
*D3
340
0
  0
BLOCK_RECORD
  5
B6
100
AcDbSymbolTableRecord
100
AcDbBlockTableRecord
  2
*D4
340
0
  0
BLOCK_RECORD
  5
C2
100
AcDbSymbolTableRecord
100
AcDbBlockTableRecord
  2
*D5
340
0
  0
BLOCK_RECORD
  5
CE
100
AcDbSymbolTableRecord
100
AcDbBlockTableRecord
  2
*D6
340
0
  0
BLOCK_RECORD
  5
DE
100
AcDbSymbolTableRecord
100
AcDbBlockTableRecord
  2
*D7
340
0
  0
BLOCK_RECORD
  5
EA
100
AcDbSymbolTableRecord
100
AcDbBlockTableRecord
  2
*D8
340
0
  0
BLOCK_RECORD
  5
F6
100
AcDbSymbolTableRecord
100
AcDbBlockTableRecord
  2
*D9
340
0
  0
BLOCK_RECORD
  5
102
100
AcDbSymbolTableRecord
100
AcDbBlockTableRecord
  2
*D10
340
0
  0
BLOCK_RECORD
  5
111
100
AcDbSymbolTableRecord
100
AcDbBlockTableRecord
  2
*D11
340
0
  0
BLOCK_RECORD
  5
120
100
AcDbSymbolTableRecord
100
AcDbBlockTableRecord
  2
*D12
340
0
  0
BLOCK_RECORD
  5
12F
100
AcDbSymbolTableRecord
100
AcDbBlockTableRecord
  2
*D13
340
0
  0
BLOCK_RECORD
  5
164
100
AcDbSymbolTableRecord
100
AcDbBlockTableRecord
  2
*D14
340
0
  0
BLOCK_RECORD
  5
173
100
AcDbSymbolTableRecord
100
AcDbBlockTableRecord
  2
*D15
340
0
  0
BLOCK_RECORD
  5
183
100
AcDbSymbolTableRecord
100
AcDbBlockTableRecord
  2
*D16
340
0
  0
BLOCK_RECORD
  5
193
100
AcDbSymbolTableRecord
100
AcDbBlockTableRecord
  2
*D17
340
0
  0
BLOCK_RECORD
  5
19F
100
AcDbSymbolTableRecord
100
AcDbBlockTableRecord
  2
*D18
340
0
  0
BLOCK_RECORD
  5
1AB
100
AcDbSymbolTableRecord
100
AcDbBlockTableRecord
  2
*D19
340
0
  0
BLOCK_RECORD
  5
1B7
100
AcDbSymbolTableRecord
100
AcDbBlockTableRecord
  2
*D20
340
0
  0
ENDTAB
  0
ENDSEC
  0
SECTION
  2
BLOCKS
  0
BLOCK
  5
D
100
AcDbEntity
  8
0
100
AcDbBlockBegin
  2
*MODEL_SPACE
 70
           0
 10
0.0
 20
0.0
 30
0.0
  3
*MODEL_SPACE
  1

  0
ENDBLK
  5
E
100
AcDbEntity
  8
0
100
AcDbBlockEnd
  0
BLOCK
  5
F
100
AcDbEntity
 67
           1
  8
0
100
AcDbBlockBegin
  2
*PAPER_SPACE
 70
           0
 10
0.0
 20
0.0
 30
0.0
  3
*PAPER_SPACE
  1

  0
ENDBLK
  5
10
100
AcDbEntity
 67
           1
  8
0
100
AcDbBlockEnd
  0
BLOCK
  5
7B
100
AcDbEntity
  8
0
100
AcDbBlockBegin
  2
*D0
 70
           1
 10
0.0
 20
0.0
 30
0.0
  3
*D0
  1

  0
LINE
  5
7C
100
AcDbEntity
  8
0
370
           0
  6
Continuous
 62
           7
100
AcDbLine
 10
12.4375
 20
4.5
 30
0.0
 11
8.695261473378
 21
4.5
 31
0.0
1001
TCAD
1000
TCW_ATTRIBUTE
1002
{
1000
<30°>
1002
}
  0
LINE
  5
7D
100
AcDbEntity
  8
0
370
           0
  6
Continuous
 62
           7
100
AcDbLine
 10
8.282106609658
 20
2.89375
 30
0.0
 11
8.483683958625
 21
2.777369263311
 31
0.0
1001
TCAD
1000
TCW_ATTRIBUTE
1002
{
1000
<30°>
1002
}
  0
ARC
  5
7E
100
AcDbEntity
  8
0
370
           0
  6
Continuous
 62
           7
100
AcDbCircle
 10
5.5
 20
4.5
 30
0.0
 40
3.320261473378
100
AcDbArc
 50
-13.220602410328
 51
-3.451803159628
1001
TCAD
1000
TCW_ATTRIBUTE
1002
{
1000
<30°>
1002
}
  0
ARC
  5
7F
100
AcDbEntity
  8
0
370
           0
  6
Continuous
 62
           7
100
AcDbCircle
 10
5.5
 20
4.5
 30
0.0
 40
3.320261473378
100
AcDbArc
 50
-26.548196840372
 51
-16.794335771501
1001
TCAD
1000
TCW_ATTRIBUTE
1002
{
1000
<30°>
1002
}
  0
LWPOLYLINE
  5
82
100
AcDbEntity
  8
0
370
           0
  6
Continuous
 62
           7
100
AcDbPolyline
 90
        4
 70
           0
 10
8.375430783152
 20
2.839869263311
 40
0.0
 41
0.0
 10
8.493066789348
 20
3.003691636772
 40
0.0
 41
0.0
 10
8.447270827002
 20
3.028323523278
 40
0.0
 41
0.0
 10
8.375430783152
 20
2.839869263311
 40
0.0
 41
0.0
1001
TCAD
1000
TCW_ATTRIBUTE
1002
{
1000
<30°>
1002
}
  0
HATCH
  5
80
100
AcDbEntity
  8
0
  6
Continuous
 62
           7
100
AcDbHatch
 10
0.0
 20
0.0
 30
0.0
210
0.0
220
0.0
230
1.0
  2
SOLID
 70
           1
 71
           1
 91
        1
 92
        3
 72
           0
 73
           1
 93
        3
 10
8.3754307831520247
 20
2.8398692633110474
 10
8.4930667893475444
 20
3.003691636771963
 10
8.4472708270019368
 20
3.0283235232778694
 97
        1
330
81
 75
           0
 76
           0
 98
        0
1001
TCAD
1000
TCW_ATTRIBUTE
1002
{
1000
<30°>
1002
}
  0
LWPOLYLINE
  5
85
100
AcDbEntity
  8
0
370
           0
  6
Continuous
 62
           7
100
AcDbPolyline
 90
        4
 70
           0
 10
8.820261473378
 20
4.5
 40
0.0
 41
0.0
 10
8.788249646378
 20
4.300873801492
 40
0.0
 41
0.0
 10
8.840226056413
 20
4.299307659777
 40
0.0
 41
0.0
 10
8.820261473378
 20
4.5
 40
0.0
 41
0.0
1001
TCAD
1000
TCW_ATTRIBUTE
1002
{
1000
<30°>
1002
}
  0
HATCH
  5
83
100
AcDbEntity
  8
0
  6
Continuous
 62
           7
100
AcDbHatch
 10
0.0
 20
0.0
 30
0.0
210
0.0
220
0.0
230
1.0
  2
SOLID
 70
           1
 71
           1
 91
        1
 92
        3
 72
           0
 73
           1
 93
        3
 10
8.8202614733779132
 20
4.5
 10
8.7882496463775155
 20
4.3008738014923793
 10
8.8402260564125186
 20
4.2993076597768258
 97
        1
330
84
 75
           0
 76
           0
 98
        0
1001
TCAD
1000
TCW_ATTRIBUTE
1002
{
1000
<30°>
1002
}
  0
MTEXT
  5
86
100
AcDbEntity
  8
0
  6
Continuous
 62
           7
100
AcDbMText
 10
8.707126307168
 20
3.64065309597
 30
0.0
 40
0.120000001788
 41
0.0
 71
           5
 72
           1
  1
\A1;30%%d{}
 73
           1
 44
1.0
1001
TCAD
1000
TCW_REFPOINT
1002
{
1010
8.707126307168
1020
3.64065309597
1030
0.0
1002
}
1000
TCW_ATTRIBUTE
1002
{
1000
<30°>
1002
}
  0
ENDBLK
  5
87
100
AcDbEntity
  8
0
100
AcDbBlockEnd
  0
BLOCK
  5
8A
100
AcDbEntity
  8
0
100
AcDbBlockBegin
  2
*D1
 70
           1
 10
0.0
 20
0.0
 30
0.0
  3
*D1
  1

  0
LINE
  5
8B
100
AcDbEntity
  8
0
370
           0
  6
Continuous
 62
           7
100
AcDbLine
 10
8.282106609658
 20
2.89375
 30
0.0
 11
8.481078829243
 21
2.778873335461
 31
0.0
1001
TCAD
1000
TCW_ATTRIBUTE
1002
{
1000
<90°>
1002
}
  0
LINE
  5
8C
100
AcDbEntity
  8
0
370
           0
  6
Continuous
 62
           7
100
AcDbLine
 10
3.89375
 20
1.717893390342
 30
0.0
 11
3.778873335461
 21
1.518921170757
 31
0.0
1001
TCAD
1000
TCW_ATTRIBUTE
1002
{
1000
<90°>
1002
}
  0
ARC
  5
8D
100
AcDbEntity
  8
0
370
           0
  6
Continuous
 62
           7
100
AcDbCircle
 10
5.5
 20
4.5
 30
0.0
 40
3.317253329077
100
AcDbArc
 50
-72.726925946471
 51
-33.454934264482
1001
TCAD
1000
TCW_ATTRIBUTE
1002
{
1000
<90°>
1002
}
  0
ARC
  5
8E
100
AcDbEntity
  8
0
370
           0
  6
Continuous
 62
           7
100
AcDbCircle
 10
5.5
 20
4.5
 30
0.0
 40
3.317253329077
100
AcDbArc
 50
-116.545065735518
 51
-77.249148186187
1001
TCAD
1000
TCW_ATTRIBUTE
1002
{
1000
<90°>
1002
}
  0
LWPOLYLINE
  5
91
100
AcDbEntity
  8
0
370
           0
  6
Continuous
 62
           7
100
AcDbPolyline
 90
        4
 70
           0
 10
3.841373335461
 20
1.62717434623
 40
0.0
 41
0.0
 10
4.005198923153
 20
1.509542816369
 40
0.0
 41
0.0
 10
4.029829558318
 20
1.55533945174
 40
0.0
 41
0.0
 10
3.841373335461
 20
1.62717434623
 40
0.0
 41
0.0
1001
TCAD
1000
TCW_ATTRIBUTE
1002
{
1000
<90°>
1002
}
  0
HATCH
  5
8F
100
AcDbEntity
  8
0
  6
Continuous
 62
           7
100
AcDbHatch
 10
0.0
 20
0.0
 30
0.0
210
0.0
220
0.0
230
1.0
  2
SOLID
 70
           1
 71
           1
 91
        1
 92
        3
 72
           0
 73
           1
 93
        3
 10
3.8413733354613049
 20
1.6271743462304766
 10
4.0051989231525296
 20
1.509542816368687
 10
4.0298295583183288
 20
1.5553394517399592
 97
        1
330
90
 75
           0
 76
           0
 98
        0
1001
TCAD
1000
TCW_ATTRIBUTE
1002
{
1000
<90°>
1002
}
  0
LWPOLYLINE
  5
94
100
AcDbEntity
  8
0
370
           0
  6
Continuous
 62
           7
100
AcDbPolyline
 90
        4
 70
           0
 10
8.37282565377
 20
2.841373335461
 40
0.0
 41
0.0
 10
8.245535224519
 20
2.684934380526
 40
0.0
 41
0.0
 10
8.28976429797
 20
2.657588648469
 40
0.0
 41
0.0
 10
8.37282565377
 20
2.841373335461
 40
0.0
 41
0.0
1001
TCAD
1000
TCW_ATTRIBUTE
1002
{
1000
<90°>
1002
}
  0
HATCH
  5
92
100
AcDbEntity
  8
0
  6
Continuous
 62
           7
100
AcDbHatch
 10
0.0
 20
0.0
 30
0.0
210
0.0
220
0.0
230
1.0
  2
SOLID
 70
           1
 71
           1
 91
        1
 92
        3
 72
           0
 73
           1
 93
        3
 10
8.3728256537695227
 20
2.8413733354613071
 10
8.2455352245193385
 20
2.6849343805258314
 10
8.2897642979699047
 20
2.6575886484693569
 97
        1
330
93
 75
           0
 76
           0
 98
        0
1001
TCAD
1000
TCW_ATTRIBUTE
1002
{
1000
<90°>
1002
}
  0
MTEXT
  5
95
100
AcDbEntity
  8
0
  6
Continuous
 62
           7
100
AcDbMText
 10
6.358568338995
 20
1.295779337101
 30
0.0
 40
0.120000001788
 41
0.0
 71
           5
 72
           1
  1
\A1;90%%d{}
 73
           1
 44
1.0
1001
TCAD
1000
TCW_REFPOINT
1002
{
1010
6.358568338995
1020
1.295779337101
1030
0.0
1002
}
1000
TCW_ATTRIBUTE
1002
{
1000
<90°>
1002
}
  0
ENDBLK
  5
96
100
AcDbEntity
  8
0
100
AcDbBlockEnd
  0
BLOCK
  5
99
100
AcDbEntity
  8
0
100
AcDbBlockBegin
  2
*D2
 70
           1
 10
0.0
 20
0.0
 30
0.0
  3
*D2
  1

  0
LINE
  5
9A
100
AcDbEntity
  8
0
370
           0
  6
Continuous
 62
           7
100
AcDbLine
 10
12.4375
 20
4.5
 30
0.0
 11
9.236992390227
 21
4.5
 31
0.0
1001
TCAD
1000
TCW_ATTRIBUTE
1002
{
1000
<60°>
1002
}
  0
LINE
  5
9B
100
AcDbEntity
  8
0
370
           0
  6
Continuous
 62
           7
100
AcDbLine
 10
7.10625
 20
1.717893390342
 30
0.0
 11
7.493496195114
 21
1.047163305368
 31
0.0
1001
TCAD
1000
TCW_ATTRIBUTE
1002
{
1000
<60°>
1002
}
  0
ARC
  5
9C
100
AcDbEntity
  8
0
370
           0
  6
Continuous
 62
           7
100
AcDbCircle
 10
5.5
 20
4.5
 30
0.0
 40
3.861992390227
100
AcDbArc
 50
-28.301198662854
 51
-2.967493363028
1001
TCAD
1000
TCW_ATTRIBUTE
1002
{
1000
<60°>
1002
}
  0
ARC
  5
9D
100
AcDbEntity
  8
0
370
           0
  6
Continuous
 62
           7
100
AcDbCircle
 10
5.5
 20
4.5
 30
0.0
 40
3.861992390227
100
AcDbArc
 50
-57.032506636972
 51
-31.728404035091
1001
TCAD
1000
TCW_ATTRIBUTE
1002
{
1000
<60°>
1002
}
  0
LWPOLYLINE
  5
A0
100
AcDbEntity
  8
0
370
           0
  6
Continuous
 62
           7
100
AcDbPolyline
 90
        4
 70
           0
 10
7.430996195114
 20
1.155416480841
 40
0.0
 41
0.0
 10
7.615132538436
 20
1.237695318144
 40
0.0
 41
0.0
 10
7.587975191496
 20
1.282040312305
 40
0.0
 41
0.0
 10
7.430996195114
 20
1.155416480841
 40
0.0
 41
0.0
1001
TCAD
1000
TCW_ATTRIBUTE
1002
{
1000
<60°>
1002
}
  0
HATCH
  5
9E
100
AcDbEntity
  8
0
  6
Continuous
 62
           7
100
AcDbHatch
 10
0.0
 20
0.0
 30
0.0
210
0.0
220
0.0
230
1.0
  2
SOLID
 70
           1
 71
           1
 91
        1
 92
        3
 72
           0
 73
           1
 93
        3
 10
7.430996195113555
 20
1.1554164808411493
 10
7.6151325384359536
 20
1.2376953181436749
 10
7.5879751914962812
 20
1.2820403123053414
 97
        1
330
9F
 75
           0
 76
           0
 98
        0
1001
TCAD
1000
TCW_ATTRIBUTE
1002
{
1000
<60°>
1002
}
  0
LWPOLYLINE
  5
A3
100
AcDbEntity
  8
0
370
           0
  6
Continuous
 62
           7
100
AcDbPolyline
 90
        4
 70
           0
 10
9.361992390227
 20
4.5
 40
0.0
 41
0.0
 10
9.330822433646
 20
4.30074028554
 40
0.0
 41
0.0
 10
9.38280499859
 20
4.299393830272
 40
0.0
 41
0.0
 10
9.361992390227
 20
4.5
 40
0.0
 41
0.0
1001
TCAD
1000
TCW_ATTRIBUTE
1002
{
1000
<60°>
1002
}
  0
HATCH
  5
A1
100
AcDbEntity
  8
0
  6
Continuous
 62
           7
100
AcDbHatch
 10
0.0
 20
0.0
 30
0.0
210
0.0
220
0.0
230
1.0
  2
SOLID
 70
           1
 71
           1
 91
        1
 92
        3
 72
           0
 73
           1
 93
        3
 10
9.3619923902271012
 20
4.5
 10
9.3308224336459542
 20
4.3007402855398782
 10
9.3828049985904673
 20
4.2993938302715664
 97
        1
330
A2
 75
           0
 76
           0
 98
        0
1001
TCAD
1000
TCW_ATTRIBUTE
1002
{
1000
<60°>
1002
}
  0
MTEXT
  5
A4
100
AcDbEntity
  8
0
  6
Continuous
 62
           7
100
AcDbMText
 10
8.844583519159
 20
2.569003804886
 30
0.0
 40
0.120000001788
 41
0.0
 71
           5
 72
           1
  1
\A1;60%%d{}
 73
           1
 44
1.0
1001
TCAD
1000
TCW_REFPOINT
1002
{
1010
8.844583519159
1020
2.569003804886
1030
0.0
1002
}
1000
TCW_ATTRIBUTE
1002
{
1000
<60°>
1002
}
  0
ENDBLK
  5
A5
100
AcDbEntity
  8
0
100
AcDbBlockEnd
  0
BLOCK
  5
A8
100
AcDbEntity
  8
0
100
AcDbBlockBegin
  2
*D3
 70
           1
 10
0.0
 20
0.0
 30
0.0
  3
*D3
  1

  0
LINE
  5
A9
100
AcDbEntity
  8
0
370
           0
  6
Continuous
 62
           7
100
AcDbLine
 10
7.10625
 20
1.717893390342
 30
0.0
 11
7.495148642892
 21
1.044301181858
 31
0.0
1001
TCAD
1000
TCW_ATTRIBUTE
1002
{
1000
<90°>
1002
}
  0
LINE
  5
AA
100
AcDbEntity
  8
0
370
           0
  6
Continuous
 62
           7
100
AcDbLine
 10
2.717893390342
 20
2.89375
 30
0.0
 11
2.044301181858
 21
2.504851357108
 31
0.0
1001
TCAD
1000
TCW_ATTRIBUTE
1002
{
1000
<90°>
1002
}
  0
ARC
  5
AB
100
AcDbEntity
  8
0
370
           0
  6
Continuous
 62
           7
100
AcDbCircle
 10
5.5
 20
4.5
 30
0.0
 40
3.865297285785
100
AcDbArc
 50
-103.068451614427
 51
-62.964955538642
1001
TCAD
1000
TCW_ATTRIBUTE
1002
{
1000
<90°>
1002
}
  0
ARC
  5
AC
100
AcDbEntity
  8
0
370
           0
  6
Continuous
 62
           7
100
AcDbCircle
 10
5.5
 20
4.5
 30
0.0
 40
3.865297285785
100
AcDbArc
 50
-147.035044461358
 51
-106.949164469703
1001
TCAD
1000
TCW_ATTRIBUTE
1002
{
1000
<90°>
1002
}
  0
LWPOLYLINE
  5
AF
100
AcDbEntity
  8
0
370
           0
  6
Continuous
 62
           7
100
AcDbPolyline
 90
        4
 70
           0
 10
2.152554357331
 20
2.567351357108
 40
0.0
 41
0.0
 10
2.234829116602
 20
2.383213191626
 40
0.0
 41
0.0
 10
2.279174712198
 20
2.410369556464
 40
0.0
 41
0.0
 10
2.152554357331
 20
2.567351357108
 40
0.0
 41
0.0
1001
TCAD
1000
TCW_ATTRIBUTE
1002
{
1000
<90°>
1002
}
  0
HATCH
  5
AD
100
AcDbEntity
  8
0
  6
Continuous
 62
           7
100
AcDbHatch
 10
0.0
 20
0.0
 30
0.0
210
0.0
220
0.0
230
1.0
  2
SOLID
 70
           1
 71
           1
 91
        1
 92
        3
 72
           0
 73
           1
 93
        3
 10
2.1525543573314203
 20
2.5673513571076616
 10
2.2348291166022078
 20
2.3832131916260484
 10
2.2791747121984973
 20
2.4103695564639707
 97
        1
330
AE
 75
           0
 76
           0
 98
        0
1001
TCAD
1000
TCW_ATTRIBUTE
1002
{
1000
<90°>
1002
}
  0
LWPOLYLINE
  5
B2
100
AcDbEntity
  8
0
370
           0
  6
Continuous
 62
           7
100
AcDbPolyline
 90
        4
 70
           0
 10
7.432648642892
 20
1.152554357331
 40
0.0
 41
0.0
 10
7.244501298619
 20
1.079914307476
 40
0.0
 41
0.0
 10
7.269327528533
 20
1.034223407853
 40
0.0
 41
0.0
 10
7.432648642892
 20
1.152554357331
 40
0.0
 41
0.0
1001
TCAD
1000
TCW_ATTRIBUTE
1002
{
1000
<90°>
1002
}
  0
HATCH
  5
B0
100
AcDbEntity
  8
0
  6
Continuous
 62
           7
100
AcDbHatch
 10
0.0
 20
0.0
 30
0.0
210
0.0
220
0.0
230
1.0
  2
SOLID
 70
           1
 71
           1
 91
        1
 92
        3
 72
           0
 73
           1
 93
        3
 10
7.4326486428923468
 20
1.1525543573314254
 10
7.2445012986194124
 20
1.0799143074757029
 10
7.2693275285327887
 20
1.0342234078534791
 97
        1
330
B1
 75
           0
 76
           0
 98
        0
1001
TCAD
1000
TCW_ATTRIBUTE
1002
{
1000
<90°>
1002
}
  0
MTEXT
  5
B3
100
AcDbEntity
  8
0
  6
Continuous
 62
           7
100
AcDbMText
 10
4.499587447456
 20
0.766409525376
 30
0.0
 40
0.120000001788
 41
0.0
 71
           5
 72
           1
  1
\A1;90%%d{}
 73
           1
 44
1.0
1001
TCAD
1000
TCW_REFPOINT
1002
{
1010
4.499587447456
1020
0.766409525376
1030
0.0
1002
}
1000
TCW_ATTRIBUTE
1002
{
1000
<90°>
1002
}
  0
ENDBLK
  5
B4
100
AcDbEntity
  8
0
100
AcDbBlockEnd
  0
BLOCK
  5
B7
100
AcDbEntity
  8
0
100
AcDbBlockBegin
  2
*D4
 70
           1
 10
0.0
 20
0.0
 30
0.0
  3
*D4
  1

  0
MTEXT
  5
B8
100
AcDbEntity
  8
0
  6
Continuous
 62
           7
100
AcDbMText
 10
2.164322562869
 20
4.901015401467
 30
0.0
 40
0.120000001788
 41
0.0
 71
           5
 72
           1
  1
\A1;%%c0.197{}in
 73
           1
 44
1.0
1001
TCAD
1000
TCW_REFPOINT
1002
{
1010
2.164322562869
1020
4.901015401467
1030
0.0
1002
}
1000
TCW_ATTRIBUTE
1002
{
1000
<%%c0.197>
1002
}
  0
LWPOLYLINE
  5
B9
100
AcDbEntity
  8
0
370
           0
  6
Continuous
 62
           7
100
AcDbPolyline
 90
        3
 70
           0
 10
5.204658835799
 20
4.54331104626
 40
0.0
 41
0.0
 10
2.765446906539
 20
4.901015401467
 40
0.0
 41
0.0
 10
2.565446906539
 20
4.901015401467
 40
0.0
 41
0.0
1001
TCAD
1000
TCW_ATTRIBUTE
1002
{
1000
<%%c0.197>
1002
}
  0
LINE
  5
BA
100
AcDbEntity
  8
0
370
           0
  6
Continuous
 62
           7
100
AcDbLine
 10
5.597457637098
 20
4.485708080212
 30
0.0
 11
5.597457637098
 21
4.485708080212
 31
0.0
1001
TCAD
1000
TCW_ATTRIBUTE
1002
{
1000
<%%c0.197>
1002
}
  0
LWPOLYLINE
  5
BD
100
AcDbEntity
  8
0
370
           0
  6
Continuous
 62
           7
100
AcDbPolyline
 90
        4
 70
           0
 10
5.402542362902
 20
4.514291919788
 40
0.0
 41
0.0
 10
5.20843132224
 20
4.569035904784
 40
0.0
 41
0.0
 10
5.200886349357
 20
4.517586187737
 40
0.0
 41
0.0
 10
5.402542362902
 20
4.514291919788
 40
0.0
 41
0.0
1001
TCAD
1000
TCW_ATTRIBUTE
1002
{
1000
<%%c0.197>
1002
}
  0
HATCH
  5
BB
100
AcDbEntity
  8
0
  6
Continuous
 62
           7
100
AcDbHatch
 10
0.0
 20
0.0
 30
0.0
210
0.0
220
0.0
230
1.0
  2
SOLID
 70
           1
 71
           1
 91
        1
 92
        3
 72
           0
 73
           1
 93
        3
 10
5.40254236290171
 20
4.5142919197877021
 10
5.208431322240008
 20
4.5690359047835987
 10
5.2008863493571607
 20
4.5175861877367858
 97
        1
330
BC
 75
           0
 76
           0
 98
        0
1001
TCAD
1000
TCW_ATTRIBUTE
1002
{
1000
<%%c0.197>
1002
}
  0
LWPOLYLINE
  5
BE
100
AcDbEntity
  8
0
370
           0
  6
Continuous
 62
           7
100
AcDbPolyline
 90
        2
 70
           0
 10
5.4
 20
4.5
 10
5.6
 20
4.5
1001
TCAD
1000
TCW_ATTRIBUTE
1002
{
1000
<%%c0.197>
1002
}
  0
LWPOLYLINE
  5
BF
100
AcDbEntity
  8
0
370
           0
  6
Continuous
 62
           7
100
AcDbPolyline
 90
        2
 70
           0
 10
5.5
 20
4.4
 40
0.0
 41
0.0
 10
5.5
 20
4.6
 40
0.0
 41
0.0
1001
TCAD
1000
TCW_ATTRIBUTE
1002
{
1000
<%%c0.197>
1002
}
  0
ENDBLK
  5
C0
100
AcDbEntity
  8
0
100
AcDbBlockEnd
  0
BLOCK
  5
C3
100
AcDbEntity
  8
0
100
AcDbBlockBegin
  2
*D5
 70
           1
 10
0.0
 20
0.0
 30
0.0
  3
*D5
  1

  0
MTEXT
  5
C4
100
AcDbEntity
  8
0
  6
Continuous
 62
           7
100
AcDbMText
 10
1.966287243954
 20
5.187129321501
 30
0.0
 40
0.120000001788
 41
0.0
 71
           5
 72
           1
  1
\A1;%%c5.4{}in
 73
           1
 44
1.0
1001
TCAD
1000
TCW_REFPOINT
1002
{
1010
1.966287243954
1020
5.187129321501
1030
0.0
1002
}
1000
TCW_ATTRIBUTE
1002
{
1000
<%%c5.4>
1002
}
  0
LWPOLYLINE
  5
C5
100
AcDbEntity
  8
0
370
           0
  6
Continuous
 62
           7
100
AcDbPolyline
 90
        3
 70
           0
 10
2.672136810217
 20
5.142798397533
 40
0.0
 41
0.0
 10
2.477111762646
 20
5.187129321501
 40
0.0
 41
0.0
 10
2.277111762646
 20
5.187129321501
 40
0.0
 41
0.0
1001
TCAD
1000
TCW_ATTRIBUTE
1002
{
1000
<%%c5.4>
1002
}
  0
LINE
  5
C6
100
AcDbEntity
  8
0
370
           0
  6
Continuous
 62
           7
100
AcDbLine
 10
8.132838142212
 20
3.901532526435
 30
0.0
 11
8.132838142212
 21
3.901532526435
 31
0.0
1001
TCAD
1000
TCW_ATTRIBUTE
1002
{
1000
<%%c5.4>
1002
}
  0
LWPOLYLINE
  5
C9
100
AcDbEntity
  8
0
370
           0
  6
Continuous
 62
           7
100
AcDbPolyline
 90
        4
 70
           0
 10
2.867161857788
 20
5.098467473565
 40
0.0
 41
0.0
 10
2.677899830333
 20
5.168151653717
 40
0.0
 41
0.0
 10
2.666373790101
 20
5.117445141349
 40
0.0
 41
0.0
 10
2.867161857788
 20
5.098467473565
 40
0.0
 41
0.0
1001
TCAD
1000
TCW_ATTRIBUTE
1002
{
1000
<%%c5.4>
1002
}
  0
HATCH
  5
C7
100
AcDbEntity
  8
0
  6
Continuous
 62
           7
100
AcDbHatch
 10
0.0
 20
0.0
 30
0.0
210
0.0
220
0.0
230
1.0
  2
SOLID
 70
           1
 71
           1
 91
        1
 92
        3
 72
           0
 73
           1
 93
        3
 10
2.8671618577883562
 20
5.0984674735652193
 10
2.6778998303329367
 20
5.168151653717274
 10
2.6663737901013098
 20
5.1174451413487532
 97
        1
330
C8
 75
           0
 76
           0
 98
        0
1001
TCAD
1000
TCW_ATTRIBUTE
1002
{
1000
<%%c5.4>
1002
}
  0
LWPOLYLINE
  5
CA
100
AcDbEntity
  8
0
370
           0
  6
Continuous
 62
           7
100
AcDbPolyline
 90
        2
 70
           0
 10
5.4
 20
4.5
 10
5.6
 20
4.5
1001
TCAD
1000
TCW_ATTRIBUTE
1002
{
1000
<%%c5.4>
1002
}
  0
LWPOLYLINE
  5
CB
100
AcDbEntity
  8
0
370
           0
  6
Continuous
 62
           7
100
AcDbPolyline
 90
        2
 70
           0
 10
5.5
 20
4.4
 40
0.0
 41
0.0
 10
5.5
 20
4.6
 40
0.0
 41
0.0
1001
TCAD
1000
TCW_ATTRIBUTE
1002
{
1000
<%%c5.4>
1002
}
  0
ENDBLK
  5
CC
100
AcDbEntity
  8
0
100
AcDbBlockEnd
  0
BLOCK
  5
CF
100
AcDbEntity
  8
0
100
AcDbBlockBegin
  2
*D6
 70
           1
 10
0.0
 20
0.0
 30
0.0
  3
*D6
  1

  0
MTEXT
  5
D0
100
AcDbEntity
  8
0
  6
Continuous
 62
           7
100
AcDbMText
 10
1.97278983423
 20
4.683451371629
 30
0.0
 40
0.120000001788
 41
0.0
 71
           5
 72
           1
  1
\A1;%%c0.11{}in
 73
           1
 44
1.0
1001
TCAD
1000
TCW_REFPOINT
1002
{
1010
1.97278983423
1020
4.683451371629
1030
0.0
1002
}
1000
TCW_ATTRIBUTE
1002
{
1000
<%%c0.11>
1002
}
  0
LWPOLYLINE
  5
D1
100
AcDbEntity
  8
0
370
           0
  6
Continuous
 62
           7
100
AcDbPolyline
 90
        3
 70
           0
 10
2.734356006734
 20
4.597934294478
 40
0.0
 41
0.0
 10
2.528764265411
 20
4.683451371629
 40
0.0
 41
0.0
 10
2.328764265411
 20
4.683451371629
 40
0.0
 41
0.0
1001
TCAD
1000
TCW_ATTRIBUTE
1002
{
1000
<%%c0.11>
1002
}
  0
LINE
  5
D2
100
AcDbEntity
  8
0
370
           0
  6
Continuous
 62
           7
100
AcDbLine
 10
3.020582037763
 20
4.478876916877
 30
0.0
 11
3.020582037763
 21
4.478876916877
 31
0.0
1001
TCAD
1000
TCW_ATTRIBUTE
1002
{
1000
<%%c0.11>
1002
}
  0
LWPOLYLINE
  5
D5
100
AcDbEntity
  8
0
370
           0
  6
Continuous
 62
           7
100
AcDbPolyline
 90
        4
 70
           0
 10
2.919017962237
 20
4.521123083123
 40
0.0
 41
0.0
 10
2.74434146421
 20
4.621940348693
 40
0.0
 41
0.0
 10
2.724370549258
 20
4.573928240262
 40
0.0
 41
0.0
 10
2.919017962237
 20
4.521123083123
 40
0.0
 41
0.0
1001
TCAD
1000
TCW_ATTRIBUTE
1002
{
1000
<%%c0.11>
1002
}
  0
HATCH
  5
D3
100
AcDbEntity
  8
0
  6
Continuous
 62
           7
100
AcDbHatch
 10
0.0
 20
0.0
 30
0.0
210
0.0
220
0.0
230
1.0
  2
SOLID
 70
           1
 71
           1
 91
        1
 92
        3
 72
           0
 73
           1
 93
        3
 10
2.9190179622366998
 20
4.5211230831226592
 10
2.7443414642099566
 20
4.6219403486931609
 10
2.7243705492576242
 20
4.5739282402624051
 97
        1
330
D4
 75
           0
 76
           0
 98
        0
1001
TCAD
1000
TCW_ATTRIBUTE
1002
{
1000
<%%c0.11>
1002
}
  0
LWPOLYLINE
  5
D6
100
AcDbEntity
  8
0
370
           0
  6
Continuous
 62
           7
100
AcDbPolyline
 90
        2
 70
           0
 10
2.8698
 20
4.5
 10
3.0698
 20
4.5
1001
TCAD
1000
TCW_ATTRIBUTE
1002
{
1000
<%%c0.11>
1002
}
  0
LWPOLYLINE
  5
D7
100
AcDbEntity
  8
0
370
           0
  6
Continuous
 62
           7
100
AcDbPolyline
 90
        2
 70
           0
 10
2.9698
 20
4.4
 40
0.0
 41
0.0
 10
2.9698
 20
4.6
 40
0.0
 41
0.0
1001
TCAD
1000
TCW_ATTRIBUTE
1002
{
1000
<%%c0.11>
1002
}
  0
ENDBLK
  5
D8
100
AcDbEntity
  8
0
100
AcDbBlockEnd
  0
BLOCK
  5
DF
100
AcDbEntity
  8
0
100
AcDbBlockBegin
  2
*D7
 70
           1
 10
0.0
 20
0.0
 30
0.0
  3
*D7
  1

  0
MTEXT
  5
E0
100
AcDbEntity
  8
0
  6
Continuous
 62
           7
100
AcDbMText
 10
3.458499909348
 20
10.13824837689
 30
0.0
 40
0.120000001788
 41
0.0
 71
           5
 72
           1
  1
\A1;%%c5.0604{}in diameter bolt circle\Pwith (4) 0.1100 diameter through holes\Pequally spaced (as shown)
 73
           1
 44
1.0
1001
TCAD
1000
TCW_REFPOINT
1002
{
1010
3.458499909348
1020
10.13824837689
1030
0.0
1002
}
1000
TCW_ATTRIBUTE
1002
{
1000
<%%c5.0604> diameter bolt circle^M^Jwith (4) 0.1100 diameter through holes^M^Jequally spaced (as shown)
1002
}
  0
LWPOLYLINE
  5
E1
100
AcDbEntity
  8
0
370
           0
  6
Continuous
 62
           7
100
AcDbPolyline
 90
        3
 70
           0
 10
5.293785474473
 20
7.222401074321
 40
0.0
 41
0.0
 10
5.072917919842
 20
10.13824837689
 40
0.0
 41
0.0
 10
4.872917919842
 20
10.13824837689
 40
0.0
 41
0.0
1001
TCAD
1000
TCW_ATTRIBUTE
1002
{
1000
<%%c5.0604> diameter bolt circle^M^Jwith (4) 0.1100 diameter through holes^M^Jequally spaced (as shown)
1002
}
  0
LINE
  5
E2
100
AcDbEntity
  8
0
370
           0
  6
Continuous
 62
           7
100
AcDbLine
 10
5.69110834096
 20
1.977027617667
 30
0.0
 11
5.69110834096
 21
1.977027617667
 31
0.0
1001
TCAD
1000
TCW_ATTRIBUTE
1002
{
1000
<%%c5.0604> diameter bolt circle^M^Jwith (4) 0.1100 diameter through holes^M^Jequally spaced (as shown)
1002
}
  0
LWPOLYLINE
  5
E5
100
AcDbEntity
  8
0
370
           0
  6
Continuous
 62
           7
100
AcDbPolyline
 90
        4
 70
           0
 10
5.30889165904
 20
7.022972382333
 40
0.0
 41
0.0
 10
5.319711204431
 20
7.224364878314
 40
0.0
 41
0.0
 10
5.267859744515
 20
7.220437270327
 40
0.0
 41
0.0
 10
5.30889165904
 20
7.022972382333
 40
0.0
 41
0.0
1001
TCAD
1000
TCW_ATTRIBUTE
1002
{
1000
<%%c5.0604> diameter bolt circle^M^Jwith (4) 0.1100 diameter through holes^M^Jequally spaced (as shown)
1002
}
  0
HATCH
  5
E3
100
AcDbEntity
  8
0
  6
Continuous
 62
           7
100
AcDbHatch
 10
0.0
 20
0.0
 30
0.0
210
0.0
220
0.0
230
1.0
  2
SOLID
 70
           1
 71
           1
 91
        1
 92
        3
 72
           0
 73
           1
 93
        3
 10
5.308891659040107
 20
7.0229723823330987
 10
5.3197112044312549
 20
7.2243648783142769
 10
5.2678597445145199
 20
7.2204372703268005
 97
        1
330
E4
 75
           0
 76
           0
 98
        0
1001
TCAD
1000
TCW_ATTRIBUTE
1002
{
1000
<%%c5.0604> diameter bolt circle^M^Jwith (4) 0.1100 diameter through holes^M^Jequally spaced (as shown)
1002
}
  0
LWPOLYLINE
  5
E6
100
AcDbEntity
  8
0
370
           0
  6
Continuous
 62
           7
100
AcDbPolyline
 90
        2
 70
           0
 10
5.4
 20
4.5
 10
5.6
 20
4.5
1001
TCAD
1000
TCW_ATTRIBUTE
1002
{
1000
<%%c5.0604> diameter bolt circle^M^Jwith (4) 0.1100 diameter through holes^M^Jequally spaced (as shown)
1002
}
  0
LWPOLYLINE
  5
E7
100
AcDbEntity
  8
0
370
           0
  6
Continuous
 62
           7
100
AcDbPolyline
 90
        2
 70
           0
 10
5.5
 20
4.4
 40
0.0
 41
0.0
 10
5.5
 20
4.6
 40
0.0
 41
0.0
1001
TCAD
1000
TCW_ATTRIBUTE
1002
{
1000
<%%c5.0604> diameter bolt circle^M^Jwith (4) 0.1100 diameter through holes^M^Jequally spaced (as shown)
1002
}
  0
ENDBLK
  5
E8
100
AcDbEntity
  8
0
100
AcDbBlockEnd
  0
BLOCK
  5
EB
100
AcDbEntity
  8
0
100
AcDbBlockBegin
  2
*D8
 70
           1
 10
0.0
 20
0.0
 30
0.0
  3
*D8
  1

  0
MTEXT
  5
EC
100
AcDbEntity
  8
0
  6
Continuous
 62
           7
100
AcDbMText
 10
2.779419815393
 20
9.176833449104
 30
0.0
 40
0.120000001788
 41
0.0
 71
           5
 72
           1
  1
\A1;%%c4.2{}in diameter bolt circle with \P0.275 diameter through holes located as shown
 73
           1
 44
1.0
1001
TCAD
1000
TCW_REFPOINT
1002
{
1010
2.779419815393
1020
9.176833449104
1030
0.0
1002
}
1000
TCW_ATTRIBUTE
1002
{
1000
<%%c4.2> diameter bolt circle with ^M^J0.275 diameter through holes located as shown
1002
}
  0
LWPOLYLINE
  5
ED
100
AcDbEntity
  8
0
370
           0
  6
Continuous
 62
           7
100
AcDbPolyline
 90
        3
 70
           0
 10
5.10146559909
 20
6.765208672792
 40
0.0
 41
0.0
 10
4.677171163442
 20
9.176833449104
 40
0.0
 41
0.0
 10
4.477171163442
 20
9.176833449104
 40
0.0
 41
0.0
1001
TCAD
1000
TCW_ATTRIBUTE
1002
{
1000
<%%c4.2> diameter bolt circle with ^M^J0.275 diameter through holes located as shown
1002
}
  0
LINE
  5
EE
100
AcDbEntity
  8
0
370
           0
  6
Continuous
 62
           7
100
AcDbLine
 10
5.863879235613
 20
2.431765994407
 30
0.0
 11
5.863879235613
 21
2.431765994407
 31
0.0
1001
TCAD
1000
TCW_ATTRIBUTE
1002
{
1000
<%%c4.2> diameter bolt circle with ^M^J0.275 diameter through holes located as shown
1002
}
  0
LWPOLYLINE
  5
F1
100
AcDbEntity
  8
0
370
           0
  6
Continuous
 62
           7
100
AcDbPolyline
 90
        4
 70
           0
 10
5.136120764387
 20
6.568234005593
 40
0.0
 41
0.0
 10
5.127072305826
 20
6.76971384428
 40
0.0
 41
0.0
 10
5.075858892354
 20
6.760703501303
 40
0.0
 41
0.0
 10
5.136120764387
 20
6.568234005593
 40
0.0
 41
0.0
1001
TCAD
1000
TCW_ATTRIBUTE
1002
{
1000
<%%c4.2> diameter bolt circle with ^M^J0.275 diameter through holes located as shown
1002
}
  0
HATCH
  5
EF
100
AcDbEntity
  8
0
  6
Continuous
 62
           7
100
AcDbHatch
 10
0.0
 20
0.0
 30
0.0
210
0.0
220
0.0
230
1.0
  2
SOLID
 70
           1
 71
           1
 91
        1
 92
        3
 72
           0
 73
           1
 93
        3
 10
5.1361207643867024
 20
6.568234005592573
 10
5.1270723058261058
 20
6.7697138442804112
 10
5.0758588923542902
 20
6.7607035013033192
 97
        1
330
F0
 75
           0
 76
           0
 98
        0
1001
TCAD
1000
TCW_ATTRIBUTE
1002
{
1000
<%%c4.2> diameter bolt circle with ^M^J0.275 diameter through holes located as shown
1002
}
  0
LWPOLYLINE
  5
F2
100
AcDbEntity
  8
0
370
           0
  6
Continuous
 62
           7
100
AcDbPolyline
 90
        2
 70
           0
 10
5.4
 20
4.5
 10
5.6
 20
4.5
1001
TCAD
1000
TCW_ATTRIBUTE
1002
{
1000
<%%c4.2> diameter bolt circle with ^M^J0.275 diameter through holes located as shown
1002
}
  0
LWPOLYLINE
  5
F3
100
AcDbEntity
  8
0
370
           0
  6
Continuous
 62
           7
100
AcDbPolyline
 90
        2
 70
           0
 10
5.5
 20
4.4
 40
0.0
 41
0.0
 10
5.5
 20
4.6
 40
0.0
 41
0.0
1001
TCAD
1000
TCW_ATTRIBUTE
1002
{
1000
<%%c4.2> diameter bolt circle with ^M^J0.275 diameter through holes located as shown
1002
}
  0
ENDBLK
  5
F4
100
AcDbEntity
  8
0
100
AcDbBlockEnd
  0
BLOCK
  5
F7
100
AcDbEntity
  8
0
100
AcDbBlockBegin
  2
*D9
 70
           1
 10
0.0
 20
0.0
 30
0.0
  3
*D9
  1

  0
MTEXT
  5
F8
100
AcDbEntity
  8
0
  6
Continuous
 62
           7
100
AcDbMText
 10
2.596024977061
 20
8.520472975075
 30
0.0
 40
0.120000001788
 41
0.0
 71
           5
 72
           1
  1
\A1;%%c1.6{}in diameter bolt circle with \P0.275 diameter through holes located as shown
 73
           1
 44
1.0
1001
TCAD
1000
TCW_REFPOINT
1002
{
1010
2.596024977061
1020
8.520472975075
1030
0.0
1002
}
1000
TCW_ATTRIBUTE
1002
{
1000
<%%c1.6> diameter bolt circle with ^M^J0.275 diameter through holes located as shown
1002
}
  0
LWPOLYLINE
  5
F9
100
AcDbEntity
  8
0
370
           0
  6
Continuous
 62
           7
100
AcDbPolyline
 90
        3
 70
           0
 10
5.257213348809
 20
5.470079709098
 40
0.0
 41
0.0
 10
4.493776325111
 20
8.520472975075
 40
0.0
 41
0.0
 10
4.293776325111
 20
8.520472975075
 40
0.0
 41
0.0
1001
TCAD
1000
TCW_ATTRIBUTE
1002
{
1000
<%%c1.6> diameter bolt circle with ^M^J0.275 diameter through holes located as shown
1002
}
  0
LINE
  5
FA
100
AcDbEntity
  8
0
370
           0
  6
Continuous
 62
           7
100
AcDbLine
 10
5.694229320953
 20
3.723936232722
 30
0.0
 11
5.694229320953
 21
3.723936232722
 31
0.0
1001
TCAD
1000
TCW_ATTRIBUTE
1002
{
1000
<%%c1.6> diameter bolt circle with ^M^J0.275 diameter through holes located as shown
1002
}
  0
LWPOLYLINE
  5
FD
100
AcDbEntity
  8
0
370
           0
  6
Continuous
 62
           7
100
AcDbPolyline
 90
        4
 70
           0
 10
5.305770679047
 20
5.276063767278
 40
0.0
 41
0.0
 10
5.282435421245
 20
5.476392162029
 40
0.0
 41
0.0
 10
5.231991276372
 20
5.463767256167
 40
0.0
 41
0.0
 10
5.305770679047
 20
5.276063767278
 40
0.0
 41
0.0
1001
TCAD
1000
TCW_ATTRIBUTE
1002
{
1000
<%%c1.6> diameter bolt circle with ^M^J0.275 diameter through holes located as shown
1002
}
  0
HATCH
  5
FB
100
AcDbEntity
  8
0
  6
Continuous
 62
           7
100
AcDbHatch
 10
0.0
 20
0.0
 30
0.0
210
0.0
220
0.0
230
1.0
  2
SOLID
 70
           1
 71
           1
 91
        1
 92
        3
 72
           0
 73
           1
 93
        3
 10
5.3057706790468755
 20
5.2760637672782353
 10
5.282435421245137
 20
5.4763921620287705
 10
5.2319912763720522
 20
5.4637672561668174
 97
        1
330
FC
 75
           0
 76
           0
 98
        0
1001
TCAD
1000
TCW_ATTRIBUTE
1002
{
1000
<%%c1.6> diameter bolt circle with ^M^J0.275 diameter through holes located as shown
1002
}
  0
LWPOLYLINE
  5
FE
100
AcDbEntity
  8
0
370
           0
  6
Continuous
 62
           7
100
AcDbPolyline
 90
        2
 70
           0
 10
5.4
 20
4.5
 10
5.6
 20
4.5
1001
TCAD
1000
TCW_ATTRIBUTE
1002
{
1000
<%%c1.6> diameter bolt circle with ^M^J0.275 diameter through holes located as shown
1002
}
  0
LWPOLYLINE
  5
FF
100
AcDbEntity
  8
0
370
           0
  6
Continuous
 62
           7
100
AcDbPolyline
 90
        2
 70
           0
 10
5.5
 20
4.4
 40
0.0
 41
0.0
 10
5.5
 20
4.6
 40
0.0
 41
0.0
1001
TCAD
1000
TCW_ATTRIBUTE
1002
{
1000
<%%c1.6> diameter bolt circle with ^M^J0.275 diameter through holes located as shown
1002
}
  0
ENDBLK
  5
100
100
AcDbEntity
  8
0
100
AcDbBlockEnd
  0
BLOCK
  5
103
100
AcDbEntity
  8
0
100
AcDbBlockBegin
  2
*D10
 70
           1
 10
0.0
 20
0.0
 30
0.0
  3
*D10
  1

  0
LINE
  5
104
100
AcDbEntity
  8
0
370
           0
  6
Continuous
 62
           7
100
AcDbLine
 10
8.282106609658
 20
6.10625
 30
0.0
 11
10.237908301297
 21
7.235432633149
 31
0.0
1001
TCAD
1000
TCW_ATTRIBUTE
1002
{
1000
<4.2829°>
1002
}
  0
LINE
  5
105
100
AcDbEntity
  8
0
370
           0
  6
Continuous
 62
           7
100
AcDbLine
 10
7.473832665221
 20
5.845593224501
 30
0.0
 11
10.020393540775
 21
7.581624409059
 31
0.0
1001
TCAD
1000
TCW_ATTRIBUTE
1002
{
1000
<4.2829°>
1002
}
  0
ARC
  5
106
100
AcDbEntity
  8
0
370
           0
  6
Continuous
 62
           7
100
AcDbCircle
 10
5.5
 20
4.5
 30
0.0
 40
5.345865266299
100
AcDbArc
 50
33.095807220469
 51
33.211085368057
1001
TCAD
1000
TCW_ATTRIBUTE
1002
{
1000
<4.2829°>
1002
}
  0
ARC
  5
107
100
AcDbEntity
  8
0
370
           0
  6
Continuous
 62
           7
100
AcDbCircle
 10
5.5
 20
4.5
 30
0.0
 40
5.345865266299
100
AcDbArc
 50
31.071793097189
 51
31.196957504438
1001
TCAD
1000
TCW_ATTRIBUTE
1002
{
1000
<4.2829°>
1002
}
  0
LWPOLYLINE
  5
10A
100
AcDbEntity
  8
0
370
           0
  6
Continuous
 62
           7
100
AcDbPolyline
 90
        4
 70
           0
 10
10.129655125824
 20
7.172932633149
 40
0.0
 41
0.0
 10
10.090044360464
 20
7.265668749456
 40
0.0
 41
0.0
 10
10.067650274152
 20
7.252458719242
 40
0.0
 41
0.0
 10
10.129655125824
 20
7.172932633149
 40
0.0
 41
0.0
1001
TCAD
1000
TCW_ATTRIBUTE
1002
{
1000
<4.2829°>
1002
}
  0
HATCH
  5
108
100
AcDbEntity
  8
0
  6
Continuous
 62
           7
100
AcDbHatch
 10
0.0
 20
0.0
 30
0.0
210
0.0
220
0.0
230
1.0
  2
SOLID
 70
           1
 71
           1
 91
        1
 92
        3
 72
           0
 73
           1
 93
        3
 10
10.129655125823714
 20
7.1729326331494443
 10
10.090044360464193
 20
7.2656687494560535
 10
10.067650274152298
 20
7.2524587192420311
 97
        1
330
109
 75
           0
 76
           0
 98
        0
1001
TCAD
1000
TCW_ATTRIBUTE
1002
{
1000
<4.2829°>
1002
}
  0
LWPOLYLINE
  5
10D
100
AcDbEntity
  8
0
370
           0
  6
Continuous
 62
           7
100
AcDbPolyline
 90
        4
 70
           0
 10
9.917110208964
 20
7.511214513662
 40
0.0
 41
0.0
 10
9.961853366992
 20
7.42084278241
 40
0.0
 41
0.0
 10
9.983472337771
 20
7.435286469698
 40
0.0
 41
0.0
 10
9.917110208964
 20
7.511214513662
 40
0.0
 41
0.0
1001
TCAD
1000
TCW_ATTRIBUTE
1002
{
1000
<4.2829°>
1002
}
  0
HATCH
  5
10B
100
AcDbEntity
  8
0
  6
Continuous
 62
           7
100
AcDbHatch
 10
0.0
 20
0.0
 30
0.0
210
0.0
220
0.0
230
1.0
  2
SOLID
 70
           1
 71
           1
 91
        1
 92
        3
 72
           0
 73
           1
 93
        3
 10
9.9171102089636491
 20
7.5112145136622379
 10
9.9618533669923899
 20
7.42084278240951
 10
9.983472337770575
 20
7.4352864696981467
 97
        1
330
10C
 75
           0
 76
           0
 98
        0
1001
TCAD
1000
TCW_ATTRIBUTE
1002
{
1000
<4.2829°>
1002
}
  0
MTEXT
  5
10E
100
AcDbEntity
  8
0
  6
Continuous
 62
           7
100
AcDbMText
 10
10.026543870697
 20
7.344059779975
 30
0.0
 40
0.090000003576
 41
0.0
 71
           5
 72
           1
  1
\A1;4.2829%%d{}
 73
           1
 44
1.0
1001
TCAD
1000
TCW_REFPOINT
1002
{
1010
10.026543870697
1020
7.344059779975
1030
0.0
1002
}
1000
TCW_ATTRIBUTE
1002
{
1000
<4.2829°>
1002
}
  0
ENDBLK
  5
10F
100
AcDbEntity
  8
0
100
AcDbBlockEnd
  0
BLOCK
  5
112
100
AcDbEntity
  8
0
100
AcDbBlockBegin
  2
*D11
 70
           1
 10
0.0
 20
0.0
 30
0.0
  3
*D11
  1

  0
LINE
  5
113
100
AcDbEntity
  8
0
370
           0
  6
Continuous
 62
           7
100
AcDbLine
 10
8.282106609658
 20
6.10625
 30
0.0
 11
10.489215859569
 21
7.380525119567
 31
0.0
1001
TCAD
1000
TCW_ATTRIBUTE
1002
{
1000
<5.0338°>
1002
}
  0
LINE
  5
114
100
AcDbEntity
  8
0
370
           0
  6
Continuous
 62
           7
100
AcDbLine
 10
7.178545566899
 20
5.676805999494
 30
0.0
 11
10.217226675029
 21
7.80718495918
 31
0.0
1001
TCAD
1000
TCW_ATTRIBUTE
1002
{
1000
<5.0338°>
1002
}
  0
ARC
  5
115
100
AcDbEntity
  8
0
370
           0
  6
Continuous
 62
           7
100
AcDbCircle
 10
5.5
 20
4.5
 30
0.0
 40
5.636050239135
100
AcDbArc
 50
33.425720110676
 51
34.017179071862
1001
TCAD
1000
TCW_ATTRIBUTE
1002
{
1000
<5.0338°>
1002
}
  0
ARC
  5
116
100
AcDbEntity
  8
0
370
           0
  6
Continuous
 62
           7
100
AcDbCircle
 10
5.5
 20
4.5
 30
0.0
 40
5.636050239135
100
AcDbArc
 50
31.016607884338
 51
31.617166109748
1001
TCAD
1000
TCW_ATTRIBUTE
1002
{
1000
<5.0338°>
1002
}
  0
LWPOLYLINE
  5
119
100
AcDbEntity
  8
0
370
           0
  6
Continuous
 62
           7
100
AcDbPolyline
 90
        4
 70
           0
 10
10.380962684096
 20
7.318025119567
 40
0.0
 41
0.0
 10
10.341396583357
 20
7.410780300944
 40
0.0
 41
0.0
 10
10.318996137932
 20
7.397581056847
 40
0.0
 41
0.0
 10
10.380962684096
 20
7.318025119567
 40
0.0
 41
0.0
1001
TCAD
1000
TCW_ATTRIBUTE
1002
{
1000
<5.0338°>
1002
}
  0
HATCH
  5
117
100
AcDbEntity
  8
0
  6
Continuous
 62
           7
100
AcDbHatch
 10
0.0
 20
0.0
 30
0.0
210
0.0
220
0.0
230
1.0
  2
SOLID
 70
           1
 71
           1
 91
        1
 92
        3
 72
           0
 73
           1
 93
        3
 10
10.380962684096106
 20
7.3180251195673982
 10
10.341396583356868
 20
7.4107803009444648
 10
10.318996137931506
 20
7.3975810568469651
 97
        1
330
118
 75
           0
 76
           0
 98
        0
1001
TCAD
1000
TCW_ATTRIBUTE
1002
{
1000
<5.0338°>
1002
}
  0
LWPOLYLINE
  5
11C
100
AcDbEntity
  8
0
370
           0
  6
Continuous
 62
           7
100
AcDbPolyline
 90
        4
 70
           0
 10
10.11487496659
 20
7.735427536013
 40
0.0
 41
0.0
 10
10.16084187424
 20
7.645672071549
 40
0.0
 41
0.0
 10
10.182262603203
 20
7.660408162303
 40
0.0
 41
0.0
 10
10.11487496659
 20
7.735427536013
 40
0.0
 41
0.0
1001
TCAD
1000
TCW_ATTRIBUTE
1002
{
1000
<5.0338°>
1002
}
  0
HATCH
  5
11A
100
AcDbEntity
  8
0
  6
Continuous
 62
           7
100
AcDbHatch
 10
0.0
 20
0.0
 30
0.0
210
0.0
220
0.0
230
1.0
  2
SOLID
 70
           1
 71
           1
 91
        1
 92
        3
 72
           0
 73
           1
 93
        3
 10
10.114874966590271
 20
7.735427536012816
 10
10.160841874240393
 20
7.6456720715491686
 10
10.182262603202901
 20
7.6604081623033258
 97
        1
330
11B
 75
           0
 76
           0
 98
        0
1001
TCAD
1000
TCW_ATTRIBUTE
1002
{
1000
<5.0338°>
1002
}
  0
MTEXT
  5
11D
100
AcDbEntity
  8
0
  6
Continuous
 62
           7
100
AcDbMText
 10
10.252503484098
 20
7.529648978296
 30
0.0
 40
0.090000003576
 41
0.0
 71
           5
 72
           1
  1
\A1;5.0338%%d{}
 73
           1
 44
1.0
1001
TCAD
1000
TCW_REFPOINT
1002
{
1010
10.252503484098
1020
7.529648978296
1030
0.0
1002
}
1000
TCW_ATTRIBUTE
1002
{
1000
<5.0338°>
1002
}
  0
ENDBLK
  5
11E
100
AcDbEntity
  8
0
100
AcDbBlockEnd
  0
BLOCK
  5
121
100
AcDbEntity
  8
0
100
AcDbBlockBegin
  2
*D12
 70
           1
 10
0.0
 20
0.0
 30
0.0
  3
*D12
  1

  0
LINE
  5
122
100
AcDbEntity
  8
0
370
           0
  6
Continuous
 62
           7
100
AcDbLine
 10
8.282106609658
 20
6.10625
 30
0.0
 11
10.754450692966
 21
7.533658522028
 31
0.0
1001
TCAD
1000
TCW_ATTRIBUTE
1002
{
1000
<9.9406°>
1002
}
  0
LINE
  5
123
100
AcDbEntity
  8
0
370
           0
  6
Continuous
 62
           7
100
AcDbLine
 10
6.341299598553
 20
5.204448500281
 30
0.0
 11
10.151877066903
 21
8.395173406604
 31
0.0
1001
TCAD
1000
TCW_ATTRIBUTE
1002
{
1000
<9.9406°>
1002
}
  0
ARC
  5
124
100
AcDbEntity
  8
0
370
           0
  6
Continuous
 62
           7
100
AcDbCircle
 10
5.5
 20
4.5
 30
0.0
 40
5.942317044055
100
AcDbArc
 50
35.857609816083
 51
38.976362352457
1001
TCAD
1000
TCW_ATTRIBUTE
1002
{
1000
<9.9406°>
1002
}
  0
ARC
  5
125
100
AcDbEntity
  8
0
370
           0
  6
Continuous
 62
           7
100
AcDbCircle
 10
5.5
 20
4.5
 30
0.0
 40
5.942317044055
100
AcDbArc
 50
30.964210680656
 51
34.092473138531
1001
TCAD
1000
TCW_ATTRIBUTE
1002
{
1000
<9.9406°>
1002
}
  0
LWPOLYLINE
  5
128
100
AcDbEntity
  8
0
370
           0
  6
Continuous
 62
           7
100
AcDbPolyline
 90
        4
 70
           0
 10
10.646197517493
 20
7.471158522028
 40
0.0
 41
0.0
 10
10.606673833368
 20
7.563931785381
 40
0.0
 41
0.0
 10
10.584267354906
 20
7.550742785308
 40
0.0
 41
0.0
 10
10.646197517493
 20
7.471158522028
 40
0.0
 41
0.0
1001
TCAD
1000
TCW_ATTRIBUTE
1002
{
1000
<9.9406°>
1002
}
  0
HATCH
  5
126
100
AcDbEntity
  8
0
  6
Continuous
 62
           7
100
AcDbHatch
 10
0.0
 20
0.0
 30
0.0
210
0.0
220
0.0
230
1.0
  2
SOLID
 70
           1
 71
           1
 91
        1
 92
        3
 72
           0
 73
           1
 93
        3
 10
10.646197517493313
 20
7.4711585220277392
 10
10.606673833368173
 20
7.5639317853807997
 10
10.584267354905823
 20
7.5507427853081568
 97
        1
330
127
 75
           0
 76
           0
 98
        0
1001
TCAD
1000
TCW_ATTRIBUTE
1002
{
1000
<9.9406°>
1002
}
  0
LWPOLYLINE
  5
12B
100
AcDbEntity
  8
0
370
           0
  6
Continuous
 62
           7
100
AcDbPolyline
 90
        4
 70
           0
 10
10.056038225922
 20
8.314924315895
 40
0.0
 41
0.0
 10
10.109552987112
 20
8.229454026702
 40
0.0
 41
0.0
 10
10.129627209023
 20
8.245977513459
 40
0.0
 41
0.0
 10
10.056038225922
 20
8.314924315895
 40
0.0
 41
0.0
1001
TCAD
1000
TCW_ATTRIBUTE
1002
{
1000
<9.9406°>
1002
}
  0
HATCH
  5
129
100
AcDbEntity
  8
0
  6
Continuous
 62
           7
100
AcDbHatch
 10
0.0
 20
0.0
 30
0.0
210
0.0
220
0.0
230
1.0
  2
SOLID
 70
           1
 71
           1
 91
        1
 92
        3
 72
           0
 73
           1
 93
        3
 10
10.056038225922158
 20
8.3149243158952011
 10
10.109552987111638
 20
8.2294540267016281
 10
10.129627209023454
 20
8.2459775134594295
 97
        1
330
12A
 75
           0
 76
           0
 98
        0
1001
TCAD
1000
TCW_ATTRIBUTE
1002
{
1000
<9.9406°>
1002
}
  0
MTEXT
  5
12C
100
AcDbEntity
  8
0
  6
Continuous
 62
           7
100
AcDbMText
 10
10.36942807565
 20
7.905848215664
 30
0.0
 40
0.090000003576
 41
0.0
 71
           5
 72
           1
  1
\A1;9.9406%%d{}
 73
           1
 44
1.0
1001
TCAD
1000
TCW_REFPOINT
1002
{
1010
10.36942807565
1020
7.905848215664
1030
0.0
1002
}
1000
TCW_ATTRIBUTE
1002
{
1000
<9.9406°>
1002
}
  0
ENDBLK
  5
12D
100
AcDbEntity
  8
0
100
AcDbBlockEnd
  0
BLOCK
  5
130
100
AcDbEntity
  8
0
100
AcDbBlockBegin
  2
*D13
 70
           1
 10
0.0
 20
0.0
 30
0.0
  3
*D13
  1

  0
LINE
  5
131
100
AcDbEntity
  8
0
370
           0
  6
Continuous
 62
           7
100
AcDbLine
 10
8.282106609658
 20
6.10625
 30
0.0
 11
10.948115557404
 21
7.645470983643
 31
0.0
1001
TCAD
1000
TCW_ATTRIBUTE
1002
{
1000
<15.1011°>
1002
}
  0
LINE
  5
132
100
AcDbEntity
  8
0
370
           0
  6
Continuous
 62
           7
100
AcDbLine
 10
6.040005028724
 20
5.041914072398
 30
0.0
 11
9.940511678223
 21
8.956209922269
 31
0.0
1001
TCAD
1000
TCW_ATTRIBUTE
1002
{
1000
<15.1011°>
1002
}
  0
ARC
  5
133
100
AcDbEntity
  8
0
370
           0
  6
Continuous
 62
           7
100
AcDbCircle
 10
5.5
 20
4.5
 30
0.0
 40
6.165941967286
100
AcDbArc
 50
38.434877332532
 51
44.171858026342
1001
TCAD
1000
TCW_ATTRIBUTE
1002
{
1000
<15.1011°>
1002
}
  0
ARC
  5
134
100
AcDbEntity
  8
0
370
           0
  6
Continuous
 62
           7
100
AcDbCircle
 10
5.5
 20
4.5
 30
0.0
 40
6.165941967286
100
AcDbArc
 50
30.929240135044
 51
36.67659199116
1001
TCAD
1000
TCW_ATTRIBUTE
1002
{
1000
<15.1011°>
1002
}
  0
LWPOLYLINE
  5
137
100
AcDbEntity
  8
0
370
           0
  6
Continuous
 62
           7
100
AcDbPolyline
 90
        4
 70
           0
 10
10.839862381931
 20
7.582970983643
 40
0.0
 41
0.0
 10
10.80036701178
 20
7.675756304339
 40
0.0
 41
0.0
 10
10.7779565094
 20
7.662574142791
 40
0.0
 41
0.0
 10
10.839862381931
 20
7.582970983643
 40
0.0
 41
0.0
1001
TCAD
1000
TCW_ATTRIBUTE
1002
{
1000
<15.1011°>
1002
}
  0
HATCH
  5
135
100
AcDbEntity
  8
0
  6
Continuous
 62
           7
100
AcDbHatch
 10
0.0
 20
0.0
 30
0.0
210
0.0
220
0.0
230
1.0
  2
SOLID
 70
           1
 71
           1
 91
        1
 92
        3
 72
           0
 73
           1
 93
        3
 10
10.839862381930534
 20
7.5829709836431416
 10
10.800367011779969
 20
7.6757563043391972
 10
10.777956509400301
 20
7.6625741427906942
 97
        1
330
136
 75
           0
 76
           0
 98
        0
1001
TCAD
1000
TCW_ATTRIBUTE
1002
{
1000
<15.1011°>
1002
}
  0
LWPOLYLINE
  5
13A
100
AcDbEntity
  8
0
370
           0
  6
Continuous
 62
           7
100
AcDbPolyline
 90
        4
 70
           0
 10
9.852279428956
 20
8.867665751431
 40
0.0
 41
0.0
 10
9.913289526805
 20
8.78737398373
 40
0.0
 41
0.0
 10
9.931790577345
 20
8.805641745741
 40
0.0
 41
0.0
 10
9.852279428956
 20
8.867665751431
 40
0.0
 41
0.0
1001
TCAD
1000
TCW_ATTRIBUTE
1002
{
1000
<15.1011°>
1002
}
  0
HATCH
  5
138
100
AcDbEntity
  8
0
  6
Continuous
 62
           7
100
AcDbHatch
 10
0.0
 20
0.0
 30
0.0
210
0.0
220
0.0
230
1.0
  2
SOLID
 70
           1
 71
           1
 91
        1
 92
        3
 72
           0
 73
           1
 93
        3
 10
9.8522794289564501
 20
8.867665751431181
 10
9.9132895268046095
 20
8.7873739837301397
 10
9.9317905773454722
 20
8.8056417457409726
 97
        1
330
139
 75
           0
 76
           0
 98
        0
1001
TCAD
1000
TCW_ATTRIBUTE
1002
{
1000
<15.1011°>
1002
}
  0
MTEXT
  5
13B
100
AcDbEntity
  8
0
  6
Continuous
 62
           7
100
AcDbMText
 10
10.38845715765
 20
8.257901936155
 30
0.0
 40
0.090000003576
 41
0.0
 71
           5
 72
           1
  1
\A1;15.1011%%d{}
 73
           1
 44
1.0
1001
TCAD
1000
TCW_REFPOINT
1002
{
1010
10.38845715765
1020
8.257901936155
1030
0.0
1002
}
1000
TCW_ATTRIBUTE
1002
{
1000
<15.1011°>
1002
}
  0
ENDBLK
  5
13C
100
AcDbEntity
  8
0
100
AcDbBlockEnd
  0
BLOCK
  5
165
100
AcDbEntity
  8
0
100
AcDbBlockBegin
  2
*D14
 70
           1
 10
0.0
 20
0.0
 30
0.0
  3
*D14
  1

  0
LINE
  5
166
100
AcDbEntity
  8
0
370
           0
  6
Continuous
 62
           7
100
AcDbLine
 10
12.4375
 20
4.5
 30
0.0
 11
10.25011274603
 21
4.5
 31
0.0
1001
TCAD
1000
TCW_ATTRIBUTE
1002
{
1000
<30°>
1002
}
  0
LINE
  5
167
100
AcDbEntity
  8
0
370
           0
  6
Continuous
 62
           7
100
AcDbLine
 10
8.282106609658
 20
6.10625
 30
0.0
 11
9.830224659849
 21
7.000056373015
 31
0.0
1001
TCAD
1000
TCW_ATTRIBUTE
1002
{
1000
<30°>
1002
}
  0
ARC
  5
168
100
AcDbEntity
  8
0
370
           0
  6
Continuous
 62
           7
100
AcDbCircle
 10
5.5
 20
4.5
 30
0.0
 40
4.87511274603
100
AcDbArc
 50
15.914541995928
 51
28.824708534401
1001
TCAD
1000
TCW_ATTRIBUTE
1002
{
1000
<30°>
1002
}
  0
ARC
  5
169
100
AcDbEntity
  8
0
370
           0
  6
Continuous
 62
           7
100
AcDbCircle
 10
5.5
 20
4.5
 30
0.0
 40
4.87511274603
100
AcDbArc
 50
1.175291465599
 51
14.089353235698
1001
TCAD
1000
TCW_ATTRIBUTE
1002
{
1000
<30°>
1002
}
  0
LWPOLYLINE
  5
16C
100
AcDbEntity
  8
0
370
           0
  6
Continuous
 62
           7
100
AcDbPolyline
 90
        4
 70
           0
 10
10.37511274603
 20
4.5
 40
0.0
 41
0.0
 10
10.387086444978
 20
4.600128070657
 40
0.0
 41
0.0
 10
10.361087812472
 20
4.599861410158
 40
0.0
 41
0.0
 10
10.37511274603
 20
4.5
 40
0.0
 41
0.0
1001
TCAD
1000
TCW_ATTRIBUTE
1002
{
1000
<30°>
1002
}
  0
HATCH
  5
16A
100
AcDbEntity
  8
0
  6
Continuous
 62
           7
100
AcDbHatch
 10
0.0
 20
0.0
 30
0.0
210
0.0
220
0.0
230
1.0
  2
SOLID
 70
           1
 71
           1
 91
        1
 92
        3
 72
           0
 73
           1
 93
        3
 10
10.375112746030332
 20
4.5
 10
10.387086444977504
 20
4.6001280706571466
 10
10.361087812471583
 20
4.5998614101576409
 97
        1
330
16B
 75
           0
 76
           0
 98
        0
1001
TCAD
1000
TCW_ATTRIBUTE
1002
{
1000
<30°>
1002
}
  0
LWPOLYLINE
  5
16F
100
AcDbEntity
  8
0
370
           0
  6
Continuous
 62
           7
100
AcDbPolyline
 90
        4
 70
           0
 10
9.721971484376
 20
6.937556373015
 40
0.0
 41
0.0
 10
9.759756240706
 20
6.844061388182
 40
0.0
 41
0.0
 10
9.78240504717
 20
6.856829769668
 40
0.0
 41
0.0
 10
9.721971484376
 20
6.937556373015
 40
0.0
 41
0.0
1001
TCAD
1000
TCW_ATTRIBUTE
1002
{
1000
<30°>
1002
}
  0
HATCH
  5
16D
100
AcDbEntity
  8
0
  6
Continuous
 62
           7
100
AcDbHatch
 10
0.0
 20
0.0
 30
0.0
210
0.0
220
0.0
230
1.0
  2
SOLID
 70
           1
 71
           1
 91
        1
 92
        3
 72
           0
 73
           1
 93
        3
 10
9.7219714843755849
 20
6.9375563730151608
 10
9.7597562407061389
 20
6.8440613881815313
 10
9.7824050471696751
 20
6.8568297696677352
 97
        1
330
16E
 75
           0
 76
           0
 98
        0
1001
TCAD
1000
TCW_ATTRIBUTE
1002
{
1000
<30°>
1002
}
  0
MTEXT
  5
170
100
AcDbEntity
  8
0
  6
Continuous
 62
           7
100
AcDbMText
 10
10.208997307462
 20
5.761772025695
 30
0.0
 40
0.090000003576
 41
0.0
 71
           5
 72
           1
  1
\A1;30%%d{}
 73
           1
 44
1.0
1001
TCAD
1000
TCW_REFPOINT
1002
{
1010
10.208997307462
1020
5.761772025695
1030
0.0
1002
}
1000
TCW_ATTRIBUTE
1002
{
1000
<30°>
1002
}
  0
ENDBLK
  5
171
100
AcDbEntity
  8
0
100
AcDbBlockEnd
  0
BLOCK
  5
174
100
AcDbEntity
  8
0
100
AcDbBlockBegin
  2
*D15
 70
           1
 10
0.0
 20
0.0
 30
0.0
  3
*D15
  1

  0
LINE
  5
175
100
AcDbEntity
  8
0
370
           0
  6
Continuous
 62
           7
100
AcDbLine
 10
11.5
 20
5.844724318643
 30
0.0
 11
11.5
 21
5.939256422222
 31
0.0
1001
TCAD
1000
TCW_ATTRIBUTE
1002
{
1000
<0.15>
1002
}
  0
LINE
  5
176
100
AcDbEntity
  8
0
370
           0
  6
Continuous
 62
           7
100
AcDbLine
 10
11.65
 20
5.844724318643
 30
0.0
 11
11.65
 21
5.939256422222
 31
0.0
1001
TCAD
1000
TCW_ATTRIBUTE
1002
{
1000
<0.15>
1002
}
  0
LWPOLYLINE
  5
177
100
AcDbEntity
  8
0
370
           0
  6
Continuous
 62
           7
100
AcDbPolyline
 90
        2
 70
           0
 10
11.3
 20
5.814256422222
 10
11.4
 20
5.814256422222
1001
TCAD
1000
TCW_ATTRIBUTE
1002
{
1000
<0.15>
1002
}
  0
LWPOLYLINE
  5
178
100
AcDbEntity
  8
0
370
           0
  6
Continuous
 62
           7
100
AcDbPolyline
 90
        2
 70
           0
 10
11.4
 20
5.814256422222
 40
0.0
 41
0.0
 10
11.4
 20
5.814256422222
 40
0.0
 41
0.0
1001
TCAD
1000
TCW_ATTRIBUTE
1002
{
1000
<0.15>
1002
}
  0
LWPOLYLINE
  5
179
100
AcDbEntity
  8
0
370
           0
  6
Continuous
 62
           7
100
AcDbPolyline
 90
        4
 70
           0
 10
11.95
 20
5.814256422222
 10
11.85
 20
5.814256422222
 10
11.75
 20
5.814256422222
 10
11.75
 20
5.814256422222
1001
TCAD
1000
TCW_ATTRIBUTE
1002
{
1000
<0.15>
1002
}
  0
LWPOLYLINE
  5
17C
100
AcDbEntity
  8
0
370
           0
  6
Continuous
 62
           7
100
AcDbPolyline
 90
        4
 70
           0
 10
11.65
 20
5.814256422222
 40
0.0
 41
0.0
 10
11.75
 20
5.801256422222
 40
0.0
 41
0.0
 10
11.75
 20
5.827256422222
 40
0.0
 41
0.0
 10
11.65
 20
5.814256422222
 40
0.0
 41
0.0
1001
TCAD
1000
TCW_ATTRIBUTE
1002
{
1000
<0.15>
1002
}
  0
HATCH
  5
17A
100
AcDbEntity
  8
0
  6
Continuous
 62
           7
100
AcDbHatch
 10
0.0
 20
0.0
 30
0.0
210
0.0
220
0.0
230
1.0
  2
SOLID
 70
           1
 71
           1
 91
        1
 92
        3
 72
           0
 73
           1
 93
        3
 10
11.649999999999999
 20
5.8142564222216695
 10
11.749999999999998
 20
5.8012564222216696
 10
11.749999999999998
 20
5.8272564222216694
 97
        1
330
17B
 75
           0
 76
           0
 98
        0
1001
TCAD
1000
TCW_ATTRIBUTE
1002
{
1000
<0.15>
1002
}
  0
LWPOLYLINE
  5
17F
100
AcDbEntity
  8
0
370
           0
  6
Continuous
 62
           7
100
AcDbPolyline
 90
        4
 70
           0
 10
11.5
 20
5.814256422222
 40
0.0
 41
0.0
 10
11.4
 20
5.827256422222
 40
0.0
 41
0.0
 10
11.4
 20
5.801256422222
 40
0.0
 41
0.0
 10
11.5
 20
5.814256422222
 40
0.0
 41
0.0
1001
TCAD
1000
TCW_ATTRIBUTE
1002
{
1000
<0.15>
1002
}
  0
HATCH
  5
17D
100
AcDbEntity
  8
0
  6
Continuous
 62
           7
100
AcDbHatch
 10
0.0
 20
0.0
 30
0.0
210
0.0
220
0.0
230
1.0
  2
SOLID
 70
           1
 71
           1
 91
        1
 92
        3
 72
           0
 73
           1
 93
        3
 10
11.499999999999998
 20
5.8142564222216695
 10
11.399999999999999
 20
5.8272564222216694
 10
11.399999999999999
 20
5.8012564222216696
 97
        1
330
17E
 75
           0
 76
           0
 98
        0
1001
TCAD
1000
TCW_ATTRIBUTE
1002
{
1000
<0.15>
1002
}
  0
MTEXT
  5
180
100
AcDbEntity
  8
0
  6
Continuous
 62
           7
100
AcDbMText
 10
12.18369709675
 20
5.814256422222
 30
0.0
 40
0.090000003576
 41
0.0
 71
           5
 72
           1
  1
\A1;0.15{}in
 73
           1
 44
1.0
1001
TCAD
1000
TCW_REFPOINT
1002
{
1010
12.18369709675
1020
5.814256422222
1030
0.0
1002
}
1000
TCW_ATTRIBUTE
1002
{
1000
<0.15>
1002
}
  0
ENDBLK
  5
181
100
AcDbEntity
  8
0
100
AcDbBlockEnd
  0
BLOCK
  5
184
100
AcDbEntity
  8
0
100
AcDbBlockBegin
  2
*D16
 70
           1
 10
0.0
 20
0.0
 30
0.0
  3
*D16
  1

  0
LINE
  5
185
100
AcDbEntity
  8
0
370
           0
  6
Continuous
 62
           7
100
AcDbLine
 10
11.5
 20
7.2625
 30
0.0
 11
11.5
 21
7.628991378121
 31
0.0
1001
TCAD
1000
TCW_ATTRIBUTE
1002
{
1000
<0.2>
1002
}
  0
LINE
  5
186
100
AcDbEntity
  8
0
370
           0
  6
Continuous
 62
           7
100
AcDbLine
 10
11.7
 20
7.2625
 30
0.0
 11
11.7
 21
7.628991378121
 31
0.0
1001
TCAD
1000
TCW_ATTRIBUTE
1002
{
1000
<0.2>
1002
}
  0
LWPOLYLINE
  5
187
100
AcDbEntity
  8
0
370
           0
  6
Continuous
 62
           7
100
AcDbPolyline
 90
        2
 70
           0
 10
11.3
 20
7.503991378121
 10
11.4
 20
7.503991378121
1001
TCAD
1000
TCW_ATTRIBUTE
1002
{
1000
<0.2>
1002
}
  0
LWPOLYLINE
  5
188
100
AcDbEntity
  8
0
370
           0
  6
Continuous
 62
           7
100
AcDbPolyline
 90
        2
 70
           0
 10
11.4
 20
7.503991378121
 40
0.0
 41
0.0
 10
11.4
 20
7.503991378121
 40
0.0
 41
0.0
1001
TCAD
1000
TCW_ATTRIBUTE
1002
{
1000
<0.2>
1002
}
  0
LWPOLYLINE
  5
189
100
AcDbEntity
  8
0
370
           0
  6
Continuous
 62
           7
100
AcDbPolyline
 90
        4
 70
           0
 10
12.0
 20
7.503991378121
 10
11.9
 20
7.503991378121
 10
11.8
 20
7.503991378121
 10
11.8
 20
7.503991378121
1001
TCAD
1000
TCW_ATTRIBUTE
1002
{
1000
<0.2>
1002
}
  0
LWPOLYLINE
  5
18C
100
AcDbEntity
  8
0
370
           0
  6
Continuous
 62
           7
100
AcDbPolyline
 90
        4
 70
           0
 10
11.7
 20
7.503991378121
 40
0.0
 41
0.0
 10
11.8
 20
7.490991378121
 40
0.0
 41
0.0
 10
11.8
 20
7.516991378121
 40
0.0
 41
0.0
 10
11.7
 20
7.503991378121
 40
0.0
 41
0.0
1001
TCAD
1000
TCW_ATTRIBUTE
1002
{
1000
<0.2>
1002
}
  0
HATCH
  5
18A
100
AcDbEntity
  8
0
  6
Continuous
 62
           7
100
AcDbHatch
 10
0.0
 20
0.0
 30
0.0
210
0.0
220
0.0
230
1.0
  2
SOLID
 70
           1
 71
           1
 91
        1
 92
        3
 72
           0
 73
           1
 93
        3
 10
11.699999999999999
 20
7.5039913781211141
 10
11.799999999999999
 20
7.4909913781211142
 10
11.799999999999999
 20
7.516991378121114
 97
        1
330
18B
 75
           0
 76
           0
 98
        0
1001
TCAD
1000
TCW_ATTRIBUTE
1002
{
1000
<0.2>
1002
}
  0
LWPOLYLINE
  5
18F
100
AcDbEntity
  8
0
370
           0
  6
Continuous
 62
           7
100
AcDbPolyline
 90
        4
 70
           0
 10
11.5
 20
7.503991378121
 40
0.0
 41
0.0
 10
11.4
 20
7.516991378121
 40
0.0
 41
0.0
 10
11.4
 20
7.490991378121
 40
0.0
 41
0.0
 10
11.5
 20
7.503991378121
 40
0.0
 41
0.0
1001
TCAD
1000
TCW_ATTRIBUTE
1002
{
1000
<0.2>
1002
}
  0
HATCH
  5
18D
100
AcDbEntity
  8
0
  6
Continuous
 62
           7
100
AcDbHatch
 10
0.0
 20
0.0
 30
0.0
210
0.0
220
0.0
230
1.0
  2
SOLID
 70
           1
 71
           1
 91
        1
 92
        3
 72
           0
 73
           1
 93
        3
 10
11.499999999999998
 20
7.5039913781211141
 10
11.399999999999999
 20
7.516991378121114
 10
11.399999999999999
 20
7.4909913781211142
 97
        1
330
18E
 75
           0
 76
           0
 98
        0
1001
TCAD
1000
TCW_ATTRIBUTE
1002
{
1000
<0.2>
1002
}
  0
MTEXT
  5
190
100
AcDbEntity
  8
0
  6
Continuous
 62
           7
100
AcDbMText
 10
12.199834661542
 20
7.503991378121
 30
0.0
 40
0.090000003576
 41
0.0
 71
           5
 72
           1
  1
\A1;0.2{}in
 73
           1
 44
1.0
1001
TCAD
1000
TCW_REFPOINT
1002
{
1010
12.199834661542
1020
7.503991378121
1030
0.0
1002
}
1000
TCW_ATTRIBUTE
1002
{
1000
<0.2>
1002
}
  0
ENDBLK
  5
191
100
AcDbEntity
  8
0
100
AcDbBlockEnd
  0
BLOCK
  5
194
100
AcDbEntity
  8
0
100
AcDbBlockBegin
  2
*D17
 70
           1
 10
0.0
 20
0.0
 30
0.0
  3
*D17
  1

  0
MTEXT
  5
195
100
AcDbEntity
  8
0
  6
Continuous
 62
           7
100
AcDbMText
 10
7.831859709938
 20
8.437791253457
 30
0.0
 40
0.120000001788
 41
0.0
 71
           5
 72
           1
  1
\A1;%%c1.9696{}in
 73
           1
 44
1.0
1001
TCAD
1000
TCW_REFPOINT
1002
{
1010
7.831859709938
1020
8.437791253457
1030
0.0
1002
}
1000
TCW_ATTRIBUTE
1002
{
1000
<%%c1.9696>
1002
}
  0
LWPOLYLINE
  5
196
100
AcDbEntity
  8
0
370
           0
  6
Continuous
 62
           7
100
AcDbPolyline
 90
        3
 70
           0
 10
5.966232774023
 20
5.589192681099
 40
0.0
 41
0.0
 10
7.185585453778
 20
8.437791253457
 40
0.0
 41
0.0
 10
7.385585453778
 20
8.437791253457
 40
0.0
 41
0.0
1001
TCAD
1000
TCW_ATTRIBUTE
1002
{
1000
<%%c1.9696>
1002
}
  0
LINE
  5
197
100
AcDbEntity
  8
0
370
           0
  6
Continuous
 62
           7
100
AcDbLine
 10
5.112470631737
 20
3.594670784337
 30
0.0
 11
5.112470631737
 21
3.594670784337
 31
0.0
1001
TCAD
1000
TCW_ATTRIBUTE
1002
{
1000
<%%c1.9696>
1002
}
  0
LWPOLYLINE
  5
19A
100
AcDbEntity
  8
0
370
           0
  6
Continuous
 62
           7
100
AcDbPolyline
 90
        4
 70
           0
 10
5.887529368263
 20
5.405329215663
 40
0.0
 41
0.0
 10
5.990135024529
 20
5.57896123835
 40
0.0
 41
0.0
 10
5.942330523516
 20
5.599424123847
 40
0.0
 41
0.0
 10
5.887529368263
 20
5.405329215663
 40
0.0
 41
0.0
1001
TCAD
1000
TCW_ATTRIBUTE
1002
{
1000
<%%c1.9696>
1002
}
  0
HATCH
  5
198
100
AcDbEntity
  8
0
  6
Continuous
 62
           7
100
AcDbHatch
 10
0.0
 20
0.0
 30
0.0
210
0.0
220
0.0
230
1.0
  2
SOLID
 70
           1
 71
           1
 91
        1
 92
        3
 72
           0
 73
           1
 93
        3
 10
5.8875293682627641
 20
5.4053292156634845
 10
5.9901350245292226
 20
5.5789612383497662
 10
5.9423305235161044
 20
5.5994241238473403
 97
        1
330
199
 75
           0
 76
           0
 98
        0
1001
TCAD
1000
TCW_ATTRIBUTE
1002
{
1000
<%%c1.9696>
1002
}
  0
LWPOLYLINE
  5
19B
100
AcDbEntity
  8
0
370
           0
  6
Continuous
 62
           7
100
AcDbPolyline
 90
        2
 70
           0
 10
5.4
 20
4.5
 10
5.6
 20
4.5
1001
TCAD
1000
TCW_ATTRIBUTE
1002
{
1000
<%%c1.9696>
1002
}
  0
LWPOLYLINE
  5
19C
100
AcDbEntity
  8
0
370
           0
  6
Continuous
 62
           7
100
AcDbPolyline
 90
        2
 70
           0
 10
5.5
 20
4.4
 40
0.0
 41
0.0
 10
5.5
 20
4.6
 40
0.0
 41
0.0
1001
TCAD
1000
TCW_ATTRIBUTE
1002
{
1000
<%%c1.9696>
1002
}
  0
ENDBLK
  5
19D
100
AcDbEntity
  8
0
100
AcDbBlockEnd
  0
BLOCK
  5
1A0
100
AcDbEntity
  8
0
100
AcDbBlockBegin
  2
*D18
 70
           1
 10
0.0
 20
0.0
 30
0.0
  3
*D18
  1

  0
MTEXT
  5
1A1
100
AcDbEntity
  8
0
  6
Continuous
 62
           7
100
AcDbMText
 10
7.419362200574
 20
8.649614298806
 30
0.0
 40
0.120000001788
 41
0.0
 71
           5
 72
           1
  1
\A1;%%c1.3051{}in
 73
           1
 44
1.0
1001
TCAD
1000
TCW_REFPOINT
1002
{
1010
7.419362200574
1020
8.649614298806
1030
0.0
1002
}
1000
TCW_ATTRIBUTE
1002
{
1000
<%%c1.3051>
1002
}
  0
LWPOLYLINE
  5
1A2
100
AcDbEntity
  8
0
370
           0
  6
Continuous
 62
           7
100
AcDbPolyline
 90
        3
 70
           0
 10
5.7500511324
 20
5.315038551728
 40
0.0
 41
0.0
 10
6.773087944414
 20
8.649614298806
 40
0.0
 41
0.0
 10
6.973087944414
 20
8.649614298806
 40
0.0
 41
0.0
1001
TCAD
1000
TCW_ATTRIBUTE
1002
{
1000
<%%c1.3051>
1002
}
  0
LINE
  5
1A3
100
AcDbEntity
  8
0
370
           0
  6
Continuous
 62
           7
100
AcDbLine
 10
5.308609583067
 20
3.876165319731
 30
0.0
 11
5.308609583067
 21
3.876165319731
 31
0.0
1001
TCAD
1000
TCW_ATTRIBUTE
1002
{
1000
<%%c1.3051>
1002
}
  0
LWPOLYLINE
  5
1A6
100
AcDbEntity
  8
0
370
           0
  6
Continuous
 62
           7
100
AcDbPolyline
 90
        4
 70
           0
 10
5.691390416933
 20
5.123834680269
 40
0.0
 41
0.0
 10
5.774907635689
 20
5.307412658717
 40
0.0
 41
0.0
 10
5.72519462911
 20
5.322664444739
 40
0.0
 41
0.0
 10
5.691390416933
 20
5.123834680269
 40
0.0
 41
0.0
1001
TCAD
1000
TCW_ATTRIBUTE
1002
{
1000
<%%c1.3051>
1002
}
  0
HATCH
  5
1A4
100
AcDbEntity
  8
0
  6
Continuous
 62
           7
100
AcDbHatch
 10
0.0
 20
0.0
 30
0.0
210
0.0
220
0.0
230
1.0
  2
SOLID
 70
           1
 71
           1
 91
        1
 92
        3
 72
           0
 73
           1
 93
        3
 10
5.6913904169325891
 20
5.1238346802690344
 10
5.7749076356891846
 20
5.3074126587173307
 10
5.7251946291098461
 20
5.3226644447387308
 97
        1
330
1A5
 75
           0
 76
           0
 98
        0
1001
TCAD
1000
TCW_ATTRIBUTE
1002
{
1000
<%%c1.3051>
1002
}
  0
LWPOLYLINE
  5
1A7
100
AcDbEntity
  8
0
370
           0
  6
Continuous
 62
           7
100
AcDbPolyline
 90
        2
 70
           0
 10
5.4
 20
4.5
 10
5.6
 20
4.5
1001
TCAD
1000
TCW_ATTRIBUTE
1002
{
1000
<%%c1.3051>
1002
}
  0
LWPOLYLINE
  5
1A8
100
AcDbEntity
  8
0
370
           0
  6
Continuous
 62
           7
100
AcDbPolyline
 90
        2
 70
           0
 10
5.5
 20
4.4
 40
0.0
 41
0.0
 10
5.5
 20
4.6
 40
0.0
 41
0.0
1001
TCAD
1000
TCW_ATTRIBUTE
1002
{
1000
<%%c1.3051>
1002
}
  0
ENDBLK
  5
1A9
100
AcDbEntity
  8
0
100
AcDbBlockEnd
  0
BLOCK
  5
1AC
100
AcDbEntity
  8
0
100
AcDbBlockBegin
  2
*D19
 70
           1
 10
0.0
 20
0.0
 30
0.0
  3
*D19
  1

  0
MTEXT
  5
1AD
100
AcDbEntity
  8
0
  6
Continuous
 62
           7
100
AcDbMText
 10
7.27443064323
 20
9.251637690851
 30
0.0
 40
0.120000001788
 41
0.0
 71
           5
 72
           1
  1
\A1;%%c3.8749{}in
 73
           1
 44
1.0
1001
TCAD
1000
TCW_REFPOINT
1002
{
1010
7.27443064323
1020
9.251637690851
1030
0.0
1002
}
1000
TCW_ATTRIBUTE
1002
{
1000
<%%c3.8749>
1002
}
  0
LWPOLYLINE
  5
1AE
100
AcDbEntity
  8
0
370
           0
  6
Continuous
 62
           7
100
AcDbPolyline
 90
        3
 70
           0
 10
5.993762843603
 20
6.579660377672
 40
0.0
 41
0.0
 10
6.62815638707
 20
9.251637690851
 40
0.0
 41
0.0
 10
6.82815638707
 20
9.251637690851
 40
0.0
 41
0.0
1001
TCAD
1000
TCW_ATTRIBUTE
1002
{
1000
<%%c3.8749>
1002
}
  0
LINE
  5
1AF
100
AcDbEntity
  8
0
370
           0
  6
Continuous
 62
           7
100
AcDbLine
 10
5.052437781202
 20
2.614930224022
 30
0.0
 11
5.052437781202
 21
2.614930224022
 31
0.0
1001
TCAD
1000
TCW_ATTRIBUTE
1002
{
1000
<%%c3.8749>
1002
}
  0
LWPOLYLINE
  5
1B2
100
AcDbEntity
  8
0
370
           0
  6
Continuous
 62
           7
100
AcDbPolyline
 90
        4
 70
           0
 10
5.947562218798
 20
6.385069775978
 40
0.0
 41
0.0
 10
6.019059621823
 20
6.573654296447
 40
0.0
 41
0.0
 10
5.968466065383
 20
6.585666458896
 40
0.0
 41
0.0
 10
5.947562218798
 20
6.385069775978
 40
0.0
 41
0.0
1001
TCAD
1000
TCW_ATTRIBUTE
1002
{
1000
<%%c3.8749>
1002
}
  0
HATCH
  5
1B0
100
AcDbEntity
  8
0
  6
Continuous
 62
           7
100
AcDbHatch
 10
0.0
 20
0.0
 30
0.0
210
0.0
220
0.0
230
1.0
  2
SOLID
 70
           1
 71
           1
 91
        1
 92
        3
 72
           0
 73
           1
 93
        3
 10
5.9475622187980557
 20
6.3850697759776862
 10
6.0190596218233798
 20
6.573654296446982
 10
5.9684660653829509
 20
6.585666458896311
 97
        1
330
1B1
 75
           0
 76
           0
 98
        0
1001
TCAD
1000
TCW_ATTRIBUTE
1002
{
1000
<%%c3.8749>
1002
}
  0
LWPOLYLINE
  5
1B3
100
AcDbEntity
  8
0
370
           0
  6
Continuous
 62
           7
100
AcDbPolyline
 90
        2
 70
           0
 10
5.4
 20
4.5
 10
5.6
 20
4.5
1001
TCAD
1000
TCW_ATTRIBUTE
1002
{
1000
<%%c3.8749>
1002
}
  0
LWPOLYLINE
  5
1B4
100
AcDbEntity
  8
0
370
           0
  6
Continuous
 62
           7
100
AcDbPolyline
 90
        2
 70
           0
 10
5.5
 20
4.4
 40
0.0
 41
0.0
 10
5.5
 20
4.6
 40
0.0
 41
0.0
1001
TCAD
1000
TCW_ATTRIBUTE
1002
{
1000
<%%c3.8749>
1002
}
  0
ENDBLK
  5
1B5
100
AcDbEntity
  8
0
100
AcDbBlockEnd
  0
BLOCK
  5
1B8
100
AcDbEntity
  8
0
100
AcDbBlockBegin
  2
*D20
 70
           1
 10
0.0
 20
0.0
 30
0.0
  3
*D20
  1

  0
MTEXT
  5
1B9
100
AcDbEntity
  8
0
  6
Continuous
 62
           7
100
AcDbMText
 10
7.162944829888
 20
9.530352224205
 30
0.0
 40
0.120000001788
 41
0.0
 71
           5
 72
           1
  1
\A1;%%c4.5527{}in
 73
           1
 44
1.0
1001
TCAD
1000
TCW_REFPOINT
1002
{
1010
7.162944829888
1020
9.530352224205
1030
0.0
1002
}
1000
TCW_ATTRIBUTE
1002
{
1000
<%%c4.5527>
1002
}
  0
LWPOLYLINE
  5
1BA
100
AcDbEntity
  8
0
370
           0
  6
Continuous
 62
           7
100
AcDbPolyline
 90
        3
 70
           0
 10
5.99057063643
 20
6.927278959245
 40
0.0
 41
0.0
 10
6.516670573728
 20
9.530352224205
 40
0.0
 41
0.0
 10
6.716670573728
 20
9.530352224205
 40
0.0
 41
0.0
1001
TCAD
1000
TCW_ATTRIBUTE
1002
{
1000
<%%c4.5527>
1002
}
  0
LINE
  5
1BB
100
AcDbEntity
  8
0
370
           0
  6
Continuous
 62
           7
100
AcDbLine
 10
5.049049716231
 20
2.268757332434
 30
0.0
 11
5.049049716231
 21
2.268757332434
 31
0.0
1001
TCAD
1000
TCW_ATTRIBUTE
1002
{
1000
<%%c4.5527>
1002
}
  0
LWPOLYLINE
  5
1BE
100
AcDbEntity
  8
0
370
           0
  6
Continuous
 62
           7
100
AcDbPolyline
 90
        4
 70
           0
 10
5.950950283769
 20
6.731242667566
 40
0.0
 41
0.0
 10
6.016055354348
 20
6.922128313399
 40
0.0
 41
0.0
 10
5.965085918512
 20
6.932429605091
 40
0.0
 41
0.0
 10
5.950950283769
 20
6.731242667566
 40
0.0
 41
0.0
1001
TCAD
1000
TCW_ATTRIBUTE
1002
{
1000
<%%c4.5527>
1002
}
  0
HATCH
  5
1BC
100
AcDbEntity
  8
0
  6
Continuous
 62
           7
100
AcDbHatch
 10
0.0
 20
0.0
 30
0.0
210
0.0
220
0.0
230
1.0
  2
SOLID
 70
           1
 71
           1
 91
        1
 92
        3
 72
           0
 73
           1
 93
        3
 10
5.9509502837686981
 20
6.7312426675664208
 10
6.0160553543479258
 20
6.9221283133988774
 10
5.9650859185115435
 20
6.9324296050907463
 97
        1
330
1BD
 75
           0
 76
           0
 98
        0
1001
TCAD
1000
TCW_ATTRIBUTE
1002
{
1000
<%%c4.5527>
1002
}
  0
LWPOLYLINE
  5
1BF
100
AcDbEntity
  8
0
370
           0
  6
Continuous
 62
           7
100
AcDbPolyline
 90
        2
 70
           0
 10
5.4
 20
4.5
 10
5.6
 20
4.5
1001
TCAD
1000
TCW_ATTRIBUTE
1002
{
1000
<%%c4.5527>
1002
}
  0
LWPOLYLINE
  5
1C0
100
AcDbEntity
  8
0
370
           0
  6
Continuous
 62
           7
100
AcDbPolyline
 90
        2
 70
           0
 10
5.5
 20
4.4
 40
0.0
 41
0.0
 10
5.5
 20
4.6
 40
0.0
 41
0.0
1001
TCAD
1000
TCW_ATTRIBUTE
1002
{
1000
<%%c4.5527>
1002
}
  0
ENDBLK
  5
1C1
100
AcDbEntity
  8
0
100
AcDbBlockEnd
  0
ENDSEC
  0
SECTION
  2
ENTITIES
  0
CIRCLE
  5
30
100
AcDbEntity
  8
0
370
           0
  6
Continuous
 62
           7
100
AcDbCircle
 10
5.5
 20
4.5
 30
0.0
 40
0.0985
1001
TCAD
1000
TCW_CUSTOM_DATA
1002
{
1000
#$AUX@_ToolInfo Properties
1070
           8
1000
Insert^JCircle^JCenterAndPoint@Circle CenterAndPoint
1002
}
  0
CIRCLE
  5
31
100
AcDbEntity
  8
0
370
           0
  6
Continuous
 62
           7
100
AcDbCircle
 10
5.5
 20
4.5
 30
0.0
 40
2.7
1001
TCAD
1000
TCW_CUSTOM_DATA
1002
{
1000
#$AUX@_ToolInfo Properties
1070
           8
1000
Insert^JCircle^JCenterAndPoint@Circle CenterAndPoint
1002
}
  0
CIRCLE
  5
32
100
AcDbEntity
  8
0
370
           0
  6
Continuous
 62
           7
100
AcDbCircle
 10
3.681346652053
 20
5.55
 30
0.0
 40
0.1375
1001
TCAD
1000
TCW_CUSTOM_DATA
1002
{
1000
#$AUX@_ToolInfo Properties
1070
           8
1000
Insert^JCircle^JCenterAndPoint@Circle CenterAndPoint
1002
}
  0
CIRCLE
  5
33
100
AcDbEntity
  8
0
370
           0
  6
Continuous
 62
           7
100
AcDbCircle
 10
4.45
 20
6.318653347947
 30
0.0
 40
0.1375
1001
TCAD
1000
TCW_CUSTOM_DATA
1002
{
1000
#$AUX@_ToolInfo Properties
1070
           8
1000
Insert^JCircle^JCenterAndPoint@Circle CenterAndPoint
1002
}
  0
CIRCLE
  5
34
100
AcDbEntity
  8
0
370
           0
  6
Continuous
 62
           7
100
AcDbCircle
 10
6.55
 20
6.318653347947
 30
0.0
 40
0.1375
1001
TCAD
1000
TCW_CUSTOM_DATA
1002
{
1000
#$AUX@_ToolInfo Properties
1070
           8
1000
Insert^JCircle^JCenterAndPoint@Circle CenterAndPoint
1002
}
  0
CIRCLE
  5
35
100
AcDbEntity
  8
0
370
           0
  6
Continuous
 62
           7
100
AcDbCircle
 10
7.318653347947
 20
5.55
 30
0.0
 40
0.1375
1001
TCAD
1000
TCW_CUSTOM_DATA
1002
{
1000
#$AUX@_ToolInfo Properties
1070
           8
1000
Insert^JCircle^JCenterAndPoint@Circle CenterAndPoint
1002
}
  0
CIRCLE
  5
36
100
AcDbEntity
  8
0
370
           0
  6
Continuous
 62
           7
100
AcDbCircle
 10
7.318653347947
 20
3.45
 30
0.0
 40
0.1375
1001
TCAD
1000
TCW_CUSTOM_DATA
1002
{
1000
#$AUX@_ToolInfo Properties
1070
           8
1000
Insert^JCircle^JCenterAndPoint@Circle CenterAndPoint
1002
}
  0
CIRCLE
  5
37
100
AcDbEntity
  8
0
370
           0
  6
Continuous
 62
           7
100
AcDbCircle
 10
6.55
 20
2.681346652053
 30
0.0
 40
0.1375
1001
TCAD
1000
TCW_CUSTOM_DATA
1002
{
1000
#$AUX@_ToolInfo Properties
1070
           8
1000
Insert^JCircle^JCenterAndPoint@Circle CenterAndPoint
1002
}
  0
CIRCLE
  5
38
100
AcDbEntity
  8
0
370
           0
  6
Continuous
 62
           7
100
AcDbCircle
 10
4.45
 20
2.681346652053
 30
0.0
 40
0.1375
1001
TCAD
1000
TCW_CUSTOM_DATA
1002
{
1000
#$AUX@_ToolInfo Properties
1070
           8
1000
Insert^JCircle^JCenterAndPoint@Circle CenterAndPoint
1002
}
  0
CIRCLE
  5
39
100
AcDbEntity
  8
0
370
           0
  6
Continuous
 62
           7
100
AcDbCircle
 10
3.681346652053
 20
3.45
 30
0.0
 40
0.1375
1001
TCAD
1000
TCW_CUSTOM_DATA
1002
{
1000
#$AUX@_ToolInfo Properties
1070
           8
1000
Insert^JCircle^JCenterAndPoint@Circle CenterAndPoint
1002
}
  0
CIRCLE
  5
3A
100
AcDbEntity
  8
0
370
           0
  6
Continuous
 62
           7
100
AcDbCircle
 10
5.1
 20
3.807179676972
 30
0.0
 40
0.1375
1001
TCAD
1000
TCW_CUSTOM_DATA
1002
{
1000
#$AUX@_ToolInfo Properties
1070
           8
1000
Insert^JCircle^JCenterAndPoint@Circle CenterAndPoint
1002
}
  0
CIRCLE
  5
3B
100
AcDbEntity
  8
0
370
           0
  6
Continuous
 62
           7
100
AcDbCircle
 10
4.807179676972
 20
4.1
 30
0.0
 40
0.1375
1001
TCAD
1000
TCW_CUSTOM_DATA
1002
{
1000
#$AUX@_ToolInfo Properties
1070
           8
1000
Insert^JCircle^JCenterAndPoint@Circle CenterAndPoint
1002
}
  0
CIRCLE
  5
3C
100
AcDbEntity
  8
0
370
           0
  6
Continuous
 62
           7
100
AcDbCircle
 10
4.807179676972
 20
4.9
 30
0.0
 40
0.1375
1001
TCAD
1000
TCW_CUSTOM_DATA
1002
{
1000
#$AUX@_ToolInfo Properties
1070
           8
1000
Insert^JCircle^JCenterAndPoint@Circle CenterAndPoint
1002
}
  0
CIRCLE
  5
3D
100
AcDbEntity
  8
0
370
           0
  6
Continuous
 62
           7
100
AcDbCircle
 10
5.1
 20
5.192820323028
 30
0.0
 40
0.1375
1001
TCAD
1000
TCW_CUSTOM_DATA
1002
{
1000
#$AUX@_ToolInfo Properties
1070
           8
1000
Insert^JCircle^JCenterAndPoint@Circle CenterAndPoint
1002
}
  0
CIRCLE
  5
3E
100
AcDbEntity
  8
0
370
           0
  6
Continuous
 62
           7
100
AcDbCircle
 10
5.9
 20
5.192820323028
 30
0.0
 40
0.1375
1001
TCAD
1000
TCW_CUSTOM_DATA
1002
{
1000
#$AUX@_ToolInfo Properties
1070
           8
1000
Insert^JCircle^JCenterAndPoint@Circle CenterAndPoint
1002
}
  0
CIRCLE
  5
3F
100
AcDbEntity
  8
0
370
           0
  6
Continuous
 62
           7
100
AcDbCircle
 10
6.192820323028
 20
4.9
 30
0.0
 40
0.1375
1001
TCAD
1000
TCW_CUSTOM_DATA
1002
{
1000
#$AUX@_ToolInfo Properties
1070
           8
1000
Insert^JCircle^JCenterAndPoint@Circle CenterAndPoint
1002
}
  0
CIRCLE
  5
40
100
AcDbEntity
  8
0
370
           0
  6
Continuous
 62
           7
100
AcDbCircle
 10
6.192820323028
 20
4.1
 30
0.0
 40
0.1375
1001
TCAD
1000
TCW_CUSTOM_DATA
1002
{
1000
#$AUX@_ToolInfo Properties
1070
           8
1000
Insert^JCircle^JCenterAndPoint@Circle CenterAndPoint
1002
}
  0
CIRCLE
  5
41
100
AcDbEntity
  8
0
370
           0
  6
Continuous
 62
           7
100
AcDbCircle
 10
5.9
 20
3.807179676972
 30
0.0
 40
0.1375
1001
TCAD
1000
TCW_CUSTOM_DATA
1002
{
1000
#$AUX@_ToolInfo Properties
1070
           8
1000
Insert^JCircle^JCenterAndPoint@Circle CenterAndPoint
1002
}
  0
CIRCLE
  5
42
100
AcDbEntity
  8
0
370
           0
  6
Continuous
 62
           7
100
AcDbCircle
 10
4.682224318643
 20
6.256429029304
 30
0.0
 40
0.05
1001
TCAD
1000
TCW_CUSTOM_DATA
1002
{
1000
#$AUX@_ToolInfo Properties
1070
           8
1000
Insert^JCircle^JCenterAndPoint@Circle CenterAndPoint
1002
}
  0
CIRCLE
  5
43
100
AcDbEntity
  8
0
370
           0
  6
Continuous
 62
           7
100
AcDbCircle
 10
4.387775681357
 20
6.086429029304
 30
0.0
 40
0.05
1001
TCAD
1000
TCW_CUSTOM_DATA
1002
{
1000
#$AUX@_ToolInfo Properties
1070
           8
1000
Insert^JCircle^JCenterAndPoint@Circle CenterAndPoint
1002
}
  0
CIRCLE
  5
44
100
AcDbEntity
  8
0
370
           0
  6
Continuous
 62
           7
100
AcDbCircle
 10
4.512224318643
 20
6.550877666591
 30
0.0
 40
0.05
1001
TCAD
1000
TCW_CUSTOM_DATA
1002
{
1000
#$AUX@_ToolInfo Properties
1070
           8
1000
Insert^JCircle^JCenterAndPoint@Circle CenterAndPoint
1002
}
  0
CIRCLE
  5
45
100
AcDbEntity
  8
0
370
           0
  6
Continuous
 62
           7
100
AcDbCircle
 10
4.217775681357
 20
6.380877666591
 30
0.0
 40
0.05
1001
TCAD
1000
TCW_CUSTOM_DATA
1002
{
1000
#$AUX@_ToolInfo Properties
1070
           8
1000
Insert^JCircle^JCenterAndPoint@Circle CenterAndPoint
1002
}
  0
CIRCLE
  5
46
100
AcDbEntity
  8
0
370
           0
  6
Continuous
 62
           7
100
AcDbCircle
 10
5.332224318643
 20
5.130596004384
 30
0.0
 40
0.05
1001
TCAD
1000
TCW_CUSTOM_DATA
1002
{
1000
#$AUX@_ToolInfo Properties
1070
           8
1000
Insert^JCircle^JCenterAndPoint@Circle CenterAndPoint
1002
}
  0
CIRCLE
  5
47
100
AcDbEntity
  8
0
370
           0
  6
Continuous
 62
           7
100
AcDbCircle
 10
5.037775681357
 20
4.960596004384
 30
0.0
 40
0.05
1001
TCAD
1000
TCW_CUSTOM_DATA
1002
{
1000
#$AUX@_ToolInfo Properties
1070
           8
1000
Insert^JCircle^JCenterAndPoint@Circle CenterAndPoint
1002
}
  0
CIRCLE
  5
48
100
AcDbEntity
  8
0
370
           0
  6
Continuous
 62
           7
100
AcDbCircle
 10
5.162224318643
 20
5.425044641671
 30
0.0
 40
0.05
1001
TCAD
1000
TCW_CUSTOM_DATA
1002
{
1000
#$AUX@_ToolInfo Properties
1070
           8
1000
Insert^JCircle^JCenterAndPoint@Circle CenterAndPoint
1002
}
  0
CIRCLE
  5
49
100
AcDbEntity
  8
0
370
           0
  6
Continuous
 62
           7
100
AcDbCircle
 10
4.867775681357
 20
5.255044641671
 30
0.0
 40
0.05
1001
TCAD
1000
TCW_CUSTOM_DATA
1002
{
1000
#$AUX@_ToolInfo Properties
1070
           8
1000
Insert^JCircle^JCenterAndPoint@Circle CenterAndPoint
1002
}
  0
CIRCLE
  5
4A
100
AcDbEntity
  8
0
370
           0
  6
Continuous
 62
           7
100
AcDbCircle
 10
3.743570970696
 20
3.682224318643
 30
0.0
 40
0.05
1001
TCAD
1000
TCW_CUSTOM_DATA
1002
{
1000
#$AUX@_ToolInfo Properties
1070
           8
1000
Insert^JCircle^JCenterAndPoint@Circle CenterAndPoint
1002
}
  0
CIRCLE
  5
4B
100
AcDbEntity
  8
0
370
           0
  6
Continuous
 62
           7
100
AcDbCircle
 10
3.913570970696
 20
3.387775681357
 30
0.0
 40
0.05
1001
TCAD
1000
TCW_CUSTOM_DATA
1002
{
1000
#$AUX@_ToolInfo Properties
1070
           8
1000
Insert^JCircle^JCenterAndPoint@Circle CenterAndPoint
1002
}
  0
CIRCLE
  5
4C
100
AcDbEntity
  8
0
370
           0
  6
Continuous
 62
           7
100
AcDbCircle
 10
3.449122333409
 20
3.512224318643
 30
0.0
 40
0.05
1001
TCAD
1000
TCW_CUSTOM_DATA
1002
{
1000
#$AUX@_ToolInfo Properties
1070
           8
1000
Insert^JCircle^JCenterAndPoint@Circle CenterAndPoint
1002
}
  0
CIRCLE
  5
4D
100
AcDbEntity
  8
0
370
           0
  6
Continuous
 62
           7
100
AcDbCircle
 10
3.619122333409
 20
3.217775681357
 30
0.0
 40
0.05
1001
TCAD
1000
TCW_CUSTOM_DATA
1002
{
1000
#$AUX@_ToolInfo Properties
1070
           8
1000
Insert^JCircle^JCenterAndPoint@Circle CenterAndPoint
1002
}
  0
CIRCLE
  5
4E
100
AcDbEntity
  8
0
370
           0
  6
Continuous
 62
           7
100
AcDbCircle
 10
4.869403995616
 20
4.332224318643
 30
0.0
 40
0.05
1001
TCAD
1000
TCW_CUSTOM_DATA
1002
{
1000
#$AUX@_ToolInfo Properties
1070
           8
1000
Insert^JCircle^JCenterAndPoint@Circle CenterAndPoint
1002
}
  0
CIRCLE
  5
4F
100
AcDbEntity
  8
0
370
           0
  6
Continuous
 62
           7
100
AcDbCircle
 10
5.039403995616
 20
4.037775681357
 30
0.0
 40
0.05
1001
TCAD
1000
TCW_CUSTOM_DATA
1002
{
1000
#$AUX@_ToolInfo Properties
1070
           8
1000
Insert^JCircle^JCenterAndPoint@Circle CenterAndPoint
1002
}
  0
CIRCLE
  5
50
100
AcDbEntity
  8
0
370
           0
  6
Continuous
 62
           7
100
AcDbCircle
 10
4.574955358329
 20
4.162224318643
 30
0.0
 40
0.05
1001
TCAD
1000
TCW_CUSTOM_DATA
1002
{
1000
#$AUX@_ToolInfo Properties
1070
           8
1000
Insert^JCircle^JCenterAndPoint@Circle CenterAndPoint
1002
}
  0
CIRCLE
  5
51
100
AcDbEntity
  8
0
370
           0
  6
Continuous
 62
           7
100
AcDbCircle
 10
4.744955358329
 20
3.867775681357
 30
0.0
 40
0.05
1001
TCAD
1000
TCW_CUSTOM_DATA
1002
{
1000
#$AUX@_ToolInfo Properties
1070
           8
1000
Insert^JCircle^JCenterAndPoint@Circle CenterAndPoint
1002
}
  0
CIRCLE
  5
52
100
AcDbEntity
  8
0
370
           0
  6
Continuous
 62
           7
100
AcDbCircle
 10
7.256429029304
 20
5.317775681357
 30
0.0
 40
0.05
1001
TCAD
1000
TCW_CUSTOM_DATA
1002
{
1000
#$AUX@_ToolInfo Properties
1070
           8
1000
Insert^JCircle^JCenterAndPoint@Circle CenterAndPoint
1002
}
  0
CIRCLE
  5
53
100
AcDbEntity
  8
0
370
           0
  6
Continuous
 62
           7
100
AcDbCircle
 10
7.086429029304
 20
5.612224318643
 30
0.0
 40
0.05
1001
TCAD
1000
TCW_CUSTOM_DATA
1002
{
1000
#$AUX@_ToolInfo Properties
1070
           8
1000
Insert^JCircle^JCenterAndPoint@Circle CenterAndPoint
1002
}
  0
CIRCLE
  5
54
100
AcDbEntity
  8
0
370
           0
  6
Continuous
 62
           7
100
AcDbCircle
 10
7.550877666591
 20
5.487775681357
 30
0.0
 40
0.05
1001
TCAD
1000
TCW_CUSTOM_DATA
1002
{
1000
#$AUX@_ToolInfo Properties
1070
           8
1000
Insert^JCircle^JCenterAndPoint@Circle CenterAndPoint
1002
}
  0
CIRCLE
  5
55
100
AcDbEntity
  8
0
370
           0
  6
Continuous
 62
           7
100
AcDbCircle
 10
7.380877666591
 20
5.782224318643
 30
0.0
 40
0.05
1001
TCAD
1000
TCW_CUSTOM_DATA
1002
{
1000
#$AUX@_ToolInfo Properties
1070
           8
1000
Insert^JCircle^JCenterAndPoint@Circle CenterAndPoint
1002
}
  0
CIRCLE
  5
56
100
AcDbEntity
  8
0
370
           0
  6
Continuous
 62
           7
100
AcDbCircle
 10
6.130596004384
 20
4.667775681357
 30
0.0
 40
0.05
1001
TCAD
1000
TCW_CUSTOM_DATA
1002
{
1000
#$AUX@_ToolInfo Properties
1070
           8
1000
Insert^JCircle^JCenterAndPoint@Circle CenterAndPoint
1002
}
  0
CIRCLE
  5
57
100
AcDbEntity
  8
0
370
           0
  6
Continuous
 62
           7
100
AcDbCircle
 10
5.960596004384
 20
4.962224318643
 30
0.0
 40
0.05
1001
TCAD
1000
TCW_CUSTOM_DATA
1002
{
1000
#$AUX@_ToolInfo Properties
1070
           8
1000
Insert^JCircle^JCenterAndPoint@Circle CenterAndPoint
1002
}
  0
CIRCLE
  5
58
100
AcDbEntity
  8
0
370
           0
  6
Continuous
 62
           7
100
AcDbCircle
 10
6.425044641671
 20
4.837775681357
 30
0.0
 40
0.05
1001
TCAD
1000
TCW_CUSTOM_DATA
1002
{
1000
#$AUX@_ToolInfo Properties
1070
           8
1000
Insert^JCircle^JCenterAndPoint@Circle CenterAndPoint
1002
}
  0
CIRCLE
  5
59
100
AcDbEntity
  8
0
370
           0
  6
Continuous
 62
           7
100
AcDbCircle
 10
6.255044641671
 20
5.132224318643
 30
0.0
 40
0.05
1001
TCAD
1000
TCW_CUSTOM_DATA
1002
{
1000
#$AUX@_ToolInfo Properties
1070
           8
1000
Insert^JCircle^JCenterAndPoint@Circle CenterAndPoint
1002
}
  0
CIRCLE
  5
5A
100
AcDbEntity
  8
0
370
           0
  6
Continuous
 62
           7
100
AcDbCircle
 10
6.317775681357
 20
2.743570970696
 30
0.0
 40
0.05
1001
TCAD
1000
TCW_CUSTOM_DATA
1002
{
1000
#$AUX@_ToolInfo Properties
1070
           8
1000
Insert^JCircle^JCenterAndPoint@Circle CenterAndPoint
1002
}
  0
CIRCLE
  5
5B
100
AcDbEntity
  8
0
370
           0
  6
Continuous
 62
           7
100
AcDbCircle
 10
6.612224318643
 20
2.913570970696
 30
0.0
 40
0.05
1001
TCAD
1000
TCW_CUSTOM_DATA
1002
{
1000
#$AUX@_ToolInfo Properties
1070
           8
1000
Insert^JCircle^JCenterAndPoint@Circle CenterAndPoint
1002
}
  0
CIRCLE
  5
5C
100
AcDbEntity
  8
0
370
           0
  6
Continuous
 62
           7
100
AcDbCircle
 10
6.487775681357
 20
2.449122333409
 30
0.0
 40
0.05
1001
TCAD
1000
TCW_CUSTOM_DATA
1002
{
1000
#$AUX@_ToolInfo Properties
1070
           8
1000
Insert^JCircle^JCenterAndPoint@Circle CenterAndPoint
1002
}
  0
CIRCLE
  5
5D
100
AcDbEntity
  8
0
370
           0
  6
Continuous
 62
           7
100
AcDbCircle
 10
6.782224318643
 20
2.619122333409
 30
0.0
 40
0.05
1001
TCAD
1000
TCW_CUSTOM_DATA
1002
{
1000
#$AUX@_ToolInfo Properties
1070
           8
1000
Insert^JCircle^JCenterAndPoint@Circle CenterAndPoint
1002
}
  0
CIRCLE
  5
5E
100
AcDbEntity
  8
0
370
           0
  6
Continuous
 62
           7
100
AcDbCircle
 10
5.667775681357
 20
3.869403995616
 30
0.0
 40
0.05
1001
TCAD
1000
TCW_CUSTOM_DATA
1002
{
1000
#$AUX@_ToolInfo Properties
1070
           8
1000
Insert^JCircle^JCenterAndPoint@Circle CenterAndPoint
1002
}
  0
CIRCLE
  5
5F
100
AcDbEntity
  8
0
370
           0
  6
Continuous
 62
           7
100
AcDbCircle
 10
5.962224318643
 20
4.039403995616
 30
0.0
 40
0.05
1001
TCAD
1000
TCW_CUSTOM_DATA
1002
{
1000
#$AUX@_ToolInfo Properties
1070
           8
1000
Insert^JCircle^JCenterAndPoint@Circle CenterAndPoint
1002
}
  0
CIRCLE
  5
60
100
AcDbEntity
  8
0
370
           0
  6
Continuous
 62
           7
100
AcDbCircle
 10
5.837775681357
 20
3.574955358329
 30
0.0
 40
0.05
1001
TCAD
1000
TCW_CUSTOM_DATA
1002
{
1000
#$AUX@_ToolInfo Properties
1070
           8
1000
Insert^JCircle^JCenterAndPoint@Circle CenterAndPoint
1002
}
  0
CIRCLE
  5
61
100
AcDbEntity
  8
0
370
           0
  6
Continuous
 62
           7
100
AcDbCircle
 10
6.132224318643
 20
3.744955358329
 30
0.0
 40
0.05
1001
TCAD
1000
TCW_CUSTOM_DATA
1002
{
1000
#$AUX@_ToolInfo Properties
1070
           8
1000
Insert^JCircle^JCenterAndPoint@Circle CenterAndPoint
1002
}
  0
CIRCLE
  5
62
100
AcDbEntity
  8
0
370
           0
  6
DASHDOT
 62
           7
 48
0.140000000596
100
AcDbCircle
 10
5.5
 20
4.5
 30
0.0
 40
0.652533524043
1001
TCAD
1000
TCW_CUSTOM_DATA
1002
{
1000
#$AUX@_ToolInfo Properties
1070
           8
1000
Insert^JCircle^JCenterAndPoint@Circle CenterAndPoint
1002
}
  0
CIRCLE
  5
63
100
AcDbEntity
  8
0
370
           0
  6
DASHDOT
 62
           7
 48
0.140000000596
100
AcDbCircle
 10
5.5
 20
4.5
 30
0.0
 40
0.8
1001
TCAD
1000
TCW_CUSTOM_DATA
1002
{
1000
#$AUX@_ToolInfo Properties
1070
           8
1000
Insert^JCircle^JCenterAndPoint@Circle CenterAndPoint
1002
}
  0
CIRCLE
  5
64
100
AcDbEntity
  8
0
370
           0
  6
DASHDOT
 62
           7
 48
0.140000000596
100
AcDbCircle
 10
5.5
 20
4.5
 30
0.0
 40
0.984784240329
1001
TCAD
1000
TCW_CUSTOM_DATA
1002
{
1000
#$AUX@_ToolInfo Properties
1070
           8
1000
Insert^JCircle^JCenterAndPoint@Circle CenterAndPoint
1002
}
  0
CIRCLE
  5
65
100
AcDbEntity
  8
0
370
           0
  6
DASHDOT
 62
           7
 48
0.140000000596
100
AcDbCircle
 10
5.5
 20
4.5
 30
0.0
 40
1.937472580451
1001
TCAD
1000
TCW_CUSTOM_DATA
1002
{
1000
#$AUX@_ToolInfo Properties
1070
           8
1000
Insert^JCircle^JCenterAndPoint@Circle CenterAndPoint
1002
}
  0
CIRCLE
  5
66
100
AcDbEntity
  8
0
370
           0
  6
DASHDOT
 62
           7
 48
0.140000000596
100
AcDbCircle
 10
5.5
 20
4.5
 30
0.0
 40
2.276356738299
1001
TCAD
1000
TCW_CUSTOM_DATA
1002
{
1000
#$AUX@_ToolInfo Properties
1070
           8
1000
Insert^JCircle^JCenterAndPoint@Circle CenterAndPoint
1002
}
  0
CIRCLE
  5
67
100
AcDbEntity
  8
0
370
           0
  6
DASHDOT
 62
           7
 48
0.140000000596
100
AcDbCircle
 10
5.5
 20
4.5
 30
0.0
 40
2.1
1001
TCAD
1000
TCW_CUSTOM_DATA
1002
{
1000
#$AUX@_ToolInfo Properties
1070
           8
1000
Insert^JCircle^JCenterAndPoint@Circle CenterAndPoint
1002
}
  0
LINE
  5
68
100
AcDbEntity
  8
0
370
           0
  6
DASHDOT
 62
           7
 48
0.140000000596
100
AcDbLine
 10
5.925303104678
 20
4.926806650308
 30
0.0
 11
5.995888904091
 21
4.997641986979
 31
0.0
1001
TCAD
1000
TCW_CUSTOM_DATA
1002
{
1000
#$AUX@_ToolInfo Properties
1070
           8
1000
Insert^JLine^JSingle@Line Single
1002
}
  0
LINE
  5
69
100
AcDbEntity
  8
0
370
           0
  6
DASHDOT
 62
           7
 48
0.140000000596
100
AcDbLine
 10
6.08227695401
 20
4.654919967805
 30
0.0
 11
6.178915054759
 21
4.680631394908
 31
0.0
1001
TCAD
1000
TCW_CUSTOM_DATA
1002
{
1000
#$AUX@_ToolInfo Properties
1070
           8
1000
Insert^JLine^JSingle@Line Single
1002
}
  0
LINE
  5
6A
100
AcDbEntity
  8
0
370
           0
  6
DASHDOT
 62
           7
 48
0.140000000596
100
AcDbLine
 10
6.378077773001
 20
4.820625951115
 30
0.0
 11
6.472011510341
 21
4.854925411598
 31
0.0
1001
TCAD
1000
TCW_CUSTOM_DATA
1002
{
1000
#$AUX@_ToolInfo Properties
1070
           8
1000
Insert^JLine^JSingle@Line Single
1002
}
  0
LINE
  5
6B
100
AcDbEntity
  8
0
370
           0
  6
DASHDOT
 62
           7
 48
0.140000000596
100
AcDbLine
 10
6.073741830007
 20
4.83125
 30
0.0
 11
6.311898816048
 21
4.96875
 31
0.0
1001
TCAD
1000
TCW_CUSTOM_DATA
1002
{
1000
#$AUX@_ToolInfo Properties
1070
           8
1000
Insert^JLine^JSingle@Line Single
1002
}
  0
LINE
  5
6C
100
AcDbEntity
  8
0
370
           0
  6
DASHDOT
 62
           7
 48
0.140000000596
100
AcDbLine
 10
6.216709105279
 20
5.10012468236
 30
0.0
 11
6.293380178063
 21
5.164323954927
 31
0.0
1001
TCAD
1000
TCW_CUSTOM_DATA
1002
{
1000
#$AUX@_ToolInfo Properties
1070
           8
1000
Insert^JLine^JSingle@Line Single
1002
}
  0
LINE
  5
6D
100
AcDbEntity
  8
0
370
           0
  6
DASHDOT
 62
           7
 48
0.140000000596
100
AcDbLine
 10
5.5
 20
4.5
 30
0.0
 11
5.5
 21
4.5
 31
0.0
1001
TCAD
1000
TCW_CUSTOM_DATA
1002
{
1000
#$AUX@_ToolInfo Properties
1070
           8
1000
Insert^JLine^JSingle@Line Single
1002
}
  0
LINE
  5
6E
100
AcDbEntity
  8
0
370
           0
  6
DASHDOT
 62
           7
 48
0.140000000596
100
AcDbLine
 10
5.5
 20
4.5
 30
0.0
 11
5.5
 21
4.5
 31
0.0
1001
TCAD
1000
TCW_CUSTOM_DATA
1002
{
1000
#$AUX@_ToolInfo Properties
1070
           8
1000
Insert^JLine^JSingle@Line Single
1002
}
  0
LINE
  5
6F
100
AcDbEntity
  8
0
370
           0
  6
DASHDOT
 62
           7
 48
0.140000000596
100
AcDbLine
 10
7.199574854927
 20
5.48125
 30
0.0
 11
7.437731840968
 21
5.61875
 31
0.0
1001
TCAD
1000
TCW_CUSTOM_DATA
1002
{
1000
#$AUX@_ToolInfo Properties
1070
           8
1000
Insert^JLine^JSingle@Line Single
1002
}
  0
LINE
  5
70
100
AcDbEntity
  8
0
370
           0
  6
DASHDOT
 62
           7
 48
0.140000000596
100
AcDbLine
 10
7.045488345928
 20
5.583521349376
 30
0.0
 11
7.12736971268
 21
5.64092728791
 31
0.0
1001
TCAD
1000
TCW_CUSTOM_DATA
1002
{
1000
#$AUX@_ToolInfo Properties
1070
           8
1000
Insert^JLine^JSingle@Line Single
1002
}
  0
LINE
  5
71
100
AcDbEntity
  8
0
370
           0
  6
DASHDOT
 62
           7
 48
0.140000000596
100
AcDbLine
 10
7.339564333866
 20
5.754060360484
 30
0.0
 11
7.422190999315
 21
5.810388276802
 31
0.0
1001
TCAD
1000
TCW_CUSTOM_DATA
1002
{
1000
#$AUX@_ToolInfo Properties
1070
           8
1000
Insert^JLine^JSingle@Line Single
1002
}
  0
LINE
  5
72
100
AcDbEntity
  8
0
370
           0
  6
DASHDOT
 62
           7
 48
0.140000000596
100
AcDbLine
 10
7.505830296992
 20
5.466079264781
 30
0.0
 11
7.59592503619
 21
5.509472097932
 31
0.0
1001
TCAD
1000
TCW_CUSTOM_DATA
1002
{
1000
#$AUX@_ToolInfo Properties
1070
           8
1000
Insert^JLine^JSingle@Line Single
1002
}
  0
LINE
  5
73
100
AcDbEntity
  8
0
370
           0
  6
DASHDOT
 62
           7
 48
0.140000000596
100
AcDbLine
 10
7.211101187067
 20
5.296671494139
 30
0.0
 11
7.301756871541
 21
5.338879868575
 31
0.0
1001
TCAD
1000
TCW_CUSTOM_DATA
1002
{
1000
#$AUX@_ToolInfo Properties
1070
           8
1000
Insert^JLine^JSingle@Line Single
1002
}
  0
CIRCLE
  5
74
100
AcDbEntity
  8
0
370
           0
  6
DASHDOT
 62
           7
 48
0.140000000596
100
AcDbCircle
 10
5.5
 20
4.5
 30
0.0
 40
2.5302
1001
TCAD
1000
TCW_CUSTOM_DATA
1002
{
1000
#$AUX@_ToolInfo Properties
1070
           8
1000
Insert^JCircle^JCenterAndPoint@Circle CenterAndPoint
1002
}
  0
LINE
  5
75
100
AcDbEntity
  8
0
370
           0
  6
DASHDOT
 62
           7
 48
0.140000000596
100
AcDbLine
 10
5.5
 20
1.5
 30
0.0
 11
5.5
 21
7.5
 31
0.0
1001
TCAD
1000
TCW_CUSTOM_DATA
1002
{
1000
#$AUX@_ToolInfo Properties
1070
           8
1000
Insert^JLine^JSingle@Line Single
1002
}
  0
LINE
  5
76
100
AcDbEntity
  8
0
370
           0
  6
DASHDOT
 62
           7
 48
0.140000000596
100
AcDbLine
 10
2.772019978079
 20
6.075
 30
0.0
 11
8.227980021921
 21
2.925
 31
0.0
1001
TCAD
1000
TCW_CUSTOM_DATA
1002
{
1000
#$AUX@_ToolInfo Properties
1070
           8
1000
Insert^JLine^JSingle@Line Single
1002
}
  0
LINE
  5
77
100
AcDbEntity
  8
0
370
           0
  6
DASHDOT
 62
           7
 48
0.140000000596
100
AcDbLine
 10
7.075
 20
7.227980021921
 30
0.0
 11
3.925
 21
1.772019978079
 31
0.0
1001
TCAD
1000
TCW_CUSTOM_DATA
1002
{
1000
#$AUX@_ToolInfo Properties
1070
           8
1000
Insert^JLine^JSingle@Line Single
1002
}
  0
LINE
  5
78
100
AcDbEntity
  8
0
370
           0
  6
DASHDOT
 62
           7
 48
0.140000000596
100
AcDbLine
 10
2.772019978079
 20
2.925
 30
0.0
 11
8.227980021921
 21
6.075
 31
0.0
1001
TCAD
1000
TCW_CUSTOM_DATA
1002
{
1000
#$AUX@_ToolInfo Properties
1070
           8
1000
Insert^JLine^JSingle@Line Single
1002
}
  0
LINE
  5
79
100
AcDbEntity
  8
0
370
           0
  6
DASHDOT
 62
           7
 48
0.140000000596
100
AcDbLine
 10
3.925
 20
7.227980021921
 30
0.0
 11
7.075
 21
1.772019978079
 31
0.0
1001
TCAD
1000
TCW_CUSTOM_DATA
1002
{
1000
#$AUX@_ToolInfo Properties
1070
           8
1000
Insert^JLine^JSingle@Line Single
1002
}
  0
DIMENSION
  5
88
100
AcDbEntity
  8
0
  6
Continuous
 62
           7
100
AcDbDimension
  2
*D0
 10
8.227980021921
 20
2.925
 30
0.0
 11
8.707126307168
 21
3.64065309597
 31
0.0
 70
           2
 71
           5
 72
           1
 41
1.0
 42
0.0
  1
<30%%d>
  3
STANDARD
100
AcDb2LineAngularDimension
 13
2.5
 23
4.5
 33
0.0
 14
12.5
 24
4.5
 34
0.0
 15
2.772019978079
 25
6.075
 35
0.0
 16
8.645910069307
 26
3.438215611608
 36
0.0
1001
TCAD
1000
TCW_CUSTOM_DATA
1002
{
1000
#$AUX@_ToolInfo Properties
1070
           8
1000
Insert^JDimension^JAngular@Dimension Angular
1002
}
1001
ACAD
1000
DSTYLE
1002
{
1070
         148
1040
0.01
1070
         285
1070
           0
1070
          41
1040
0.2
1070
         179
1070
           2
1070
         271
1070
           4
1070
          45
1040
0.0001
1070
          77
1070
           0
1070
         272
1070
           4
1070
         172
1070
           0
1070
         140
1040
0.12
1070
          78
1070
           8
1002
}
1000
TCW_DSTYLE
1002
{
1070
           0
1002
}
  0
DIMENSION
  5
97
100
AcDbEntity
  8
0
  6
Continuous
 62
           7
100
AcDbDimension
  2
*D1
 10
3.925
 20
1.772019978079
 30
0.0
 11
6.358568338995
 21
1.295779337101
 31
0.0
 70
           2
 71
           5
 72
           1
 41
1.0
 42
0.0
  1
<90%%d>
  3
STANDARD
100
AcDb2LineAngularDimension
 13
2.772019978079
 23
6.075
 33
0.0
 14
8.227980021921
 24
2.925
 34
0.0
 15
7.075
 25
7.227980021921
 35
0.0
 16
6.375676714478
 26
1.300412535811
 36
0.0
1001
TCAD
1000
TCW_CUSTOM_DATA
1002
{
1000
#$AUX@_ToolInfo Properties
1070
           8
1000
Insert^JDimension^JAngular@Dimension Angular
1002
}
1001
ACAD
1000
DSTYLE
1002
{
1070
         148
1040
0.01
1070
         285
1070
           0
1070
          41
1040
0.2
1070
         179
1070
           2
1070
         271
1070
           4
1070
          45
1040
0.0001
1070
          77
1070
           0
1070
         272
1070
           4
1070
         172
1070
           0
1070
         140
1040
0.12
1070
          78
1070
           8
1002
}
1000
TCW_DSTYLE
1002
{
1070
           0
1002
}
  0
DIMENSION
  5
A6
100
AcDbEntity
  8
0
  6
Continuous
 62
           7
100
AcDbDimension
  2
*D2
 10
7.075
 20
1.772019978079
 30
0.0
 11
8.844583519159
 21
2.569003804886
 31
0.0
 70
           2
 71
           5
 72
           1
 41
1.0
 42
0.0
  1
<60%%d>
  3
STANDARD
100
AcDb2LineAngularDimension
 13
2.5
 23
4.5
 33
0.0
 14
12.5
 24
4.5
 34
0.0
 15
3.925
 25
7.227980021921
 35
0.0
 16
8.494561178985
 26
2.061232162035
 36
0.0
1001
TCAD
1000
TCW_CUSTOM_DATA
1002
{
1000
#$AUX@_ToolInfo Properties
1070
           8
1000
Insert^JDimension^JAngular@Dimension Angular
1002
}
1001
ACAD
1000
DSTYLE
1002
{
1070
         148
1040
0.01
1070
         285
1070
           0
1070
          41
1040
0.2
1070
         179
1070
           2
1070
         271
1070
           4
1070
          45
1040
0.0001
1070
          77
1070
           0
1070
         272
1070
           4
1070
         172
1070
           0
1070
         140
1040
0.12
1070
          78
1070
           8
1002
}
1000
TCW_DSTYLE
1002
{
1070
           0
1002
}
  0
DIMENSION
  5
B5
100
AcDbEntity
  8
0
  6
Continuous
 62
           7
100
AcDbDimension
  2
*D3
 10
2.772019978079
 20
2.925
 30
0.0
 11
4.499587447456
 21
0.766409525376
 31
0.0
 70
           2
 71
           5
 72
           1
 41
1.0
 42
0.0
  1
<90%%d>
  3
STANDARD
100
AcDb2LineAngularDimension
 13
3.925
 23
7.227980021921
 33
0.0
 14
7.075
 24
1.772019978079
 34
0.0
 15
8.227980021921
 25
6.075
 35
0.0
 16
3.36761751933
 26
1.276109793491
 36
0.0
1001
TCAD
1000
TCW_CUSTOM_DATA
1002
{
1000
#$AUX@_ToolInfo Properties
1070
           8
1000
Insert^JDimension^JAngular@Dimension Angular
1002
}
1001
ACAD
1000
DSTYLE
1002
{
1070
         148
1040
0.01
1070
         285
1070
           0
1070
          41
1040
0.2
1070
         179
1070
           2
1070
         271
1070
           4
1070
          45
1040
0.0001
1070
          77
1070
           0
1070
         272
1070
           4
1070
         172
1070
           0
1070
         140
1040
0.12
1070
          78
1070
           8
1002
}
1000
TCW_DSTYLE
1002
{
1070
           0
1002
}
  0
DIMENSION
  5
C1
100
AcDbEntity
  8
0
  6
Continuous
 62
           7
100
AcDbDimension
  2
*D4
 10
5.597457637098
 20
4.485708080212
 30
0.0
 11
2.164322562869
 21
4.901015401467
 31
0.0
 70
           3
 71
           5
 72
           1
 41
1.0
 42
0.0
  1
<%%c0.197>
  3
STANDARD
100
AcDbDiametricDimension
 15
5.402542362902
 25
4.514291919788
 35
0.0
 40
2.665300639187
1001
TCAD
1000
TCW_CUSTOM_DATA
1002
{
1000
#$AUX@_ToolInfo Properties
1070
           8
1000
Insert^JDimension^JDiameter@Dimension Diameter
1002
}
1001
ACAD
1000
DSTYLE
1002
{
1070
         148
1040
0.01
1070
         285
1070
           0
1070
          41
1040
0.2
1070
         179
1070
           2
1070
         271
1070
           4
1070
           3
1000
<>in
1070
          45
1040
0.0001
1070
          77
1070
           0
1070
         272
1070
           4
1070
         172
1070
           0
1070
         140
1040
0.12
1070
          78
1070
           8
1002
}
  0
DIMENSION
  5
CD
100
AcDbEntity
  8
0
  6
Continuous
 62
           7
100
AcDbDimension
  2
*D5
 10
8.132838142212
 20
3.901532526435
 30
0.0
 11
1.966287243954
 21
5.187129321501
 31
0.0
 70
           3
 71
           5
 72
           1
 41
1.0
 42
0.0
  1
<%%c5.4>
  3
STANDARD
100
AcDbDiametricDimension
 15
2.867161857788
 25
5.098467473565
 35
0.0
 40
0.4
1001
TCAD
1000
TCW_CUSTOM_DATA
1002
{
1000
#$AUX@_ToolInfo Properties
1070
           8
1000
Insert^JDimension^JDiameter@Dimension Diameter
1002
}
1001
ACAD
1000
DSTYLE
1002
{
1070
         148
1040
0.01
1070
         285
1070
           0
1070
          41
1040
0.2
1070
         179
1070
           2
1070
         271
1070
           4
1070
           3
1000
<>in
1070
          45
1040
0.0001
1070
          77
1070
           0
1070
         272
1070
           4
1070
         172
1070
           0
1070
         140
1040
0.12
1070
          78
1070
           8
1002
}
  0
DIMENSION
  5
D9
100
AcDbEntity
  8
0
  6
Continuous
 62
           7
100
AcDbDimension
  2
*D6
 10
3.020582037763
 20
4.478876916877
 30
0.0
 11
1.97278983423
 21
4.683451371629
 31
0.0
 70
           3
 71
           5
 72
           1
 41
1.0
 42
0.0
  1
<%%c0.11>
  3
STANDARD
100
AcDbDiametricDimension
 15
2.919017962237
 25
4.521123083123
 35
0.0
 40
0.422668216377
1001
TCAD
1000
TCW_CUSTOM_DATA
1002
{
1000
#$AUX@_ToolInfo Properties
1070
           8
1000
Insert^JDimension^JDiameter@Dimension Diameter
1002
}
1001
ACAD
1000
DSTYLE
1002
{
1070
         148
1040
0.01
1070
         285
1070
           0
1070
          41
1040
0.2
1070
         179
1070
           2
1070
         271
1070
           4
1070
           3
1000
<>in
1070
          45
1040
0.0001
1070
          77
1070
           0
1070
         272
1070
           4
1070
         172
1070
           0
1070
         140
1040
0.12
1070
          78
1070
           8
1002
}
  0
CIRCLE
  5
DA
100
AcDbEntity
  8
0
370
           0
  6
Continuous
 62
           7
100
AcDbCircle
 10
2.9698
 20
4.5
 30
0.0
 40
0.055
1001
TCAD
1000
TCW_CUSTOM_DATA
1002
{
1000
#$AUX@_ToolInfo Properties
1070
           8
1000
Insert^JCircle^JCenterAndPoint@Circle CenterAndPoint
1002
}
  0
CIRCLE
  5
DB
100
AcDbEntity
  8
0
370
           0
  6
Continuous
 62
           7
100
AcDbCircle
 10
5.5
 20
7.0302
 30
0.0
 40
0.055
1001
TCAD
1000
TCW_CUSTOM_DATA
1002
{
1000
#$AUX@_ToolInfo Properties
1070
           8
1000
Insert^JCircle^JCenterAndPoint@Circle CenterAndPoint
1002
}
  0
CIRCLE
  5
DC
100
AcDbEntity
  8
0
370
           0
  6
Continuous
 62
           7
100
AcDbCircle
 10
5.5
 20
1.9698
 30
0.0
 40
0.055
1001
TCAD
1000
TCW_CUSTOM_DATA
1002
{
1000
#$AUX@_ToolInfo Properties
1070
           8
1000
Insert^JCircle^JCenterAndPoint@Circle CenterAndPoint
1002
}
  0
CIRCLE
  5
DD
100
AcDbEntity
  8
0
370
           0
  6
Continuous
 62
           7
100
AcDbCircle
 10
8.0302
 20
4.5
 30
0.0
 40
0.055
1001
TCAD
1000
TCW_CUSTOM_DATA
1002
{
1000
#$AUX@_ToolInfo Properties
1070
           8
1000
Insert^JCircle^JCenterAndPoint@Circle CenterAndPoint
1002
}
  0
DIMENSION
  5
E9
100
AcDbEntity
  8
0
  6
Continuous
 62
           7
100
AcDbDimension
  2
*D7
 10
5.69110834096
 20
1.977027617667
 30
0.0
 11
3.458499909348
 21
10.13824837689
 31
0.0
 70
           3
 71
           5
 72
           1
 41
1.0
 42
0.0
  1
<%%c5.0604> diameter bolt circle^M^Jwith (4) 0.1100 diameter through holes^M^Jequally spaced (as shown)
  3
STANDARD
100
AcDbDiametricDimension
 15
5.30889165904
 25
7.022972382333
 35
0.0
 40
3.124200398158
1001
TCAD
1000
TCW_CUSTOM_DATA
1002
{
1000
#$AUX@_ToolInfo Properties
1070
           8
1000
Insert^JDimension^JDiameter@Dimension Diameter
1002
}
1001
ACAD
1000
DSTYLE
1002
{
1070
         148
1040
0.01
1070
         285
1070
           0
1070
          41
1040
0.2
1070
         179
1070
           2
1070
         271
1070
           4
1070
         147
1040
0.0
1070
         280
1070
           3
1070
           3
1000
<>in
1070
          45
1040
0.0001
1070
          77
1070
           0
1070
         272
1070
           4
1070
         172
1070
           0
1070
         140
1040
0.12
1070
          78
1070
           8
1002
}
  0
DIMENSION
  5
F5
100
AcDbEntity
  8
0
  6
Continuous
 62
           7
100
AcDbDimension
  2
*D8
 10
5.863879235613
 20
2.431765994407
 30
0.0
 11
2.779419815393
 21
9.176833449104
 31
0.0
 70
           3
 71
           5
 72
           1
 41
1.0
 42
0.0
  1
<%%c4.2> diameter bolt circle with ^M^J0.275 diameter through holes located as shown
  3
STANDARD
100
AcDbDiametricDimension
 15
5.136120764387
 25
6.568234005593
 35
0.0
 40
2.648664907627
1001
TCAD
1000
TCW_CUSTOM_DATA
1002
{
1000
#$AUX@_ToolInfo Properties
1070
           8
1000
Insert^JDimension^JDiameter@Dimension Diameter
1002
}
1001
ACAD
1000
DSTYLE
1002
{
1070
         148
1040
0.01
1070
         285
1070
           0
1070
          41
1040
0.2
1070
         179
1070
           2
1070
         271
1070
           4
1070
         147
1040
0.0
1070
         280
1070
           3
1070
           3
1000
<>in
1070
          45
1040
0.0001
1070
          77
1070
           0
1070
         272
1070
           4
1070
         172
1070
           0
1070
         140
1040
0.12
1070
          78
1070
           8
1002
}
  0
DIMENSION
  5
101
100
AcDbEntity
  8
0
  6
Continuous
 62
           7
100
AcDbDimension
  2
*D9
 10
5.694229320953
 20
3.723936232722
 30
0.0
 11
2.596024977061
 21
8.520472975075
 31
0.0
 70
           3
 71
           5
 72
           1
 41
1.0
 42
0.0
  1
<%%c1.6> diameter bolt circle with ^M^J0.275 diameter through holes located as shown
  3
STANDARD
100
AcDbDiametricDimension
 15
5.305770679047
 25
5.276063767278
 35
0.0
 40
3.344476930472
1001
TCAD
1000
TCW_CUSTOM_DATA
1002
{
1000
#$AUX@_ToolInfo Properties
1070
           8
1000
Insert^JDimension^JDiameter@Dimension Diameter
1002
}
1001
ACAD
1000
DSTYLE
1002
{
1070
         148
1040
0.01
1070
         285
1070
           0
1070
          41
1040
0.2
1070
         179
1070
           2
1070
         271
1070
           4
1070
         147
1040
0.0
1070
         280
1070
           3
1070
           3
1000
<>in
1070
          45
1040
0.0001
1070
          77
1070
           0
1070
         272
1070
           4
1070
         172
1070
           0
1070
         140
1040
0.12
1070
          78
1070
           8
1002
}
  0
DIMENSION
  5
110
100
AcDbEntity
  8
0
  6
Continuous
 62
           7
100
AcDbDimension
  2
*D10
 10
7.422190999315
 20
5.810388276802
 30
0.0
 11
10.026543870697
 21
7.344059779975
 31
0.0
 70
           2
 71
           5
 72
           1
 41
1.0
 42
0.0
  1
<4.2829%%d>
  3
STANDARD
100
AcDb2LineAngularDimension
 13
2.772019978079
 23
2.925
 33
0.0
 14
8.227980021921
 24
6.075
 34
0.0
 15
7.339564333866
 25
5.754060360484
 35
0.0
 16
9.981464150464
 26
7.414576215084
 36
0.0
1001
TCAD
1000
TCW_CUSTOM_DATA
1002
{
1000
#$AUX@_ToolInfo Properties
1070
           8
1000
Insert^JDimension^JAngular@Dimension Angular
1002
}
1001
ACAD
1000
DSTYLE
1002
{
1070
         148
1040
0.01
1070
         285
1070
           0
1070
          41
1040
0.1
1070
         179
1070
           4
1070
         271
1070
           4
1070
          45
1040
0.0001
1070
          77
1070
           0
1070
         272
1070
           4
1070
         172
1070
           0
1070
         140
1040
0.09
1070
          78
1070
           8
1002
}
1000
TCW_DSTYLE
1002
{
1070
           0
1002
}
  0
DIMENSION
  5
11F
100
AcDbEntity
  8
0
  6
Continuous
 62
           7
100
AcDbDimension
  2
*D11
 10
7.12736971268
 20
5.64092728791
 30
0.0
 11
10.252503484098
 21
7.529648978296
 31
0.0
 70
           2
 71
           5
 72
           1
 41
1.0
 42
0.0
  1
<5.0338%%d>
  3
STANDARD
100
AcDb2LineAngularDimension
 13
2.772019978079
 23
2.925
 33
0.0
 14
8.227980021921
 24
6.075
 34
0.0
 15
7.045488345928
 25
5.583521349376
 35
0.0
 16
10.142820643247
 26
7.695196202534
 36
0.0
1001
TCAD
1000
TCW_CUSTOM_DATA
1002
{
1000
#$AUX@_ToolInfo Properties
1070
           8
1000
Insert^JDimension^JAngular@Dimension Angular
1002
}
1001
ACAD
1000
DSTYLE
1002
{
1070
         148
1040
0.01
1070
         285
1070
           0
1070
          41
1040
0.1
1070
         179
1070
           4
1070
         271
1070
           4
1070
          45
1040
0.0001
1070
          77
1070
           0
1070
         272
1070
           4
1070
         172
1070
           0
1070
         140
1040
0.09
1070
          78
1070
           8
1002
}
1000
TCW_DSTYLE
1002
{
1070
           0
1002
}
  0
DIMENSION
  5
12E
100
AcDbEntity
  8
0
  6
Continuous
 62
           7
100
AcDbDimension
  2
*D12
 10
6.293380178063
 20
5.164323954927
 30
0.0
 11
10.36942807565
 21
7.905848215664
 31
0.0
 70
           2
 71
           5
 72
           1
 41
1.0
 42
0.0
  1
<9.9406%%d>
  3
STANDARD
100
AcDb2LineAngularDimension
 13
2.772019978079
 23
2.925
 33
0.0
 14
8.227980021921
 24
6.075
 34
0.0
 15
6.216709105279
 25
5.10012468236
 35
0.0
 16
10.514642126619
 26
7.688180702848
 36
0.0
1001
TCAD
1000
TCW_CUSTOM_DATA
1002
{
1000
#$AUX@_ToolInfo Properties
1070
           8
1000
Insert^JDimension^JAngular@Dimension Angular
1002
}
1001
ACAD
1000
DSTYLE
1002
{
1070
         148
1040
0.01
1070
         285
1070
           0
1070
          41
1040
0.1
1070
         179
1070
           4
1070
         271
1070
           4
1070
          45
1040
0.0001
1070
          77
1070
           0
1070
         272
1070
           4
1070
         172
1070
           0
1070
         140
1040
0.09
1070
          78
1070
           8
1002
}
1000
TCW_DSTYLE
1002
{
1070
           0
1002
}
  0
DIMENSION
  5
13D
100
AcDbEntity
  8
0
  6
Continuous
 62
           7
100
AcDbDimension
  2
*D13
 10
5.995888904091
 20
4.997641986979
 30
0.0
 11
10.38845715765
 21
8.257901936155
 31
0.0
 70
           2
 71
           5
 72
           1
 41
1.0
 42
0.0
  1
<15.1011%%d>
  3
STANDARD
100
AcDb2LineAngularDimension
 13
2.772019978079
 23
2.925
 33
0.0
 14
8.227980021921
 24
6.075
 34
0.0
 15
5.925303104678
 25
4.926806650308
 35
0.0
 16
10.515565219863
 26
8.086494928094
 36
0.0
1001
TCAD
1000
TCW_CUSTOM_DATA
1002
{
1000
#$AUX@_ToolInfo Properties
1070
           8
1000
Insert^JDimension^JAngular@Dimension Angular
1002
}
1001
ACAD
1000
DSTYLE
1002
{
1070
         148
1040
0.01
1070
         285
1070
           0
1070
          41
1040
0.1
1070
         179
1070
           4
1070
         271
1070
           4
1070
          45
1040
0.0001
1070
          77
1070
           0
1070
         272
1070
           4
1070
         172
1070
           0
1070
         140
1040
0.09
1070
          78
1070
           8
1002
}
1000
TCW_DSTYLE
1002
{
1070
           0
1002
}
  0
LWPOLYLINE
  5
13E
100
AcDbEntity
  8
0
370
           0
  6
Continuous
 62
           7
 48
0.140000000596
100
AcDbPolyline
 90
        4
 70
           1
 10
11.5
 20
7.2
 10
11.5
 20
7.2
 10
11.5
 20
7.2
 10
11.5
 20
7.2
1001
TCAD
1000
TCW_CUSTOM_DATA
1002
{
1000
#$AUX@_ToolInfo Properties
1070
           8
1000
Insert^JLine^JRectangle@Line Rectangle
1002
}
  0
LWPOLYLINE
  5
13F
100
AcDbEntity
  8
0
370
           0
  6
Continuous
 62
           7
 48
0.140000000596
100
AcDbPolyline
 90
        4
 70
           1
 10
11.5
 20
7.2
 10
11.5
 20
7.2
 10
11.5
 20
7.2
 10
11.5
 20
7.2
1001
TCAD
1000
TCW_CUSTOM_DATA
1002
{
1000
#$AUX@_ToolInfo Properties
1070
           8
1000
Insert^JLine^JRectangle@Line Rectangle
1002
}
  0
LWPOLYLINE
  5
140
100
AcDbEntity
  8
0
370
           0
  6
Continuous
 62
           7
 48
0.140000000596
100
AcDbPolyline
 90
        4
 70
           1
 10
11.5
 20
7.2
 10
11.7
 20
7.2
 10
11.7
 20
1.8
 10
11.5
 20
1.8
1001
TCAD
1000
TCW_REFPOINT
1002
{
1010
11.5
1020
4.5
1030
0.0
1002
}
1000
TCW_CUSTOM_DATA
1002
{
1000
#$AUX@_ToolInfo Properties
1070
           8
1000
Insert^JLine^JRectangle@Line Rectangle
1002
}
  0
LINE
  5
141
100
AcDbEntity
  8
0
370
           0
  6
DOT
 62
           7
 48
0.140000000596
100
AcDbLine
 10
11.5
 20
4.555
 30
0.0
 11
11.7
 21
4.555
 31
0.0
1001
TCAD
1000
TCW_CUSTOM_DATA
1002
{
1000
#$AUX@_ToolInfo Properties
1070
           8
1000
Insert^JLine^JSingle@Line Single
1002
}
  0
LINE
  5
142
100
AcDbEntity
  8
0
370
           0
  6
DOT
 62
           7
 48
0.140000000596
100
AcDbLine
 10
11.5
 20
4.445
 30
0.0
 11
11.7
 21
4.445
 31
0.0
1001
TCAD
1000
TCW_CUSTOM_DATA
1002
{
1000
#$AUX@_ToolInfo Properties
1070
           8
1000
Insert^JLine^JSingle@Line Single
1002
}
  0
LINE
  5
143
100
AcDbEntity
  8
0
370
           0
  6
DOT
 62
           7
 48
0.140000000596
100
AcDbLine
 10
11.5
 20
1.915
 30
0.0
 11
11.7
 21
1.915
 31
0.0
1001
TCAD
1000
TCW_CUSTOM_DATA
1002
{
1000
#$AUX@_ToolInfo Properties
1070
           8
1000
Insert^JLine^JSingle@Line Single
1002
}
  0
LINE
  5
144
100
AcDbEntity
  8
0
370
           0
  6
DOT
 62
           7
 48
0.140000000596
100
AcDbLine
 10
11.5
 20
2.025
 30
0.0
 11
11.7
 21
2.025
 31
0.0
1001
TCAD
1000
TCW_CUSTOM_DATA
1002
{
1000
#$AUX@_ToolInfo Properties
1070
           8
1000
Insert^JLine^JSingle@Line Single
1002
}
  0
LINE
  5
145
100
AcDbEntity
  8
0
370
           0
  6
DOT
 62
           7
 48
0.140000000596
100
AcDbLine
 10
11.5
 20
6.975
 30
0.0
 11
11.7
 21
6.975
 31
0.0
1001
TCAD
1000
TCW_CUSTOM_DATA
1002
{
1000
#$AUX@_ToolInfo Properties
1070
           8
1000
Insert^JLine^JSingle@Line Single
1002
}
  0
LINE
  5
146
100
AcDbEntity
  8
0
370
           0
  6
DOT
 62
           7
 48
0.140000000596
100
AcDbLine
 10
11.5
 20
7.085
 30
0.0
 11
11.7
 21
7.085
 31
0.0
1001
TCAD
1000
TCW_CUSTOM_DATA
1002
{
1000
#$AUX@_ToolInfo Properties
1070
           8
1000
Insert^JLine^JSingle@Line Single
1002
}
  0
LINE
  5
147
100
AcDbEntity
  8
0
370
           0
  6
DOT
 62
           7
 48
0.140000000596
100
AcDbLine
 10
11.5
 20
6.45536778657
 30
0.0
 11
11.7
 21
6.45536778657
 31
0.0
1001
TCAD
1000
TCW_CUSTOM_DATA
1002
{
1000
#$AUX@_ToolInfo Properties
1070
           8
1000
Insert^JLine^JSingle@Line Single
1002
}
  0
LINE
  5
148
100
AcDbEntity
  8
0
370
           0
  6
DOT
 62
           7
 48
0.140000000596
100
AcDbLine
 10
11.7
 20
6.181153347947
 30
0.0
 11
11.5
 21
6.181153347947
 31
0.0
1001
TCAD
1000
TCW_CUSTOM_DATA
1002
{
1000
#$AUX@_ToolInfo Properties
1070
           8
1000
Insert^JLine^JSingle@Line Single
1002
}
  0
LINE
  5
149
100
AcDbEntity
  8
0
370
           0
  6
DOT
 62
           7
 48
0.140000000596
100
AcDbLine
 10
11.5
 20
5.6875
 30
0.0
 11
11.7
 21
5.6875
 31
0.0
1001
TCAD
1000
TCW_CUSTOM_DATA
1002
{
1000
#$AUX@_ToolInfo Properties
1070
           8
1000
Insert^JLine^JSingle@Line Single
1002
}
  0
LINE
  5
14A
100
AcDbEntity
  8
0
370
           0
  6
DOT
 62
           7
 48
0.140000000596
100
AcDbLine
 10
11.5
 20
5.4125
 30
0.0
 11
11.7
 21
5.4125
 31
0.0
1001
TCAD
1000
TCW_CUSTOM_DATA
1002
{
1000
#$AUX@_ToolInfo Properties
1070
           8
1000
Insert^JLine^JSingle@Line Single
1002
}
  0
LINE
  5
14B
100
AcDbEntity
  8
0
370
           0
  6
DOT
 62
           7
 48
0.140000000596
100
AcDbLine
 10
11.5
 20
5.832224318643
 30
0.0
 11
11.65
 21
5.832224318643
 31
0.0
1001
TCAD
1000
TCW_CUSTOM_DATA
1002
{
1000
#$AUX@_ToolInfo Properties
1070
           8
1000
Insert^JLine^JSingle@Line Single
1002
}
  0
LINE
  5
14C
100
AcDbEntity
  8
0
370
           0
  6
DOT
 62
           7
 48
0.140000000596
100
AcDbLine
 10
11.65
 20
5.832224318643
 30
0.0
 11
11.65
 21
5.732224318643
 31
0.0
1001
TCAD
1000
TCW_CUSTOM_DATA
1002
{
1000
#$AUX@_ToolInfo Properties
1070
           8
1000
Insert^JLine^JSingle@Line Single
1002
}
  0
LINE
  5
14D
100
AcDbEntity
  8
0
370
           0
  6
DOT
 62
           7
 48
0.140000000596
100
AcDbLine
 10
11.5
 20
5.732224318643
 30
0.0
 11
11.65
 21
5.732224318643
 31
0.0
1001
TCAD
1000
TCW_CUSTOM_DATA
1002
{
1000
#$AUX@_ToolInfo Properties
1070
           8
1000
Insert^JLine^JSingle@Line Single
1002
}
  0
LINE
  5
14E
100
AcDbEntity
  8
0
370
           0
  6
DOT
 62
           7
 48
0.140000000596
100
AcDbLine
 10
11.5
 20
5.267775681357
 30
0.0
 11
11.65
 21
5.267775681357
 31
0.0
1001
TCAD
1000
TCW_CUSTOM_DATA
1002
{
1000
#$AUX@_ToolInfo Properties
1070
           8
1000
Insert^JLine^JSingle@Line Single
1002
}
  0
LINE
  5
14F
100
AcDbEntity
  8
0
370
           0
  6
DOT
 62
           7
 48
0.140000000596
100
AcDbLine
 10
11.65
 20
5.267775681357
 30
0.0
 11
11.65
 21
5.367775681357
 31
0.0
1001
TCAD
1000
TCW_CUSTOM_DATA
1002
{
1000
#$AUX@_ToolInfo Properties
1070
           8
1000
Insert^JLine^JSingle@Line Single
1002
}
  0
LINE
  5
150
100
AcDbEntity
  8
0
370
           0
  6
DOT
 62
           7
 48
0.140000000596
100
AcDbLine
 10
11.65
 20
5.367775681357
 30
0.0
 11
11.5
 21
5.367775681357
 31
0.0
1001
TCAD
1000
TCW_CUSTOM_DATA
1002
{
1000
#$AUX@_ToolInfo Properties
1070
           8
1000
Insert^JLine^JSingle@Line Single
1002
}
  0
LINE
  5
151
100
AcDbEntity
  8
0
370
           0
  6
DOT
 62
           7
 48
0.140000000596
100
AcDbLine
 10
11.5
 20
5.537775681357
 30
0.0
 11
11.65
 21
5.537775681357
 31
0.0
1001
TCAD
1000
TCW_CUSTOM_DATA
1002
{
1000
#$AUX@_ToolInfo Properties
1070
           8
1000
Insert^JLine^JSingle@Line Single
1002
}
  0
LINE
  5
152
100
AcDbEntity
  8
0
370
           0
  6
DOT
 62
           7
 48
0.140000000596
100
AcDbLine
 10
11.65
 20
5.537775681357
 30
0.0
 11
11.65
 21
5.437775681357
 31
0.0
1001
TCAD
1000
TCW_CUSTOM_DATA
1002
{
1000
#$AUX@_ToolInfo Properties
1070
           8
1000
Insert^JLine^JSingle@Line Single
1002
}
  0
LINE
  5
153
100
AcDbEntity
  8
0
370
           0
  6
DOT
 62
           7
 48
0.140000000596
100
AcDbLine
 10
11.65
 20
5.437775681357
 30
0.0
 11
11.5
 21
5.437775681357
 31
0.0
1001
TCAD
1000
TCW_CUSTOM_DATA
1002
{
1000
#$AUX@_ToolInfo Properties
1070
           8
1000
Insert^JLine^JSingle@Line Single
1002
}
  0
LINE
  5
154
100
AcDbEntity
  8
0
370
           0
  6
DOT
 62
           7
 48
0.140000000596
100
AcDbLine
 10
11.5
 20
5.662224318643
 30
0.0
 11
11.65
 21
5.662224318643
 31
0.0
1001
TCAD
1000
TCW_CUSTOM_DATA
1002
{
1000
#$AUX@_ToolInfo Properties
1070
           8
1000
Insert^JLine^JSingle@Line Single
1002
}
  0
LINE
  5
155
100
AcDbEntity
  8
0
370
           0
  6
DOT
 62
           7
 48
0.140000000596
100
AcDbLine
 10
11.65
 20
5.662224318643
 30
0.0
 11
11.65
 21
5.562224318643
 31
0.0
1001
TCAD
1000
TCW_CUSTOM_DATA
1002
{
1000
#$AUX@_ToolInfo Properties
1070
           8
1000
Insert^JLine^JSingle@Line Single
1002
}
  0
LINE
  5
156
100
AcDbEntity
  8
0
370
           0
  6
DOT
 62
           7
 48
0.140000000596
100
AcDbLine
 10
11.65
 20
5.562224318643
 30
0.0
 11
11.5
 21
5.562224318643
 31
0.0
1001
TCAD
1000
TCW_CUSTOM_DATA
1002
{
1000
#$AUX@_ToolInfo Properties
1070
           8
1000
Insert^JLine^JSingle@Line Single
1002
}
  0
LINE
  5
157
100
AcDbEntity
  8
0
370
           0
  6
DOT
 62
           7
 48
0.140000000596
100
AcDbLine
 10
11.5
 20
5.6875
 30
0.0
 11
11.7
 21
5.6875
 31
0.0
1001
TCAD
1000
TCW_CUSTOM_DATA
1002
{
1000
#$AUX@_ToolInfo Properties
1070
           8
1000
Insert^JLine^JSingle@Line Single
1002
}
  0
LINE
  5
158
100
AcDbEntity
  8
0
370
           0
  6
DOT
 62
           7
 48
0.140000000596
100
AcDbLine
 10
11.7
 20
5.4125
 30
0.0
 11
11.5
 21
5.4125
 31
0.0
1001
TCAD
1000
TCW_CUSTOM_DATA
1002
{
1000
#$AUX@_ToolInfo Properties
1070
           8
1000
Insert^JLine^JSingle@Line Single
1002
}
  0
LINE
  5
159
100
AcDbEntity
  8
0
370
           0
  6
DASHDOT
 62
           7
 48
0.140000000596
100
AcDbLine
 10
11.39234981716
 20
5.317775681357
 30
0.0
 11
11.75
 21
5.317775681357
 31
0.0
1001
TCAD
1000
TCW_CUSTOM_DATA
1002
{
1000
#$AUX@_ToolInfo Properties
1070
           8
1000
Insert^JLine^JSingle@Line Single
1002
}
  0
LINE
  5
15A
100
AcDbEntity
  8
0
370
           0
  6
DASHDOT
 62
           7
 48
0.140000000596
100
AcDbLine
 10
11.39234981716
 20
5.487775681357
 30
0.0
 11
11.75
 21
5.487775681357
 31
0.0
1001
TCAD
1000
TCW_CUSTOM_DATA
1002
{
1000
#$AUX@_ToolInfo Properties
1070
           8
1000
Insert^JLine^JSingle@Line Single
1002
}
  0
LINE
  5
15B
100
AcDbEntity
  8
0
370
           0
  6
DASHDOT
 62
           7
 48
0.140000000596
100
AcDbLine
 10
11.395403840554
 20
1.97
 30
0.0
 11
11.75
 21
1.97
 31
0.0
1001
TCAD
1000
TCW_CUSTOM_DATA
1002
{
1000
#$AUX@_ToolInfo Properties
1070
           8
1000
Insert^JLine^JSingle@Line Single
1002
}
  0
LINE
  5
15C
100
AcDbEntity
  8
0
370
           0
  6
DASHDOT
 62
           7
 48
0.140000000596
100
AcDbLine
 10
11.395403840554
 20
4.5
 30
0.0
 11
11.75
 21
4.5
 31
0.0
1001
TCAD
1000
TCW_CUSTOM_DATA
1002
{
1000
#$AUX@_ToolInfo Properties
1070
           8
1000
Insert^JLine^JSingle@Line Single
1002
}
  0
LINE
  5
15D
100
AcDbEntity
  8
0
370
           0
  6
DASHDOT
 62
           7
 48
0.140000000596
100
AcDbLine
 10
11.395403840554
 20
7.03
 30
0.0
 11
11.75
 21
7.03
 31
0.0
1001
TCAD
1000
TCW_CUSTOM_DATA
1002
{
1000
#$AUX@_ToolInfo Properties
1070
           8
1000
Insert^JLine^JSingle@Line Single
1002
}
  0
LINE
  5
15E
100
AcDbEntity
  8
0
370
           0
  6
DASHDOT
 62
           7
 48
0.140000000596
100
AcDbLine
 10
11.395403840554
 20
6.318653347947
 30
0.0
 11
11.75
 21
6.318653347947
 31
0.0
1001
TCAD
1000
TCW_CUSTOM_DATA
1002
{
1000
#$AUX@_ToolInfo Properties
1070
           8
1000
Insert^JLine^JSingle@Line Single
1002
}
  0
LINE
  5
15F
100
AcDbEntity
  8
0
370
           0
  6
DASHDOT
 62
           7
 48
0.140000000596
100
AcDbLine
 10
11.395403840554
 20
5.782224318643
 30
0.0
 11
11.75
 21
5.782224318643
 31
0.0
1001
TCAD
1000
TCW_CUSTOM_DATA
1002
{
1000
#$AUX@_ToolInfo Properties
1070
           8
1000
Insert^JLine^JSingle@Line Single
1002
}
  0
LINE
  5
160
100
AcDbEntity
  8
0
370
           0
  6
DASHDOT
 62
           7
 48
0.140000000596
100
AcDbLine
 10
11.395403840554
 20
5.612224318643
 30
0.0
 11
11.75
 21
5.612224318643
 31
0.0
1001
TCAD
1000
TCW_CUSTOM_DATA
1002
{
1000
#$AUX@_ToolInfo Properties
1070
           8
1000
Insert^JLine^JSingle@Line Single
1002
}
  0
LINE
  5
161
100
AcDbEntity
  8
0
370
           0
  6
DASHDOT
 62
           7
 48
0.140000000596
100
AcDbLine
 10
11.395403840554
 20
5.55
 30
0.0
 11
11.75
 21
5.55
 31
0.0
1001
TCAD
1000
TCW_CUSTOM_DATA
1002
{
1000
#$AUX@_ToolInfo Properties
1070
           8
1000
Insert^JLine^JSingle@Line Single
1002
}
  0
LINE
  5
162
100
AcDbEntity
  8
0
370
           0
  6
DOT
 62
           7
 48
0.140000000596
100
AcDbLine
 10
11.5
 20
4.5985
 30
0.0
 11
11.7
 21
4.5985
 31
0.0
1001
TCAD
1000
TCW_CUSTOM_DATA
1002
{
1000
#$AUX@_ToolInfo Properties
1070
           8
1000
Insert^JLine^JSingle@Line Single
1002
}
  0
LINE
  5
163
100
AcDbEntity
  8
0
370
           0
  6
DOT
 62
           7
 48
0.140000000596
100
AcDbLine
 10
11.7
 20
4.4015
 30
0.0
 11
11.5
 21
4.4015
 31
0.0
1001
TCAD
1000
TCW_CUSTOM_DATA
1002
{
1000
#$AUX@_ToolInfo Properties
1070
           8
1000
Insert^JLine^JSingle@Line Single
1002
}
  0
DIMENSION
  5
172
100
AcDbEntity
  8
0
  6
Continuous
 62
           7
100
AcDbDimension
  2
*D14
 10
8.227980021921
 20
6.075
 30
0.0
 11
10.208997307462
 21
5.761772025695
 31
0.0
 70
           2
 71
           5
 72
           1
 41
1.0
 42
0.0
  1
<30%%d>
  3
STANDARD
100
AcDb2LineAngularDimension
 13
2.5
 23
4.5
 33
0.0
 14
12.5
 24
4.5
 34
0.0
 15
2.772019978079
 25
2.925
 35
0.0
 16
9.751757750996
 26
6.885221229436
 36
0.0
1001
TCAD
1000
TCW_CUSTOM_DATA
1002
{
1000
#$AUX@_ToolInfo Properties
1070
           8
1000
Insert^JDimension^JAngular@Dimension Angular
1002
}
1001
ACAD
1000
DSTYLE
1002
{
1070
         148
1040
0.01
1070
         285
1070
           0
1070
          41
1040
0.1
1070
         179
1070
           2
1070
         271
1070
           4
1070
          45
1040
0.0001
1070
          77
1070
           0
1070
         272
1070
           4
1070
         172
1070
           0
1070
         140
1040
0.09
1070
          78
1070
           8
1002
}
1000
TCW_DSTYLE
1002
{
1070
           0
1002
}
  0
DIMENSION
  5
182
100
AcDbEntity
  8
0
  6
Continuous
 62
           7
100
AcDbDimension
  2
*D15
 10
11.65
 20
5.814256422222
 30
0.0
 11
12.18369709675
 21
5.814256422222
 31
0.0
 70
           1
 71
           5
 72
           1
 41
1.0
 42
0.0
  1
<0.15>
  3
STANDARD
100
AcDbAlignedDimension
 13
11.5
 23
5.782224318643
 33
0.0
 14
11.65
 24
5.782224318643
 34
0.0
1001
TCAD
1000
TCW_CUSTOM_DATA
1002
{
1000
#$AUX@_ToolInfo Properties
1070
           8
1000
Insert^JDimension^JOrthogonal@Dimension Orthogonal
1002
}
1001
ACAD
1000
DSTYLE
1002
{
1070
         148
1040
0.01
1070
         285
1070
           0
1070
          41
1040
0.1
1070
         179
1070
           2
1070
         271
1070
           4
1070
           3
1000
<>in
1070
          45
1040
0.0001
1070
          77
1070
           0
1070
         272
1070
           4
1070
         172
1070
           0
1070
         140
1040
0.09
1070
          78
1070
           8
1002
}
  0
DIMENSION
  5
192
100
AcDbEntity
  8
0
  6
Continuous
 62
           7
100
AcDbDimension
  2
*D16
 10
11.7
 20
7.503991378121
 30
0.0
 11
12.199834661542
 21
7.503991378121
 31
0.0
 70
           1
 71
           5
 72
           1
 41
1.0
 42
0.0
  1
<0.2>
  3
STANDARD
100
AcDbAlignedDimension
 13
11.5
 23
7.2
 33
0.0
 14
11.7
 24
7.2
 34
0.0
1001
TCAD
1000
TCW_CUSTOM_DATA
1002
{
1000
#$AUX@_ToolInfo Properties
1070
           8
1000
Insert^JDimension^JOrthogonal@Dimension Orthogonal
1002
}
1001
ACAD
1000
DSTYLE
1002
{
1070
         148
1040
0.01
1070
         285
1070
           0
1070
          41
1040
0.1
1070
         179
1070
           2
1070
         271
1070
           4
1070
           3
1000
<>in
1070
          45
1040
0.0001
1070
          77
1070
           0
1070
         272
1070
           4
1070
         172
1070
           0
1070
         140
1040
0.09
1070
          78
1070
           8
1002
}
  0
DIMENSION
  5
19E
100
AcDbEntity
  8
0
  6
Continuous
 62
           7
100
AcDbDimension
  2
*D17
 10
5.112470631737
 20
3.594670784337
 30
0.0
 11
7.831859709938
 21
8.437791253457
 31
0.0
 70
           3
 71
           5
 72
           1
 41
1.0
 42
0.0
  1
<%%c1.9696>
  3
STANDARD
100
AcDbDiametricDimension
 15
5.887529368263
 25
5.405329215663
 35
0.0
 40
3.298602069332
1001
TCAD
1000
TCW_CUSTOM_DATA
1002
{
1000
#$AUX@_ToolInfo Properties
1070
           8
1000
Insert^JDimension^JDiameter@Dimension Diameter
1002
}
1001
ACAD
1000
DSTYLE
1002
{
1070
         148
1040
0.01
1070
         285
1070
           0
1070
          41
1040
0.2
1070
         179
1070
           2
1070
         271
1070
           4
1070
           3
1000
<>in
1070
          45
1040
0.0001
1070
          77
1070
           0
1070
         272
1070
           4
1070
         172
1070
           0
1070
         140
1040
0.12
1070
          78
1070
           8
1002
}
  0
DIMENSION
  5
1AA
100
AcDbEntity
  8
0
  6
Continuous
 62
           7
100
AcDbDimension
  2
*D18
 10
5.308609583067
 20
3.876165319731
 30
0.0
 11
7.419362200574
 21
8.649614298806
 31
0.0
 70
           3
 71
           5
 72
           1
 41
1.0
 42
0.0
  1
<%%c1.3051>
  3
STANDARD
100
AcDbDiametricDimension
 15
5.691390416933
 25
5.123834680269
 35
0.0
 40
3.687979319282
1001
TCAD
1000
TCW_CUSTOM_DATA
1002
{
1000
#$AUX@_ToolInfo Properties
1070
           8
1000
Insert^JDimension^JDiameter@Dimension Diameter
1002
}
1001
ACAD
1000
DSTYLE
1002
{
1070
         148
1040
0.01
1070
         285
1070
           0
1070
          41
1040
0.2
1070
         179
1070
           2
1070
         271
1070
           4
1070
           3
1000
<>in
1070
          45
1040
0.0001
1070
          77
1070
           0
1070
         272
1070
           4
1070
         172
1070
           0
1070
         140
1040
0.12
1070
          78
1070
           8
1002
}
  0
DIMENSION
  5
1B6
100
AcDbEntity
  8
0
  6
Continuous
 62
           7
100
AcDbDimension
  2
*D19
 10
5.052437781202
 20
2.614930224022
 30
0.0
 11
7.27443064323
 21
9.251637690851
 31
0.0
 70
           3
 71
           5
 72
           1
 41
1.0
 42
0.0
  1
<%%c3.8749>
  3
STANDARD
100
AcDbDiametricDimension
 15
5.947562218798
 25
6.385069775978
 35
0.0
 40
2.946255255823
1001
TCAD
1000
TCW_CUSTOM_DATA
1002
{
1000
#$AUX@_ToolInfo Properties
1070
           8
1000
Insert^JDimension^JDiameter@Dimension Diameter
1002
}
1001
ACAD
1000
DSTYLE
1002
{
1070
         148
1040
0.01
1070
         285
1070
           0
1070
          41
1040
0.2
1070
         179
1070
           2
1070
         271
1070
           4
1070
           3
1000
<>in
1070
          45
1040
0.0001
1070
          77
1070
           0
1070
         272
1070
           4
1070
         172
1070
           0
1070
         140
1040
0.12
1070
          78
1070
           8
1002
}
  0
DIMENSION
  5
1C2
100
AcDbEntity
  8
0
  6
Continuous
 62
           7
100
AcDbDimension
  2
*D20
 10
5.049049716231
 20
2.268757332434
 30
0.0
 11
7.162944829888
 21
9.530352224205
 31
0.0
 70
           3
 71
           5
 72
           1
 41
1.0
 42
0.0
  1
<%%c4.5527>
  3
STANDARD
100
AcDbDiametricDimension
 15
5.950950283769
 25
6.731242667566
 35
0.0
 40
2.855705474403
1001
TCAD
1000
TCW_CUSTOM_DATA
1002
{
1000
#$AUX@_ToolInfo Properties
1070
           8
1000
Insert^JDimension^JDiameter@Dimension Diameter
1002
}
1001
ACAD
1000
DSTYLE
1002
{
1070
         148
1040
0.01
1070
         285
1070
           0
1070
          41
1040
0.2
1070
         179
1070
           2
1070
         271
1070
           4
1070
           3
1000
<>in
1070
          45
1040
0.0001
1070
          77
1070
           0
1070
         272
1070
           4
1070
         172
1070
           0
1070
         140
1040
0.12
1070
          78
1070
           8
1002
}
  0
MTEXT
  5
1C3
100
AcDbEntity
  8
0
  6
Continuous
 62
           7
100
AcDbMText
 10
7.475388915653
 20
10.011832105924
 30
0.0
 40
0.120000001788
 41
2.943562654092
 71
           1
 72
           1
  1
{(4) 3/56 blind tapped holes 0.15" deep\P        located symmetrically about the \P        30deg centerline at shown angles,\P        on bolt circles shown on the left \P        The pattern is repeated every 90deg}
 73
           1
 44
1.0
1001
TCAD
1000
TCW_CUSTOM_DATA
1002
{
1000
#$AUX@_ToolInfo Properties
1070
           8
1000
Insert^JText@Text
1002
}
1000
TCW40_TEXT
1002
{
1000
Times New Roman
1070
           0
1070
         257
1002
}
  0
LINE
  5
1C4
100
AcDbEntity
  8
0
370
           0
  6
DASHDOT
 62
           7
 48
0.140000000596
100
AcDbLine
 10
2.5
 20
4.5
 30
0.0
 11
12.5
 21
4.5
 31
0.0
1001
TCAD
1000
TCW_CUSTOM_DATA
1002
{
1000
#$AUX@_ToolInfo Properties
1070
           8
1000
Insert^JLine^JSingle@Line Single
1002
}
  0
MTEXT
  5
1C5
100
AcDbEntity
  8
0
  6
Continuous
 62
           7
100
AcDbMText
 10
11.0
 20
10.5
 30
0.0
 40
0.15
 41
2.37003968254
 71
           1
 72
           1
  1
{Aluminum Faceplate\Pfor the Active Collimator\P\PIgor Senderovich\PAdvisor: Richard T. Jones}
 73
           1
 44
1.0
1001
TCAD
1000
TCW_CUSTOM_DATA
1002
{
1000
#$AUX@_ToolInfo Properties
1070
           8
1000
Insert^JText@Text
1002
}
1000
TCW40_TEXT
1002
{
1000
Times New Roman
1070
           0
1070
         257
1002
}
  0
ENDSEC
  0
SECTION
  2
OBJECTS
  0
DICTIONARY
  5
19
100
AcDbDictionary
280
           0
281
           1
  3
ACAD_GROUP
350
1A
  3
ACAD_MLINESTYLE
350
1B
  3
ACAD_LAYOUT
350
1E
  3
ACAD_PLOTSETTINGS
350
22
  3
ACAD_PLOTSTYLENAME
350
1F
  0
DICTIONARY
  5
1A
102
{ACAD_REACTORS
330
19
102
}
100
AcDbDictionary
280
           0
281
           1
  0
DICTIONARY
  5
1B
102
{ACAD_REACTORS
330
19
102
}
100
AcDbDictionary
280
           0
281
           1
  3
Standard
350
1C
  0
MLINESTYLE
  5
1C
100
AcDbMlineStyle
  2
STANDARD
 70
           0
  3

 62
         256
 51
90.0
 52
90.0
 71
           3
 49
0.25
 62
           7
  6
ByLayer
 49
0.0
 62
           7
  6
ByLayer
 49
-0.25
 62
           7
  6
ByLayer
  0
ACDBDICTIONARYWDFLT
  5
1F
102
{ACAD_REACTORS
330
19
102
}
100
AcDbDictionary
281
           1
  3
Normal
350
1D
100
AcDbDictionaryWithDefault
340
1D
  0
ACDBPLACEHOLDER
  5
1D
102
{ACAD_REACTORS
330
1F
102
}
  0
LAYOUT
  5
21
102
{ACAD_REACTORS
330
1E
102
}
100
AcDbPlotSettings
  1

  2

  4

  6

 40
0.0
 41
0.0
 42
0.0
 43
0.0
 44
0.0
 45
0.0
 46
0.0
 47
0.0
 48
0.0
 49
0.0
140
0.0
141
0.0
142
1.0
143
1.0
 70
           0
 72
           0
 73
           0
 74
           0
  7

 75
           0
147
1.0
148
0.0
149
0.0
100
AcDbLayout
  1
Layout1
 70
           0
 71
           0
 10
0.0
 20
0.0
 11
0.0
 21
0.0
 12
0.0
 22
0.0
 32
0.0
 14
0.0
 24
0.0
 34
0.0
 15
0.0
 25
0.0
 35
0.0
146
0.0
 13
0.0
 23
0.0
 33
0.0
 16
0.0
 26
0.0
 36
0.0
 17
0.0
 27
0.0
 37
0.0
 76
           0
330
B
331
0
345
0
346
0
  0
DICTIONARY
  5
1E
102
{ACAD_REACTORS
330
19
102
}
100
AcDbDictionary
280
           0
281
           1
  3
Model
350
1C6
  3
Paper 1
350
1C7
  0
DICTIONARY
  5
22
102
{ACAD_REACTORS
330
19
102
}
100
AcDbDictionary
280
           0
281
           1
  0
LAYOUT
  5
1C6
100
AcDbPlotSettings
  1

  2

  4

  6

 40
0.0
 41
0.0
 42
0.0
 43
0.0
 44
0.0
 45
0.0
 46
0.0
 47
0.0
 48
0.0
 49
0.0
140
0.0
141
0.0
142
1.0
143
1.0
 70
           0
 72
           0
 73
           0
 74
           0
  7

 75
           0
147
1.0
148
0.0
149
0.0
100
AcDbLayout
  1
Model
 70
           0
 71
           0
 10
0.0
 20
0.0
 11
0.0
 21
0.0
 12
0.0
 22
0.0
 32
0.0
 14
0.0
 24
0.0
 34
0.0
 15
0.0
 25
0.0
 35
0.0
146
0.0
 13
0.0
 23
0.0
 33
0.0
 16
0.0
 26
0.0
 36
0.0
 17
0.0
 27
0.0
 37
0.0
 76
           0
330
A
331
0
345
0
346
0
  0
LAYOUT
  5
1C7
100
AcDbPlotSettings
  1

  2

  4

  6

 40
0.0
 41
0.0
 42
0.0
 43
0.0
 44
0.0
 45
0.0
 46
0.0
 47
0.0
 48
0.0
 49
0.0
140
0.0
141
0.0
142
1.0
143
1.0
 70
           0
 72
           0
 73
           0
 74
           0
  7

 75
           0
147
1.0
148
0.0
149
0.0
100
AcDbLayout
  1
Paper 1
 70
           1
 71
           1
 10
0.0
 20
0.0
 11
0.0
 21
0.0
 12
0.0
 22
0.0
 32
0.0
 14
0.0
 24
0.0
 34
0.0
 15
0.0
 25
0.0
 35
0.0
146
0.0
 13
0.0
 23
0.0
 33
0.0
 16
0.0
 26
0.0
 36
0.0
 17
0.0
 27
0.0
 37
0.0
 76
           0
330
B
331
0
345
0
346
0
  0
ENDSEC
  0
EOF
